<?xml version="1.0" standalone="no"?>
<!DOCTYPE svg PUBLIC "-//W3C//DTD SVG 1.1//EN" "http://www.w3.org/Graphics/SVG/1.1/DTD/svg11.dtd" >
<svg xmlns="http://www.w3.org/2000/svg" xmlns:xlink="http://www.w3.org/1999/xlink" version="1.1">
<metadata>
Created by FontForge 20201107 at Wed Apr 15 13:33:05 2020
 By 
Copyright 2020 The DM Mono Project Authors (https://www.github.com/googlefonts/dm-mono)
</metadata>
<defs>
<font id="DMMono-Regular" horiz-adv-x="600" >
  <font-face 
    font-family="DM Mono"
    font-weight="400"
    font-stretch="normal"
    units-per-em="1000"
    panose-1="2 11 5 9 4 2 1 4 1 3"
    ascent="800"
    descent="-200"
    x-height="496"
    cap-height="700"
    bbox="0 -270 666 967"
    underline-thickness="50"
    underline-position="-125"
    unicode-range="U+000D-25CA"
  />
<missing-glyph 
d="M88 0v700h424v-700h-424zM158 64h284v572h-284v-572z" />
    <glyph glyph-name=".notdef" 
d="M88 0v700h424v-700h-424zM158 64h284v572h-284v-572z" />
    <glyph glyph-name=".null" horiz-adv-x="0" 
 />
    <glyph glyph-name="nonmarkingreturn" horiz-adv-x="333" 
 />
    <glyph glyph-name="CR" unicode="&#xd;" 
 />
    <glyph glyph-name="space" unicode=" " 
 />
    <glyph glyph-name="exclam" unicode="!" 
d="M260 249l-11 451h102l-12 -451h-79zM300 -2q-31 0 -53 21t-22 52q0 30 22 51t53 21q32 0 53.5 -21t21.5 -51q0 -31 -21.5 -52t-53.5 -21z" />
    <glyph glyph-name="quotedbl" unicode="&#x22;" 
d="M146 391v309h92v-309h-92zM363 391v309h92v-309h-92z" />
    <glyph glyph-name="numbersign" unicode="#" 
d="M89 0l31 197h-103v74h114l25 158h-99v74h111l30 197h80l-31 -197h154l30 197h80l-31 -197h103v-74h-114l-25 -158h100v-74h-112l-30 -197h-80l31 197h-154l-30 -197h-80zM211 271h153l25 158h-153z" />
    <glyph glyph-name="dollar" unicode="$" 
d="M263 -87v77q-99 12 -157.5 71.5t-59.5 151.5h88q1 -53 33.5 -93.5t95.5 -51.5v265q-105 28 -149.5 77.5t-44.5 121.5q0 70 50.5 119.5t143.5 58.5v81h70v-80q91 -9 144.5 -61.5t54.5 -130.5h-87q-1 36 -28.5 70t-83.5 44v-237q5 -2 10 -3q97 -25 150.5 -71.5t53.5 -131.5
q0 -55 -26.5 -98.5t-74.5 -70.5t-113 -32v-76h-70zM156 533q0 -38 23.5 -65t83.5 -50v216q-47 -7 -77 -33.5t-30 -67.5zM460 184q0 49 -28.5 78t-98.5 52v-249q62 7 94.5 40.5t32.5 78.5z" />
    <glyph glyph-name="percent" unicode="%" 
d="M166 402q-64 0 -105.5 42t-41.5 113t41.5 113t105.5 42t105.5 -42t41.5 -113t-41.5 -113t-105.5 -42zM166 462q32 0 56.5 24.5t24.5 70.5t-24.5 70.5t-56.5 24.5t-56.5 -24.5t-24.5 -70.5t24.5 -70.5t56.5 -24.5zM70 65l-48 47l508 523l48 -47zM434 -12q-64 0 -105.5 42
t-41.5 113t41.5 113t105.5 42t105.5 -42t41.5 -113t-41.5 -113t-105.5 -42zM434 48q32 0 56.5 24.5t24.5 70.5t-24.5 70.5t-56.5 24.5t-56.5 -24.5t-24.5 -70.5t24.5 -70.5t56.5 -24.5z" />
    <glyph glyph-name="ampersand" unicode="&#x26;" 
d="M250 -12q-64 0 -112.5 26.5t-75.5 74.5t-27 113q0 63 32.5 114.5t93.5 86.5q-27 39 -39.5 74t-12.5 71q0 71 48.5 117.5t131.5 46.5q80 0 127.5 -45t47.5 -114h-83q0 40 -28 62.5t-65 22.5q-45 0 -70.5 -25t-25.5 -64q0 -31 16 -63t49 -73l159 -198l67 147h89l-101 -215
l118 -147h-99l-62 75q-30 -40 -73.5 -63.5t-104.5 -23.5zM119 204q0 -60 36.5 -100t94.5 -40q42 0 72 19t54 56l-169 205q-88 -49 -88 -140z" />
    <glyph glyph-name="quotesingle" unicode="'" 
d="M254 391v309h92v-309h-92z" />
    <glyph glyph-name="parenleft" unicode="(" 
d="M348 -185q-52 58 -96.5 129.5t-71.5 162t-27 206.5t27 206.5t71.5 162t96.5 129.5h89v-9q-60 -65 -105 -138.5t-70 -159.5t-25 -191t25 -191t70 -159.5t105 -138.5v-9h-89z" />
    <glyph glyph-name="parenright" unicode=")" 
d="M163 -185v9q60 65 105 138.5t70 159.5t25 191t-25 191t-70 159.5t-105 138.5v9h89q52 -58 96.5 -129.5t71.5 -162t27 -206.5t-27 -206.5t-71.5 -162t-96.5 -129.5h-89z" />
    <glyph glyph-name="asterisk" unicode="*" 
d="M256 101l21 210l-173 -117l-40 72l188 84l-188 85l40 71l173 -117l-21 210h88l-20 -210l172 117l40 -71l-188 -85l188 -84l-40 -72l-172 117l20 -210h-88z" />
    <glyph glyph-name="plus" unicode="+" 
d="M262 125v187h-187v76h187v187h76v-187h187v-76h-187v-187h-76z" />
    <glyph glyph-name="comma" unicode="," 
d="M164 -122l88 269h111l-119 -269h-80z" />
    <glyph glyph-name="hyphen" unicode="-" 
d="M135 314v72h330v-72h-330z" />
    <glyph glyph-name="period" unicode="." 
d="M300 -2q-31 0 -53 21t-22 52q0 30 22 51t53 21t53 -21t22 -51q0 -31 -22 -52t-53 -21z" />
    <glyph glyph-name="slash" unicode="/" 
d="M83 -90l346 850h88l-347 -850h-87z" />
    <glyph glyph-name="zero" unicode="0" 
d="M300 -12q-79 0 -139.5 44t-94 125t-33.5 193t33.5 193t94 125t139.5 44q80 0 140 -44t93.5 -125t33.5 -193t-33.5 -193t-93.5 -125t-140 -44zM119 350q0 -68 14.5 -122.5t40.5 -91.5l194 481q-31 17 -68 17q-53 0 -94 -34.5t-64 -98t-23 -151.5zM300 65q53 0 94 34.5
t64 98.5t23 152q0 68 -14.5 122.5t-40.5 91.5l-195 -482q32 -17 69 -17z" />
    <glyph glyph-name="one" unicode="1" 
d="M70 0v76h181v525l-171 -33v64l199 68h56v-624h191v-76h-456z" />
    <glyph glyph-name="two" unicode="2" 
d="M74 0v66q108 86 188.5 158t124.5 139t44 137q0 63 -35.5 99.5t-95.5 36.5q-46 0 -78 -20t-48 -53t-16 -71h-83q1 69 30.5 118.5t80 75.5t114.5 26q103 0 160 -57t57 -153q0 -63 -27 -120.5t-72 -110.5t-101 -102t-113 -94h332v-75h-462z" />
    <glyph glyph-name="three" unicode="3" 
d="M309 -12q-69 0 -123.5 25.5t-87.5 74.5t-36 120h86q2 -60 44 -101.5t117 -41.5q73 0 113 37.5t40 102.5q0 45 -23 74.5t-61.5 44t-85.5 14.5h-61v76h53q68 0 108.5 29t40.5 85q0 47 -32.5 77t-92.5 30q-58 0 -94 -32.5t-41 -84.5h-84q2 57 30 100.5t76.5 68.5t112.5 25
q69 0 115.5 -24t70.5 -64.5t24 -89.5q0 -52 -32 -91.5t-76 -55.5v-6q59 -18 98 -61t39 -115q0 -61 -28.5 -110t-82 -78t-127.5 -29z" />
    <glyph glyph-name="four" unicode="4" 
d="M386 0v162h-335v65l319 473h100v-462h100v-76h-100v-162h-84zM145 238h245v364z" />
    <glyph glyph-name="five" unicode="5" 
d="M300 -12q-72 0 -124 27t-82 73t-36 105h86q9 -57 51 -92.5t106 -35.5q75 0 118 48.5t43 122.5q0 78 -44 122.5t-114 44.5q-56 0 -95.5 -25.5t-63.5 -64.5h-80l60 387h374v-77h-308l-37 -208h5q23 25 62.5 44t91.5 19q69 0 120.5 -29.5t80.5 -84t29 -127.5
q0 -68 -28.5 -124.5t-83 -90.5t-131.5 -34z" />
    <glyph glyph-name="six" unicode="6" 
d="M314 -12q-92 0 -149.5 44.5t-85 120t-27.5 170.5q0 115 32 202.5t92.5 137t145.5 49.5q67 0 114.5 -25.5t75 -69t32.5 -97.5h-79q-10 53 -48 84.5t-95 31.5q-50 0 -91.5 -31.5t-68 -97t-30.5 -166.5h5q23 43 71 75t116 32q63 0 113 -29t79.5 -80t29.5 -116
q0 -64 -28.5 -117.5t-81 -85.5t-122.5 -32zM308 64q69 0 111 44t42 110q0 67 -42 110.5t-111 43.5q-46 0 -80.5 -20t-54 -55t-19.5 -79t19.5 -79t54 -55t80.5 -20z" />
    <glyph glyph-name="seven" unicode="7" 
d="M172 0l273 624h-382v76h469v-67l-271 -633h-89z" />
    <glyph glyph-name="eight" unicode="8" 
d="M300 -12q-70 0 -122.5 26.5t-82.5 72.5t-30 105q0 66 35 112t81 64v5q-44 21 -70.5 60.5t-26.5 92.5q0 51 26.5 93.5t75.5 67.5t114 25q64 0 112.5 -25t76 -67.5t27.5 -93.5q0 -53 -26.5 -92.5t-70.5 -60.5v-5q46 -18 81 -64t35 -112q0 -59 -30 -105t-82.5 -72.5
t-122.5 -26.5zM300 404q62 0 97.5 32.5t35.5 84.5q0 51 -35.5 83.5t-97.5 32.5t-97.5 -32.5t-35.5 -83.5q0 -52 35.5 -84.5t97.5 -32.5zM300 64q67 0 108.5 34.5t41.5 100.5q0 65 -41.5 99.5t-108.5 34.5t-108.5 -34.5t-41.5 -99.5q0 -66 41.5 -100.5t108.5 -34.5z" />
    <glyph glyph-name="nine" unicode="9" 
d="M288 -12q-64 0 -113.5 25.5t-79 69t-34.5 97.5h81q9 -53 47.5 -84.5t98.5 -31.5q79 0 129 71.5t57 223.5h-6q-27 -47 -69 -77t-118 -30q-63 0 -113 29t-79.5 80t-29.5 116q0 64 28.5 117.5t81 85.5t122.5 32q132 0 197 -90t65 -245q0 -115 -31 -202.5t-90 -137
t-144 -49.5zM297 328q70 0 112 44t42 110t-42 110t-112 44t-111.5 -44t-41.5 -110q0 -67 41.5 -110.5t111.5 -43.5z" />
    <glyph glyph-name="colon" unicode=":" 
d="M300 -2q-31 0 -53 21t-22 52q0 30 22 51t53 21t53 -21t22 -51q0 -31 -22 -52t-53 -21zM300 393q-31 0 -53 21t-22 52q0 30 22 51t53 21t53 -21t22 -51q0 -31 -22 -52t-53 -21z" />
    <glyph glyph-name="semicolon" unicode=";" 
d="M300 393q-31 0 -53 21t-22 52q0 30 22 51t53 21t53 -21t22 -51q0 -31 -22 -52t-53 -21zM164 -122l88 269h111l-119 -269h-80z" />
    <glyph glyph-name="less" unicode="&#x3c;" 
d="M372 80l-266 270l266 268h114l-264 -265v-6l264 -267h-114z" />
    <glyph glyph-name="equal" unicode="=" 
d="M75 435v76h450v-76h-450zM75 189v76h450v-76h-450z" />
    <glyph glyph-name="greater" unicode="&#x3e;" 
d="M115 80l264 267v6l-264 265h113l266 -268l-266 -270h-113z" />
    <glyph glyph-name="question" unicode="?" 
d="M220 211l-5 148h31q84 0 132 34t48 113q0 61 -36.5 95.5t-99.5 34.5q-61 0 -98 -33.5t-41 -90.5h-80q2 59 29.5 104t76 70.5t113.5 25.5q99 0 158.5 -55t59.5 -150q0 -72 -30.5 -116t-79.5 -66t-103 -26l-3 -88h-72zM254 -2q-31 0 -53 21t-22 52q0 30 22 51t53 21
q32 0 53.5 -21t21.5 -51q0 -31 -21.5 -52t-53.5 -21z" />
    <glyph glyph-name="at" unicode="@" 
d="M373 -94q-109 0 -181.5 51.5t-108.5 141.5t-36 204q0 104 23.5 179t64.5 123.5t92 71.5t106 23q103 0 163 -52t60 -149v-392h-60l-8 57h-4q-15 -28 -42.5 -47t-69.5 -19q-75 0 -124 54t-49 152t48.5 151t124.5 53q42 0 69.5 -15t42.5 -40v46q0 62 -41.5 97.5t-109.5 35.5
q-53 0 -101 -32t-78.5 -104t-30.5 -193q0 -88 27 -163t83 -120.5t140 -45.5h140v-68h-140zM378 161q46 0 76 34.5t30 107.5t-30 107.5t-76 34.5t-76 -34.5t-30 -107.5t30 -107.5t76 -34.5z" />
    <glyph glyph-name="A" unicode="A" 
d="M33 0l219 700h97l218 -700h-92l-51 174h-248l-51 -174h-92zM298 582l-101 -338h206l-101 338h-4z" />
    <glyph glyph-name="B" unicode="B" 
d="M66 0v700h233q109 0 164 -50t55 -128q0 -61 -33 -100.5t-74 -55.5v-7q49 -16 86 -58t37 -108q0 -54 -26.5 -97.5t-77 -69.5t-123.5 -26h-241zM150 398h143q67 0 102.5 29.5t35.5 85.5q0 53 -35 82t-106 29h-140v-226zM150 77h148q72 0 111 32.5t39 91.5t-41 91.5
t-111 32.5h-146v-248z" />
    <glyph glyph-name="C" unicode="C" 
d="M305 -12q-85 0 -146.5 45t-94 126t-32.5 191q0 109 32.5 190.5t94 126.5t146.5 45q108 0 174 -59.5t77 -158.5h-93q-10 59 -50 99t-108 40q-87 0 -137 -75.5t-50 -207.5q0 -133 50 -208t137 -75q71 0 109.5 38t48.5 98h93q-16 -100 -79.5 -157.5t-171.5 -57.5z" />
    <glyph glyph-name="D" unicode="D" 
d="M66 0v700h147q172 0 254.5 -94t82.5 -256t-82.5 -256t-254.5 -94h-147zM150 77h61q92 0 147.5 34t80.5 95t25 144t-25 144t-80.5 95t-147.5 34h-61v-546z" />
    <glyph glyph-name="E" unicode="E" 
d="M86 0v700h437v-76h-353v-233h323v-76h-323v-239h353v-76h-437z" />
    <glyph glyph-name="F" unicode="F" 
d="M91 0v700h437v-78h-353v-244h302v-75h-302v-303h-84z" />
    <glyph glyph-name="G" unicode="G" 
d="M293 -12q-74 0 -132 43.5t-90.5 124.5t-32.5 194q0 112 33 193t93.5 125t143.5 44q99 0 161.5 -58t74.5 -156h-93q-10 60 -46.5 97.5t-96.5 37.5q-86 0 -135 -75t-49 -208q0 -135 49 -209t127 -74q56 0 92 33.5t54.5 86t20.5 108.5h-156v72h242v-367h-77l-7 106h-4
q-21 -54 -61.5 -86t-110.5 -32z" />
    <glyph glyph-name="H" unicode="H" 
d="M47 0v700h84v-302h339v302h84v-700h-84v322h-339v-322h-84z" />
    <glyph glyph-name="I" unicode="I" 
d="M99 0v73h159v554h-159v73h402v-73h-159v-554h159v-73h-402z" />
    <glyph glyph-name="J" unicode="J" 
d="M308 -12q-103 0 -158 58.5t-55 161.5h85q1 -59 31 -100.5t96 -41.5t94.5 40t28.5 100v494h84v-494q0 -105 -54 -161.5t-152 -56.5z" />
    <glyph glyph-name="K" unicode="K" 
d="M82 0v700h84v-326l274 326h107l-295 -348v-4l299 -348h-109l-276 321v-321h-84z" />
    <glyph glyph-name="L" unicode="L" 
d="M87 0v700h84v-624h355v-76h-439z" />
    <glyph glyph-name="M" unicode="M" 
d="M50 0v700h90l160 -333l160 333h90v-700h-82v538l-136 -283h-64l-136 282v-537h-82z" />
    <glyph glyph-name="N" unicode="N" 
d="M57 0v700h86l318 -553v553h83v-700h-87l-318 553v-553h-82z" />
    <glyph glyph-name="O" unicode="O" 
d="M300 -12q-85 0 -146 45t-93.5 126.5t-32.5 190.5t32.5 190.5t93.5 126.5t146 45t146 -45t93.5 -126.5t32.5 -190.5t-32.5 -190.5t-93.5 -126.5t-146 -45zM300 67q83 0 134.5 74t51.5 209t-51.5 209t-134.5 74q-84 0 -135 -74t-51 -209t51 -209t135 -74z" />
    <glyph glyph-name="P" unicode="P" 
d="M74 0v700h233q80 0 131 -29t75 -77t24 -106t-24 -106t-75 -77t-131 -29h-149v-276h-84zM158 353h147q74 0 110 37.5t36 97.5t-36 98t-110 38h-147v-271z" />
    <glyph glyph-name="Q" unicode="Q" 
d="M300 -12q-85 0 -146 45t-93.5 126.5t-32.5 190.5t32.5 190.5t93.5 126.5t146 45t146 -45t93.5 -126.5t32.5 -190.5q0 -125 -43 -213.5t-120 -125.5l150 -160h-110l-128 138q-11 -1 -21 -1zM300 67q83 0 134.5 74t51.5 209t-51.5 209t-134.5 74q-84 0 -135 -74t-51 -209
t51 -209t135 -74z" />
    <glyph glyph-name="R" unicode="R" 
d="M82 0v700h215q81 0 133.5 -27t78.5 -73.5t26 -105.5q0 -69 -35.5 -121.5t-108.5 -73.5l152 -299h-100l-141 287h-5h-131v-287h-84zM166 364h128q80 0 117.5 36.5t37.5 93.5q0 60 -36.5 95t-119.5 35h-127v-260z" />
    <glyph glyph-name="S" unicode="S" 
d="M307 -12q-74 0 -128.5 28t-84 78t-30.5 117h88q1 -60 40.5 -103.5t114.5 -43.5q69 0 106.5 33.5t37.5 80.5q0 39 -18 65.5t-58.5 47t-108.5 42.5q-96 29 -140 79t-44 124q0 50 26 90t75 63t119 23q66 0 115.5 -24.5t77 -68.5t27.5 -101h-88q0 28 -15 55t-45 45t-76 18
q-55 0 -92 -26.5t-37 -72.5q0 -35 16.5 -59t54.5 -43.5t103 -41.5q61 -20 104.5 -46.5t67 -65.5t23.5 -97q0 -57 -29 -101t-81 -69.5t-121 -25.5z" />
    <glyph glyph-name="T" unicode="T" 
d="M258 0v624h-188v76h460v-76h-188v-624h-84z" />
    <glyph glyph-name="U" unicode="U" 
d="M299 -12q-70 0 -124.5 29t-86 88.5t-31.5 149.5v445h84v-448q0 -90 44 -139t116 -49t115 49t43 139v448h84v-445q0 -90 -32 -149.5t-87 -88.5t-125 -29z" />
    <glyph glyph-name="V" unicode="V" 
d="M250 0l-223 700h90l183 -591l183 591h91l-224 -700h-100z" />
    <glyph glyph-name="W" unicode="W" 
d="M109 0l-107 700h85l71 -540l99 540h86l99 -540l71 540h85l-107 -700h-96l-95 538l-95 -538h-96z" />
    <glyph glyph-name="X" unicode="X" 
d="M41 0l211 350l-211 350h96l165 -274l161 274h96l-212 -349l212 -351h-96l-166 275l-160 -275h-96z" />
    <glyph glyph-name="Y" unicode="Y" 
d="M258 0v275l-227 425h95l174 -340l174 340h95l-227 -425v-275h-84z" />
    <glyph glyph-name="Z" unicode="Z" 
d="M69 0v69l362 555h-357v76h454v-69l-363 -555h367v-76h-463z" />
    <glyph glyph-name="bracketleft" unicode="[" 
d="M266 -185q-46 0 -70.5 25t-24.5 71v804q0 46 24.5 71t70.5 25h159v-74h-151q-24 0 -24 -25v-797q0 -25 24 -25h151v-75h-159z" />
    <glyph glyph-name="backslash" unicode="\" 
d="M430 -90l-347 850h88l346 -850h-87z" />
    <glyph glyph-name="bracketright" unicode="]" 
d="M175 -185v75h151q24 0 24 25v797q0 25 -24 25h-151v74h159q46 0 70.5 -25t24.5 -71v-804q0 -46 -24.5 -71t-70.5 -25h-159z" />
    <glyph glyph-name="asciicircum" unicode="^" 
d="M54 374l207 326h78l207 -326h-88l-156 248h-4l-156 -248h-88z" />
    <glyph glyph-name="underscore" unicode="_" 
d="M75 -77v77h450v-77h-450z" />
    <glyph glyph-name="grave" unicode="`" 
d="M405 536l-210 105v86l210 -112v-79z" />
    <glyph glyph-name="a" unicode="a" 
d="M258 -12q-59 0 -98 21t-58 55.5t-19 75.5q0 76 55.5 115.5t148.5 39.5h136v10q0 130 -119 130q-48 0 -80.5 -21t-41.5 -66h-86q5 50 33.5 86t73.5 55t101 19q106 0 154.5 -55.5t48.5 -147.5v-305h-72l-7 77h-7q-22 -36 -58.5 -62.5t-104.5 -26.5zM273 62q48 0 81.5 23
t51 61t17.5 83h-129q-68 0 -95.5 -23t-27.5 -61q0 -39 26 -61t76 -22z" />
    <glyph glyph-name="b" unicode="b" 
d="M317 -12q-57 0 -96.5 23.5t-58.5 64.5h-6l-9 -76h-69v720h84v-295q19 33 59.5 58t95.5 25q64 0 113 -30t77 -88t28 -141q0 -84 -28 -142.5t-77.5 -88.5t-112.5 -30zM306 68q63 0 103.5 44.5t40.5 135.5t-40.5 135.5t-103.5 44.5t-104 -44.5t-41 -135.5t41 -135.5
t104 -44.5z" />
    <glyph glyph-name="c" unicode="c" 
d="M308 -12q-67 0 -119.5 31t-83.5 89.5t-31 139.5t31 139.5t84.5 89.5t118.5 31q92 0 147 -46t70 -123h-86q-12 41 -46 65.5t-86 24.5q-38 0 -72 -20t-55 -60t-21 -101t21 -101.5t55 -60.5t72 -20q55 0 87.5 25t44.5 66h86q-19 -79 -74.5 -124t-142.5 -45z" />
    <glyph glyph-name="d" unicode="d" 
d="M283 -12q-63 0 -112.5 30t-77.5 88.5t-28 142.5q0 83 28 141t77.5 88t112.5 30q59 0 97.5 -23t57.5 -60v295h84v-720h-69l-9 77h-6q-20 -41 -59 -65t-96 -24zM294 68q63 0 104 44.5t41 135.5t-41 135.5t-104 44.5t-103.5 -44.5t-40.5 -135.5t40.5 -135.5t103.5 -44.5z
" />
    <glyph glyph-name="e" unicode="e" 
d="M305 -12q-70 0 -123.5 32.5t-84.5 91t-31 136.5t30.5 136.5t84.5 91t126 32.5t123 -32.5t78 -85.5t27 -114q0 -11 -0.5 -22t-0.5 -25h-385q3 -55 25.5 -91.5t57 -54.5t73.5 -18q55 0 86 23t47 64h83q-17 -69 -71 -116.5t-145 -47.5zM305 433q-58 0 -101.5 -35t-53.5 -98
h302q-4 62 -44.5 97.5t-102.5 35.5z" />
    <glyph glyph-name="f" unicode="f" 
d="M92 -220v77h61q38 0 54 15t16 53v499h-123v72h123v79q0 77 37 111t112 34h119v-76h-114q-37 0 -53.5 -15.5t-16.5 -53.5v-79h184v-72h-184v-499q0 -77 -37 -111t-111 -34h-67z" />
    <glyph glyph-name="g" unicode="g" 
d="M291 146q-52 0 -93 19l-34 -41q-11 -15 -5.5 -29.5t28.5 -14.5h131q89 0 144 -34.5t55 -109.5q0 -45 -23 -83t-72.5 -61.5t-129.5 -23.5q-104 0 -167 39t-63 119q0 29 14.5 53.5t36.5 43.5q-29 18 -35.5 54t21.5 71l45 56q-48 50 -48 123q0 48 23 89.5t66.5 66.5
t105.5 25q40 0 74 -12h186v-63l-93 -3v-7q26 -43 26 -96q0 -48 -22.5 -89.5t-66 -66.5t-104.5 -25zM291 218q49 0 80.5 29t31.5 80t-31.5 79.5t-80.5 28.5q-50 0 -82 -28.5t-32 -79.5t32 -80t82 -29zM145 -71q0 -44 41 -66t106 -22q63 0 102.5 25t39.5 67q0 33 -28 55.5
t-103 22.5h-113q-45 -33 -45 -82z" />
    <glyph glyph-name="h" unicode="h" 
d="M83 0v720h84v-299q20 38 66 62.5t101 24.5q91 0 138.5 -55t47.5 -154v-299h-84v288q0 67 -32.5 104t-90.5 37q-40 0 -73 -18t-53 -53t-20 -86v-272h-84z" />
    <glyph glyph-name="i" unicode="i" 
d="M294 584q-30 0 -50 20t-20 48q0 29 20 48.5t50 19.5q29 0 49.5 -19.5t20.5 -48.5q0 -28 -20.5 -48t-49.5 -20zM100 0v72h158v327q0 25 -25 25h-116v72h136q89 0 89 -89v-335h158v-72h-400z" />
    <glyph glyph-name="j" unicode="j" 
d="M320 584q-29 0 -49.5 20t-20.5 48q0 29 20.5 48.5t49.5 19.5q30 0 50 -19.5t20 -48.5q0 -28 -20 -48t-50 -20zM61 -220v72h198q25 0 25 26v521q0 25 -25 25h-120v72h140q89 0 89 -89v-538q0 -89 -89 -89h-218z" />
    <glyph glyph-name="k" unicode="k" 
d="M111 0v720h84v-434l207 210h107l-221 -221v-6l248 -269h-104l-237 258v-258h-84z" />
    <glyph glyph-name="l" unicode="l" 
d="M75 0v72h169v551q0 25 -25 25h-126v72h146q43 0 66 -23t23 -66v-559h169v-72h-422z" />
    <glyph glyph-name="m" unicode="m" 
d="M37 0v496h69l9 -58h5q13 30 39.5 50t64.5 20t64.5 -18.5t38.5 -51.5h4q13 30 42 50t70 20q57 0 85.5 -38.5t28.5 -102.5v-367h-82v354q0 36 -14.5 57t-46.5 21q-33 0 -54 -25t-21 -71v-336h-83v354q0 36 -14 57t-46 21q-33 0 -54.5 -25t-21.5 -71v-336h-83z" />
    <glyph glyph-name="n" unicode="n" 
d="M88 0v496h70l9 -75h5q20 36 63 61.5t99 25.5q91 0 136.5 -54t45.5 -156v-298h-84v288q0 66 -29 103.5t-90 37.5q-59 0 -100 -40.5t-41 -116.5v-272h-84z" />
    <glyph glyph-name="o" unicode="o" 
d="M300 -12q-70 0 -124 32t-85 90.5t-31 137.5t31 137.5t85 90.5t124 32t124 -32t85 -90.5t31 -137.5t-31 -137.5t-85 -90.5t-124 -32zM300 68q43 0 78 19t55.5 59t20.5 102t-20.5 102t-55.5 59t-78 19q-42 0 -77 -19t-56 -59t-21 -102q0 -93 45 -136.5t109 -43.5z" />
    <glyph glyph-name="p" unicode="p" 
d="M78 -220v716h68l10 -82h6q19 40 61 67t99 27q60 0 108.5 -30t76.5 -88.5t28 -142.5q0 -83 -28.5 -141t-78 -88t-113.5 -30q-57 0 -96.5 24.5t-56.5 57.5v-290h-84zM305 68q63 0 104 44.5t41 135.5t-41 135.5t-104 44.5t-104 -44.5t-41 -135.5t41 -135.5t104 -44.5z" />
    <glyph glyph-name="q" unicode="q" 
d="M441 -220v294q-19 -36 -55.5 -61t-98.5 -25q-63 0 -112.5 30t-78 88t-28.5 141q0 84 28.5 142.5t77 88.5t108.5 30q59 0 99 -25t60 -63h6l10 76h68v-716h-84zM298 68q63 0 104 44.5t41 135.5t-41 135.5t-104 44.5t-104 -44.5t-41 -135.5t41 -135.5t104 -44.5z" />
    <glyph glyph-name="r" unicode="r" 
d="M84 0v72h127v327q0 25 -24 25h-90v72h121q33 0 53 -18t20 -53v-21h4q12 50 45.5 77t93.5 27h91v-89h-103q-61 0 -94 -40.5t-33 -103.5v-203h156v-72h-367z" />
    <glyph glyph-name="s" unicode="s" 
d="M305 -12q-95 0 -153.5 44.5t-65.5 122.5h87q6 -41 40.5 -67t93.5 -26q56 0 83.5 24t27.5 55q0 42 -33 57.5t-99 23.5q-79 9 -131 43t-52 102q0 61 51 101t139 40q87 0 137 -39.5t57 -112.5h-83q-3 36 -34.5 57.5t-78.5 21.5q-49 0 -76 -18.5t-27 -48.5t30.5 -49.5
t96.5 -25.5q52 -6 95 -20t68.5 -44t25.5 -84q1 -45 -24.5 -80.5t-70.5 -56t-104 -20.5z" />
    <glyph glyph-name="t" unicode="t" 
d="M352 0q-68 0 -107 33t-39 119v272h-126v72h75q51 0 59 50l14 77h62v-127h198v-72h-198v-272q0 -42 19.5 -59t67.5 -17h111v-76h-136z" />
    <glyph glyph-name="u" unicode="u" 
d="M265 -12q-90 0 -136 54t-46 156v298h84v-288q0 -66 29.5 -103.5t89.5 -37.5t101 40.5t41 116.5v272h84v-496h-70l-9 75h-5q-20 -36 -63 -61.5t-100 -25.5z" />
    <glyph glyph-name="v" unicode="v" 
d="M251 0l-218 496h96l171 -404l172 404h95l-219 -496h-97z" />
    <glyph glyph-name="w" unicode="w" 
d="M124 0l-110 496h83l71 -371l85 371h94l85 -371l71 371h84l-111 -496h-86l-90 385l-90 -385h-86z" />
    <glyph glyph-name="x" unicode="x" 
d="M73 0l169 248l-173 248h93l138 -200l138 200h93l-173 -248l169 -248h-93l-134 201l-135 -201h-92z" />
    <glyph glyph-name="y" unicode="y" 
d="M149 -220l122 268h-29l-196 448h91l163 -384l172 384h88l-323 -716h-88z" />
    <glyph glyph-name="z" unicode="z" 
d="M102 0v77l292 341h-287v78h386v-77l-293 -341h298v-78h-396z" />
    <glyph glyph-name="braceleft" unicode="{" 
d="M392 -185q-72 0 -114.5 35.5t-42.5 113.5q0 38 5.5 68.5t11 65.5t5.5 84q0 43 -22.5 68.5t-73.5 25.5h-47v74h47q51 0 73.5 25.5t22.5 68.5q0 50 -5.5 84.5t-11 65t-5.5 68.5q0 78 42.5 113.5t114.5 35.5h96v-74h-87q-41 0 -63 -19.5t-22 -64.5q0 -40 5.5 -69.5t11 -60
t5.5 -73.5q0 -53 -23 -87.5t-60 -47.5v-4q37 -13 60 -47.5t23 -87.5q0 -43 -5.5 -73.5t-11 -60t-5.5 -69.5q0 -45 22 -64.5t63 -19.5h87v-74h-96z" />
    <glyph glyph-name="bar" unicode="|" 
d="M258 -270v990h84v-990h-84z" />
    <glyph glyph-name="braceright" unicode="}" 
d="M112 -185v74h87q41 0 63 19.5t22 64.5q0 40 -5.5 69.5t-11 60t-5.5 73.5q0 53 23 87.5t60 47.5v4q-37 13 -60 47.5t-23 87.5q0 43 5.5 73.5t11 60t5.5 69.5q0 45 -22 64.5t-63 19.5h-87v74h96q72 0 114.5 -35.5t42.5 -113.5q0 -38 -5.5 -68.5t-11 -65t-5.5 -84.5
q0 -43 22.5 -68.5t73.5 -25.5h47v-74h-47q-51 0 -73.5 -25.5t-22.5 -68.5q0 -49 5.5 -84t11 -65.5t5.5 -68.5q0 -78 -42.5 -113.5t-114.5 -35.5h-96z" />
    <glyph glyph-name="asciitilde" unicode="~" 
d="M387 250q-29 0 -53 10t-44.5 23t-40 22.5t-39.5 9.5q-25 0 -41 -17.5t-19 -47.5h-71q6 71 41.5 105.5t92.5 34.5q29 0 53 -9.5t44.5 -22.5t40 -23t39.5 -10q25 0 41 18t19 47h71q-6 -71 -41.5 -105.5t-92.5 -34.5z" />
    <glyph glyph-name="uni00A0" unicode="&#xa0;" 
 />
    <glyph glyph-name="exclamdown" unicode="&#xa1;" 
d="M300 362q-31 0 -53 21.5t-22 51.5t22 51.5t53 21.5t53 -21.5t22 -51.5t-22 -51.5t-53 -21.5zM249 -220l12 477h79l11 -477h-102z" />
    <glyph glyph-name="cent" unicode="&#xa2;" 
d="M275 0v93q-57 8 -101.5 40.5t-70 87.5t-25.5 129t25.5 128.5t70.5 87.5t101 41v93h69v-92q77 -8 124 -52.5t61 -114.5h-86q-10 34 -35.5 57t-63.5 30v-357q40 7 64.5 30.5t34.5 57.5h86q-17 -71 -64.5 -115t-120.5 -52v-92h-69zM163 350q0 -77 33 -121t79 -56v353
q-46 -11 -79 -55t-33 -121z" />
    <glyph glyph-name="sterling" unicode="&#xa3;" 
d="M83 0v54q37 41 60 82t23 97q0 17 -2.5 33.5t-6.5 31.5h-113v67h89q-12 31 -22.5 65t-10.5 77q0 62 28 108t77 71.5t114 25.5q71 0 118.5 -27t72 -73.5t26.5 -104.5h-82q-3 56 -37.5 93.5t-97.5 37.5q-35 0 -66 -14t-50.5 -44t-19.5 -77q0 -36 10.5 -70.5t22.5 -67.5h192
v-67h-170q4 -14 6.5 -29t2.5 -30q0 -49 -16 -86.5t-46 -73.5v-4h352v-75h-454z" />
    <glyph glyph-name="currency" unicode="&#xa4;" 
d="M139 92l-44 44l61 61q-27 43 -27 100q0 56 27 99l-61 62l44 44l61 -60q43 30 100 30q56 0 100 -31l61 61l44 -44l-62 -62q28 -44 28 -99t-28 -98l62 -63l-44 -44l-62 61q-43 -31 -99 -31q-58 0 -101 30zM300 186q25 0 49 12.5t40 37t16 61.5t-16 61.5t-40 37t-49 12.5
q-40 0 -72.5 -28t-32.5 -83t32.5 -83t72.5 -28z" />
    <glyph glyph-name="yen" unicode="&#xa5;" 
d="M77 160v68h181v47l-20 37h-161v69h124l-170 319h95l174 -340l174 340h95l-170 -319h124v-69h-161l-20 -37v-47h181v-68h-181v-160h-84v160h-181z" />
    <glyph glyph-name="brokenbar" unicode="&#xa6;" 
d="M258 308v412h84v-412h-84zM258 -270v412h84v-412h-84z" />
    <glyph glyph-name="section" unicode="&#xa7;" 
d="M297 -232q-66 0 -115.5 24.5t-77 68.5t-27.5 101h87q0 -28 15.5 -55t45.5 -45t75 -18q55 0 92.5 26.5t37.5 73.5q0 34 -16.5 58t-54.5 43.5t-103 41.5q-61 20 -104.5 45.5t-67 62.5t-23.5 93q0 39 16 72.5t44 57.5q-39 48 -39 118q0 50 26 90t75 63t119 23
q66 0 115.5 -24.5t77 -68.5t27.5 -101h-88q0 28 -15 55t-45 45t-76 18q-55 0 -92 -26.5t-37 -72.5q0 -35 16.5 -59t54.5 -43.5t103 -41.5q61 -20 104.5 -45.5t67 -62.5t23.5 -92q0 -40 -16 -73t-45 -58q39 -47 39 -118q0 -50 -25.5 -90t-74.5 -63t-119 -23zM333 147
q49 -15 85 -36q33 31 33 72q0 38 -18 63.5t-58.5 45.5t-108.5 41q-50 15 -85 36q-33 -32 -33 -76q0 -36 18 -60.5t58.5 -44.5t108.5 -41z" />
    <glyph glyph-name="dieresis" unicode="&#xa8;" 
d="M392 565q-24 0 -40.5 17t-16.5 40q0 24 16.5 41t40.5 17t40 -17t16 -41q0 -23 -16 -40t-40 -17zM209 565q-24 0 -40.5 17t-16.5 40q0 24 16.5 41t40.5 17t40.5 -17t16.5 -41q0 -23 -16.5 -40t-40.5 -17z" />
    <glyph glyph-name="copyright" unicode="&#xa9;" 
d="M300 60q-82 0 -148 38t-104 104t-38 148q0 83 38 148.5t104 103.5t148 38q83 0 148.5 -38t103.5 -103.5t38 -148.5q0 -82 -38 -148t-103.5 -104t-148.5 -38zM300 105q70 0 124.5 32t86.5 87.5t32 125.5q0 71 -32 126t-86.5 87t-124.5 32q-69 0 -124 -32t-87 -87t-32 -126
q0 -70 32 -125.5t87 -87.5t124 -32zM299 170q-67 0 -113 47t-46 133q0 58 22 98t58 61t79 21q63 0 99.5 -31t46.5 -83h-50q-11 32 -34.5 50t-61.5 18q-43 0 -76 -32.5t-33 -101.5t33 -102t76 -33q41 0 65.5 19t32.5 50h48q-12 -54 -49.5 -84t-96.5 -30z" />
    <glyph glyph-name="ordfeminine" unicode="&#xaa;" 
d="M264 290q-71 0 -105.5 36.5t-34.5 85.5q0 59 43.5 91.5t119.5 32.5h106v8q0 97 -90 97q-36 0 -60.5 -16t-32.5 -50h-77q8 63 55.5 97t114.5 34q87 0 127 -44t40 -118v-244h-66l-6 58h-6q-17 -28 -46 -48t-82 -20zM279 355q36 0 62 17.5t39 46t13 60.5h-99q-48 0 -69 -17
t-21 -46q0 -28 20 -44.5t55 -16.5z" />
    <glyph glyph-name="guillemotleft" unicode="&#xab;" 
d="M401 98l-117 197l117 197h88l-112 -195v-4l112 -195h-88zM221 98l-117 197l117 197h88l-112 -195v-4l112 -195h-88z" />
    <glyph glyph-name="logicalnot" unicode="&#xac;" 
d="M449 125v187h-374v76h450v-263h-76z" />
    <glyph glyph-name="uni00AD" unicode="&#xad;" 
d="M135 314v72h330v-72h-330z" />
    <glyph glyph-name="registered" unicode="&#xae;" 
d="M300 60q-82 0 -148 38t-104 104t-38 148q0 83 38 148.5t104 103.5t148 38q83 0 148.5 -38t103.5 -103.5t38 -148.5q0 -82 -38 -148t-103.5 -104t-148.5 -38zM300 105q70 0 124.5 32t86.5 87.5t32 125.5q0 71 -32 126t-86.5 87t-124.5 32q-69 0 -124 -32t-87 -87t-32 -126
q0 -70 32 -125.5t87 -87.5t124 -32zM195 175v350h107q60 0 89 -28.5t29 -72.5q0 -34 -17 -59.5t-52 -35.5l79 -154h-56l-73 147h-56v-147h-50zM245 368h56q37 0 54 16t17 40q0 25 -16.5 40t-54.5 15h-56v-111z" />
    <glyph glyph-name="macron" unicode="&#xaf;" 
d="M137 596v66h326v-66h-326z" />
    <glyph glyph-name="degree" unicode="&#xb0;" 
d="M300 419q-40 0 -73.5 17.5t-53 50.5t-19.5 78q0 44 19.5 77t53 51.5t73.5 18.5t73.5 -18.5t53.5 -51.5t20 -77q0 -45 -20 -78t-53.5 -50.5t-73.5 -17.5zM300 480q33 0 57.5 23t24.5 63q0 39 -24.5 62t-57.5 23t-57.5 -23t-24.5 -62q0 -40 24.5 -63t57.5 -23z" />
    <glyph glyph-name="plusminus" unicode="&#xb1;" 
d="M262 178v134h-187v76h187v134h76v-134h187v-76h-187v-134h-76zM75 0v76h450v-76h-450z" />
    <glyph glyph-name="uni00B2" unicode="&#xb2;" 
d="M162 280v54q61 48 107 89t72 79t26 76q0 31 -17 49.5t-47 18.5q-36 0 -55 -22.5t-19 -52.5h-66q1 67 41 101.5t99 34.5q64 0 99 -34.5t35 -92.5q0 -48 -26.5 -91t-67 -81t-81.5 -70h186v-58h-286z" />
    <glyph glyph-name="uni00B3" unicode="&#xb3;" 
d="M302 273q-62 0 -105 35.5t-45 100.5h67q2 -32 24 -53t60 -21q37 0 58.5 18.5t21.5 50.5q0 36 -26.5 52.5t-64.5 16.5h-37v59h32q78 0 78 58q0 25 -17 40t-46 15q-31 0 -50 -17t-21 -43h-67q3 56 41 89t97 33q65 0 98 -31.5t33 -78.5q0 -31 -18.5 -53.5t-43.5 -31.5v-4
q35 -10 57 -36.5t22 -69.5q0 -53 -39 -91t-109 -38z" />
    <glyph glyph-name="acute" unicode="&#xb4;" 
d="M195 536v79l210 112v-86z" />
    <glyph glyph-name="uni00B5" unicode="&#xb5;" 
d="M83 -220v716h84v-288q0 -66 29.5 -103.5t89.5 -37.5t101 40.5t41 116.5v272h84v-496h-70l-9 75h-5q-20 -36 -61 -61.5t-93 -25.5q-72 0 -107 43v-251h-84z" />
    <glyph glyph-name="paragraph" unicode="&#xb6;" 
d="M304 -100v399h-8q-81 0 -133 26.5t-77.5 71.5t-25.5 102q0 58 25.5 103t78 71.5t132.5 26.5h225v-800h-69v738h-80v-738h-68z" />
    <glyph glyph-name="periodcentered" unicode="&#xb7;" 
d="M300 278q-31 0 -53 21t-22 52q0 30 22 51t53 21t53 -21t22 -51q0 -31 -22 -52t-53 -21z" />
    <glyph glyph-name="cedilla" unicode="&#xb8;" 
d="M236 -259v53h100q28 0 44 12t16 36q0 22 -16 33t-44 11h-57v121h57v-70h9q53 0 86 -23.5t33 -72.5q0 -48 -34 -74t-86 -26h-108z" />
    <glyph glyph-name="uni00B9" unicode="&#xb9;" 
d="M158 280v61h103v279l-98 -17v55l125 42h41v-359h110v-61h-281z" />
    <glyph glyph-name="ordmasculine" unicode="&#xba;" 
d="M300 290q-57 0 -101 26t-69 72.5t-25 109.5t25.5 110t69.5 72.5t100 25.5q57 0 100.5 -25.5t69 -72.5t25.5 -110t-25.5 -109.5t-69.5 -72.5t-100 -26zM300 362q48 0 83 33.5t35 102.5q0 70 -35 103t-83 33t-83 -33t-35 -103q0 -69 35 -102.5t83 -33.5z" />
    <glyph glyph-name="guillemotright" unicode="&#xbb;" 
d="M291 98l112 195v4l-112 195h88l117 -197l-117 -197h-88zM111 98l112 195v4l-112 195h88l117 -197l-117 -197h-88z" />
    <glyph glyph-name="onequarter" unicode="&#xbc;" 
d="M200 417v58h68v147l-65 -8v56l95 29h37v-224h76v-58h-211zM106 324v56h388v-56h-388zM305 -1v51h-139v52l127 179h79v-174h30v-57h-30v-51h-67zM238 107h72v104z" />
    <glyph glyph-name="onehalf" unicode="&#xbd;" 
d="M200 417v58h68v147l-65 -8v56l95 29h37v-224h76v-58h-211zM106 324v56h388v-56h-388zM194 0v53q60 41 99.5 75.5t39.5 66.5q0 14 -8.5 23t-24.5 9q-21 0 -31 -11.5t-10 -26.5h-64q4 52 34 74.5t71 22.5q48 0 74.5 -23.5t26.5 -62.5q0 -31 -18.5 -58t-45 -49t-50.5 -39
h122v-54h-215z" />
    <glyph glyph-name="threequarters" unicode="&#xbe;" 
d="M299 413q-46 0 -77.5 25t-34.5 70h64q2 -18 16 -27t33 -9q21 0 33.5 8t12.5 23q0 18 -15.5 26t-37.5 8h-29v53h25q18 0 31.5 5.5t13.5 22.5q0 27 -36 27q-18 0 -29 -9t-11 -21h-64q2 41 30.5 65t73.5 24q51 0 75.5 -22t24.5 -56q0 -20 -12.5 -34t-29.5 -20v-2
q22 -6 38 -23t16 -48q0 -35 -28.5 -60.5t-82.5 -25.5zM106 324v56h388v-56h-388zM305 0v50h-139v52l127 179h79v-174h30v-57h-30v-50h-67zM238 107h72v104z" />
    <glyph glyph-name="questiondown" unicode="&#xbf;" 
d="M325 362q-31 0 -53 21.5t-22 51.5t22 51.5t53 21.5t53 -21.5t22 -51.5t-22 -51.5t-53 -21.5zM289 -232q-99 0 -158.5 55t-59.5 150q0 72 30.5 116t79.5 66t103 26l3 113h72l5 -173h-31q-84 0 -132 -34t-48 -113q0 -61 36.5 -95.5t99.5 -34.5q61 0 98 34t41 90h80
q-2 -59 -29.5 -104t-76 -70.5t-113.5 -25.5z" />
    <glyph glyph-name="Agrave" unicode="&#xc0;" 
d="M33 0l219 700h97l218 -700h-92l-51 174h-248l-51 -174h-92zM298 582l-101 -338h206l-101 338h-4zM355 740l-210 105v86l210 -112v-79z" />
    <glyph glyph-name="Aacute" unicode="&#xc1;" 
d="M33 0l219 700h97l218 -700h-92l-51 174h-248l-51 -174h-92zM298 582l-101 -338h206l-101 338h-4zM245 740v79l210 112v-86z" />
    <glyph glyph-name="Acircumflex" unicode="&#xc2;" 
d="M33 0l219 700h97l218 -700h-92l-51 174h-248l-51 -174h-92zM298 582l-101 -338h206l-101 338h-4zM163 755v74l137 80l137 -80v-74l-135 80h-4z" />
    <glyph glyph-name="Atilde" unicode="&#xc3;" 
d="M33 0l219 700h97l218 -700h-92l-51 174h-248l-51 -174h-92zM298 582l-101 -338h206l-101 338h-4zM361 783q-28 0 -47.5 10.5t-35.5 21t-36 10.5q-36 0 -42 -40h-56q3 48 28.5 74t65.5 26q28 0 47 -10.5t35 -21t37 -10.5q38 0 44 40h55q-1 -47 -27.5 -73.5t-67.5 -26.5z
" />
    <glyph glyph-name="Adieresis" unicode="&#xc4;" 
d="M33 0l219 700h97l218 -700h-92l-51 174h-248l-51 -174h-92zM298 582l-101 -338h206l-101 338h-4zM392 769q-24 0 -40.5 17t-16.5 40q0 24 16.5 41t40.5 17t40 -17t16 -41q0 -23 -16 -40t-40 -17zM209 769q-24 0 -40.5 17t-16.5 40q0 24 16.5 41t40.5 17t40.5 -17
t16.5 -41q0 -23 -16.5 -40t-40.5 -17z" />
    <glyph glyph-name="Aring" unicode="&#xc5;" 
d="M33 0l219 700h97l218 -700h-92l-51 174h-248l-51 -174h-92zM298 582l-101 -338h206l-101 338h-4zM300 761q-43 0 -74 27.5t-31 75.5q0 47 31 75t74 28t74 -28t31 -75q0 -48 -31 -75.5t-74 -27.5zM300 805q24 0 40.5 15.5t16.5 43.5q0 27 -16.5 42.5t-40.5 15.5
t-40.5 -15.5t-16.5 -42.5q0 -28 16.5 -43.5t40.5 -15.5z" />
    <glyph glyph-name="AE" unicode="&#xc6;" 
d="M2 0l231 700h357v-76h-204v-233h174v-76h-174v-239h204v-76h-288v174h-153l-55 -174h-92zM289 624l-118 -380h131v380h-13z" />
    <glyph glyph-name="Ccedilla" unicode="&#xc7;" 
d="M305 -12q-85 0 -146.5 45t-94 126t-32.5 191q0 109 32.5 190.5t94 126.5t146.5 45q108 0 174 -59.5t77 -158.5h-93q-10 59 -50 99t-108 40q-87 0 -137 -75.5t-50 -207.5q0 -133 50 -208t137 -75q71 0 109.5 38t48.5 98h93q-16 -100 -79.5 -157.5t-171.5 -57.5zM233 -259
v53h100q28 0 44 12t16 36q0 22 -16 33t-44 11h-57v121h57v-70h9q53 0 86 -23.5t33 -72.5q0 -48 -34 -74t-86 -26h-108z" />
    <glyph glyph-name="Egrave" unicode="&#xc8;" 
d="M86 0v700h437v-76h-353v-233h323v-76h-323v-239h353v-76h-437zM360 740l-210 105v86l210 -112v-79z" />
    <glyph glyph-name="Eacute" unicode="&#xc9;" 
d="M86 0v700h437v-76h-353v-233h323v-76h-323v-239h353v-76h-437zM250 740v79l210 112v-86z" />
    <glyph glyph-name="Ecircumflex" unicode="&#xca;" 
d="M86 0v700h437v-76h-353v-233h323v-76h-323v-239h353v-76h-437zM168 755v74l137 80l137 -80v-74l-135 80h-4z" />
    <glyph glyph-name="Edieresis" unicode="&#xcb;" 
d="M86 0v700h437v-76h-353v-233h323v-76h-323v-239h353v-76h-437zM397 769q-24 0 -40.5 17t-16.5 40q0 24 16.5 41t40.5 17t40 -17t16 -41q0 -23 -16 -40t-40 -17zM214 769q-24 0 -40.5 17t-16.5 40q0 24 16.5 41t40.5 17t40.5 -17t16.5 -41q0 -23 -16.5 -40t-40.5 -17z" />
    <glyph glyph-name="Igrave" unicode="&#xcc;" 
d="M99 0v73h159v554h-159v73h402v-73h-159v-554h159v-73h-402zM355 740l-210 105v86l210 -112v-79z" />
    <glyph glyph-name="Iacute" unicode="&#xcd;" 
d="M99 0v73h159v554h-159v73h402v-73h-159v-554h159v-73h-402zM245 740v79l210 112v-86z" />
    <glyph glyph-name="Icircumflex" unicode="&#xce;" 
d="M99 0v73h159v554h-159v73h402v-73h-159v-554h159v-73h-402zM163 755v74l137 80l137 -80v-74l-135 80h-4z" />
    <glyph glyph-name="Idieresis" unicode="&#xcf;" 
d="M99 0v73h159v554h-159v73h402v-73h-159v-554h159v-73h-402zM392 769q-24 0 -40.5 17t-16.5 40q0 24 16.5 41t40.5 17t40 -17t16 -41q0 -23 -16 -40t-40 -17zM209 769q-24 0 -40.5 17t-16.5 40q0 24 16.5 41t40.5 17t40.5 -17t16.5 -41q0 -23 -16.5 -40t-40.5 -17z" />
    <glyph glyph-name="Eth" unicode="&#xd0;" 
d="M86 0v314h-79v72h79v314h127q172 0 254.5 -94t82.5 -256t-82.5 -256t-254.5 -94h-127zM170 77h41q92 0 147.5 34t80.5 95t25 144t-25 144t-80.5 95t-147.5 34h-41v-237h143v-72h-143v-237z" />
    <glyph glyph-name="Ntilde" unicode="&#xd1;" 
d="M57 0v700h86l318 -553v553h83v-700h-87l-318 553v-553h-82zM361 783q-28 0 -47.5 10.5t-35.5 21t-36 10.5q-36 0 -42 -40h-56q3 48 28.5 74t65.5 26q28 0 47 -10.5t35 -21t37 -10.5q38 0 44 40h55q-1 -47 -27.5 -73.5t-67.5 -26.5z" />
    <glyph glyph-name="Ograve" unicode="&#xd2;" 
d="M300 -12q-85 0 -146 45t-93.5 126.5t-32.5 190.5t32.5 190.5t93.5 126.5t146 45t146 -45t93.5 -126.5t32.5 -190.5t-32.5 -190.5t-93.5 -126.5t-146 -45zM300 67q83 0 134.5 74t51.5 209t-51.5 209t-134.5 74q-84 0 -135 -74t-51 -209t51 -209t135 -74zM355 740l-210 105
v86l210 -112v-79z" />
    <glyph glyph-name="Oacute" unicode="&#xd3;" 
d="M300 -12q-85 0 -146 45t-93.5 126.5t-32.5 190.5t32.5 190.5t93.5 126.5t146 45t146 -45t93.5 -126.5t32.5 -190.5t-32.5 -190.5t-93.5 -126.5t-146 -45zM300 67q83 0 134.5 74t51.5 209t-51.5 209t-134.5 74q-84 0 -135 -74t-51 -209t51 -209t135 -74zM245 740v79
l210 112v-86z" />
    <glyph glyph-name="Ocircumflex" unicode="&#xd4;" 
d="M300 -12q-85 0 -146 45t-93.5 126.5t-32.5 190.5t32.5 190.5t93.5 126.5t146 45t146 -45t93.5 -126.5t32.5 -190.5t-32.5 -190.5t-93.5 -126.5t-146 -45zM300 67q83 0 134.5 74t51.5 209t-51.5 209t-134.5 74q-84 0 -135 -74t-51 -209t51 -209t135 -74zM163 755v74
l137 80l137 -80v-74l-135 80h-4z" />
    <glyph glyph-name="Otilde" unicode="&#xd5;" 
d="M300 -12q-85 0 -146 45t-93.5 126.5t-32.5 190.5t32.5 190.5t93.5 126.5t146 45t146 -45t93.5 -126.5t32.5 -190.5t-32.5 -190.5t-93.5 -126.5t-146 -45zM300 67q83 0 134.5 74t51.5 209t-51.5 209t-134.5 74q-84 0 -135 -74t-51 -209t51 -209t135 -74zM361 783
q-28 0 -47.5 10.5t-35.5 21t-36 10.5q-36 0 -42 -40h-56q3 48 28.5 74t65.5 26q28 0 47 -10.5t35 -21t37 -10.5q38 0 44 40h55q-1 -47 -27.5 -73.5t-67.5 -26.5z" />
    <glyph glyph-name="Odieresis" unicode="&#xd6;" 
d="M300 -12q-85 0 -146 45t-93.5 126.5t-32.5 190.5t32.5 190.5t93.5 126.5t146 45t146 -45t93.5 -126.5t32.5 -190.5t-32.5 -190.5t-93.5 -126.5t-146 -45zM300 67q83 0 134.5 74t51.5 209t-51.5 209t-134.5 74q-84 0 -135 -74t-51 -209t51 -209t135 -74zM392 769
q-24 0 -40.5 17t-16.5 40q0 24 16.5 41t40.5 17t40 -17t16 -41q0 -23 -16 -40t-40 -17zM209 769q-24 0 -40.5 17t-16.5 40q0 24 16.5 41t40.5 17t40.5 -17t16.5 -41q0 -23 -16.5 -40t-40.5 -17z" />
    <glyph glyph-name="multiply" unicode="&#xd7;" 
d="M140 136l-54 54l160 160l-160 160l54 54l160 -160l160 160l54 -54l-160 -160l160 -160l-54 -54l-160 160z" />
    <glyph glyph-name="Oslash" unicode="&#xd8;" 
d="M27 -20l70 112q-69 97 -69 258q0 109 32.5 190.5t93.5 126.5t146 45q88 0 153 -51l36 59h85l-70 -113q68 -97 68 -257q0 -109 -32.5 -190.5t-93.5 -126.5t-146 -45q-88 0 -152 50l-36 -58h-85zM114 350q0 -54 8.5 -98.5t24.5 -78.5l261 417q-45 43 -108 43
q-84 0 -135 -74t-51 -209zM300 67q83 0 134.5 74t51.5 209q0 54 -8.5 98t-24.5 78l-260 -417q44 -42 107 -42z" />
    <glyph glyph-name="Ugrave" unicode="&#xd9;" 
d="M299 -12q-70 0 -124.5 29t-86 88.5t-31.5 149.5v445h84v-448q0 -90 44 -139t116 -49t115 49t43 139v448h84v-445q0 -90 -32 -149.5t-87 -88.5t-125 -29zM355 740l-210 105v86l210 -112v-79z" />
    <glyph glyph-name="Uacute" unicode="&#xda;" 
d="M299 -12q-70 0 -124.5 29t-86 88.5t-31.5 149.5v445h84v-448q0 -90 44 -139t116 -49t115 49t43 139v448h84v-445q0 -90 -32 -149.5t-87 -88.5t-125 -29zM245 740v79l210 112v-86z" />
    <glyph glyph-name="Ucircumflex" unicode="&#xdb;" 
d="M299 -12q-70 0 -124.5 29t-86 88.5t-31.5 149.5v445h84v-448q0 -90 44 -139t116 -49t115 49t43 139v448h84v-445q0 -90 -32 -149.5t-87 -88.5t-125 -29zM163 755v74l137 80l137 -80v-74l-135 80h-4z" />
    <glyph glyph-name="Udieresis" unicode="&#xdc;" 
d="M299 -12q-70 0 -124.5 29t-86 88.5t-31.5 149.5v445h84v-448q0 -90 44 -139t116 -49t115 49t43 139v448h84v-445q0 -90 -32 -149.5t-87 -88.5t-125 -29zM392 769q-24 0 -40.5 17t-16.5 40q0 24 16.5 41t40.5 17t40 -17t16 -41q0 -23 -16 -40t-40 -17zM209 769
q-24 0 -40.5 17t-16.5 40q0 24 16.5 41t40.5 17t40.5 -17t16.5 -41q0 -23 -16.5 -40t-40.5 -17z" />
    <glyph glyph-name="Yacute" unicode="&#xdd;" 
d="M258 0v275l-227 425h95l174 -340l174 340h95l-227 -425v-275h-84zM245 740v79l210 112v-86z" />
    <glyph glyph-name="Thorn" unicode="&#xde;" 
d="M74 0v700h84v-138h149q80 0 131 -29t75 -77t24 -106t-24 -106t-75 -77t-131 -29h-149v-138h-84zM158 214h147q74 0 110 38t36 98t-36 98t-110 38h-147v-272z" />
    <glyph glyph-name="germandbls" unicode="&#xdf;" 
d="M389 -12q-86 0 -134.5 47.5t-52.5 133.5h86q3 -48 29 -77t73 -29q46 0 72 24.5t26 65.5t-22 64t-73 41q-52 17 -85 46t-33 79q0 28 11 46t27.5 31.5t33 25.5t27.5 27t11 38q0 42 -30.5 67.5t-82.5 25.5q-63 0 -93 -37.5t-30 -102.5v-504h-84v509q0 60 22.5 107.5t69 75.5
t116.5 28q95 0 145 -46.5t50 -115.5q0 -34 -11 -56t-27 -36.5t-32 -25.5t-27 -23t-11 -29q0 -23 18.5 -38t71.5 -33q61 -21 92 -58.5t31 -99.5q0 -48 -22 -87t-63.5 -61.5t-98.5 -22.5z" />
    <glyph glyph-name="agrave" unicode="&#xe0;" 
d="M258 -12q-59 0 -98 21t-58 55.5t-19 75.5q0 76 55.5 115.5t148.5 39.5h136v10q0 130 -119 130q-48 0 -80.5 -21t-41.5 -66h-86q5 50 33.5 86t73.5 55t101 19q106 0 154.5 -55.5t48.5 -147.5v-305h-72l-7 77h-7q-22 -36 -58.5 -62.5t-104.5 -26.5zM273 62q48 0 81.5 23
t51 61t17.5 83h-129q-68 0 -95.5 -23t-27.5 -61q0 -39 26 -61t76 -22zM359 536l-210 105v86l210 -112v-79z" />
    <glyph glyph-name="aacute" unicode="&#xe1;" 
d="M258 -12q-59 0 -98 21t-58 55.5t-19 75.5q0 76 55.5 115.5t148.5 39.5h136v10q0 130 -119 130q-48 0 -80.5 -21t-41.5 -66h-86q5 50 33.5 86t73.5 55t101 19q106 0 154.5 -55.5t48.5 -147.5v-305h-72l-7 77h-7q-22 -36 -58.5 -62.5t-104.5 -26.5zM273 62q48 0 81.5 23
t51 61t17.5 83h-129q-68 0 -95.5 -23t-27.5 -61q0 -39 26 -61t76 -22zM249 536v79l210 112v-86z" />
    <glyph glyph-name="acircumflex" unicode="&#xe2;" 
d="M258 -12q-59 0 -98 21t-58 55.5t-19 75.5q0 76 55.5 115.5t148.5 39.5h136v10q0 130 -119 130q-48 0 -80.5 -21t-41.5 -66h-86q5 50 33.5 86t73.5 55t101 19q106 0 154.5 -55.5t48.5 -147.5v-305h-72l-7 77h-7q-22 -36 -58.5 -62.5t-104.5 -26.5zM273 62q48 0 81.5 23
t51 61t17.5 83h-129q-68 0 -95.5 -23t-27.5 -61q0 -39 26 -61t76 -22zM167 551v74l137 80l137 -80v-74l-135 80h-4z" />
    <glyph glyph-name="atilde" unicode="&#xe3;" 
d="M258 -12q-59 0 -98 21t-58 55.5t-19 75.5q0 76 55.5 115.5t148.5 39.5h136v10q0 130 -119 130q-48 0 -80.5 -21t-41.5 -66h-86q5 50 33.5 86t73.5 55t101 19q106 0 154.5 -55.5t48.5 -147.5v-305h-72l-7 77h-7q-22 -36 -58.5 -62.5t-104.5 -26.5zM273 62q48 0 81.5 23
t51 61t17.5 83h-129q-68 0 -95.5 -23t-27.5 -61q0 -39 26 -61t76 -22zM365 579q-28 0 -47.5 10.5t-35.5 21t-36 10.5q-36 0 -42 -40h-56q3 48 28.5 74t65.5 26q28 0 47 -10.5t35 -21t37 -10.5q38 0 44 40h55q-1 -47 -27.5 -73.5t-67.5 -26.5z" />
    <glyph glyph-name="adieresis" unicode="&#xe4;" 
d="M258 -12q-59 0 -98 21t-58 55.5t-19 75.5q0 76 55.5 115.5t148.5 39.5h136v10q0 130 -119 130q-48 0 -80.5 -21t-41.5 -66h-86q5 50 33.5 86t73.5 55t101 19q106 0 154.5 -55.5t48.5 -147.5v-305h-72l-7 77h-7q-22 -36 -58.5 -62.5t-104.5 -26.5zM273 62q48 0 81.5 23
t51 61t17.5 83h-129q-68 0 -95.5 -23t-27.5 -61q0 -39 26 -61t76 -22zM396 565q-24 0 -40.5 17t-16.5 40q0 24 16.5 41t40.5 17t40 -17t16 -41q0 -23 -16 -40t-40 -17zM213 565q-24 0 -40.5 17t-16.5 40q0 24 16.5 41t40.5 17t40.5 -17t16.5 -41q0 -23 -16.5 -40t-40.5 -17z
" />
    <glyph glyph-name="aring" unicode="&#xe5;" 
d="M258 -12q-59 0 -98 21t-58 55.5t-19 75.5q0 76 55.5 115.5t148.5 39.5h136v10q0 130 -119 130q-48 0 -80.5 -21t-41.5 -66h-86q5 50 33.5 86t73.5 55t101 19q106 0 154.5 -55.5t48.5 -147.5v-305h-72l-7 77h-7q-22 -36 -58.5 -62.5t-104.5 -26.5zM273 62q48 0 81.5 23
t51 61t17.5 83h-129q-68 0 -95.5 -23t-27.5 -61q0 -39 26 -61t76 -22zM304 557q-43 0 -74 27.5t-31 75.5q0 47 31 75t74 28t74 -28t31 -75q0 -48 -31 -75.5t-74 -27.5zM304 601q24 0 40.5 15.5t16.5 43.5q0 27 -16.5 42.5t-40.5 15.5t-40.5 -15.5t-16.5 -42.5
q0 -28 16.5 -43.5t40.5 -15.5z" />
    <glyph glyph-name="ae" unicode="&#xe6;" 
d="M156 -12q-44 0 -74.5 20.5t-47 53.5t-16.5 73q0 80 51.5 122t133.5 42h55v46q0 46 -19.5 68t-52.5 22q-30 0 -49 -19.5t-21 -57.5h-82q4 69 46.5 109.5t103.5 40.5q47 0 77.5 -19t45.5 -52q19 30 49.5 50.5t72.5 20.5q80 0 119.5 -59.5t39.5 -169.5q0 -11 -1 -24.5
t-1 -24.5h-246q2 -83 26.5 -124t59.5 -41q54 0 71 87h79q-8 -69 -45 -116.5t-109 -47.5q-46 0 -79 28t-46 65h-3q-17 -45 -55.5 -69t-82.5 -24zM342 299h165q-3 64 -22.5 99t-57.5 35q-39 0 -60.5 -35.5t-24.5 -98.5zM171 62q36 0 61.5 29t25.5 84v55h-48q-54 0 -80 -24.5
t-26 -66.5q0 -36 17 -56.5t50 -20.5z" />
    <glyph glyph-name="ccedilla" unicode="&#xe7;" 
d="M308 -12q-67 0 -119.5 31t-83.5 89.5t-31 139.5t31 139.5t84.5 89.5t118.5 31q92 0 147 -46t70 -123h-86q-12 41 -46 65.5t-86 24.5q-38 0 -72 -20t-55 -60t-21 -101t21 -101.5t55 -60.5t72 -20q55 0 87.5 25t44.5 66h86q-19 -79 -74.5 -124t-142.5 -45zM236 -259v53h100
q28 0 44 12t16 36q0 22 -16 33t-44 11h-57v121h57v-70h9q53 0 86 -23.5t33 -72.5q0 -48 -34 -74t-86 -26h-108z" />
    <glyph glyph-name="egrave" unicode="&#xe8;" 
d="M305 -12q-70 0 -123.5 32.5t-84.5 91t-31 136.5t30.5 136.5t84.5 91t126 32.5t123 -32.5t78 -85.5t27 -114q0 -11 -0.5 -22t-0.5 -25h-385q3 -55 25.5 -91.5t57 -54.5t73.5 -18q55 0 86 23t47 64h83q-17 -69 -71 -116.5t-145 -47.5zM305 433q-58 0 -101.5 -35t-53.5 -98
h302q-4 62 -44.5 97.5t-102.5 35.5zM361 536l-210 105v86l210 -112v-79z" />
    <glyph glyph-name="eacute" unicode="&#xe9;" 
d="M305 -12q-70 0 -123.5 32.5t-84.5 91t-31 136.5t30.5 136.5t84.5 91t126 32.5t123 -32.5t78 -85.5t27 -114q0 -11 -0.5 -22t-0.5 -25h-385q3 -55 25.5 -91.5t57 -54.5t73.5 -18q55 0 86 23t47 64h83q-17 -69 -71 -116.5t-145 -47.5zM305 433q-58 0 -101.5 -35t-53.5 -98
h302q-4 62 -44.5 97.5t-102.5 35.5zM251 536v79l210 112v-86z" />
    <glyph glyph-name="ecircumflex" unicode="&#xea;" 
d="M305 -12q-70 0 -123.5 32.5t-84.5 91t-31 136.5t30.5 136.5t84.5 91t126 32.5t123 -32.5t78 -85.5t27 -114q0 -11 -0.5 -22t-0.5 -25h-385q3 -55 25.5 -91.5t57 -54.5t73.5 -18q55 0 86 23t47 64h83q-17 -69 -71 -116.5t-145 -47.5zM305 433q-58 0 -101.5 -35t-53.5 -98
h302q-4 62 -44.5 97.5t-102.5 35.5zM169 551v74l137 80l137 -80v-74l-135 80h-4z" />
    <glyph glyph-name="edieresis" unicode="&#xeb;" 
d="M305 -12q-70 0 -123.5 32.5t-84.5 91t-31 136.5t30.5 136.5t84.5 91t126 32.5t123 -32.5t78 -85.5t27 -114q0 -11 -0.5 -22t-0.5 -25h-385q3 -55 25.5 -91.5t57 -54.5t73.5 -18q55 0 86 23t47 64h83q-17 -69 -71 -116.5t-145 -47.5zM305 433q-58 0 -101.5 -35t-53.5 -98
h302q-4 62 -44.5 97.5t-102.5 35.5zM398 565q-24 0 -40.5 17t-16.5 40q0 24 16.5 41t40.5 17t40 -17t16 -41q0 -23 -16 -40t-40 -17zM215 565q-24 0 -40.5 17t-16.5 40q0 24 16.5 41t40.5 17t40.5 -17t16.5 -41q0 -23 -16.5 -40t-40.5 -17z" />
    <glyph glyph-name="igrave" unicode="&#xec;" 
d="M100 0v72h158v327q0 25 -25 25h-116v72h136q89 0 89 -89v-335h158v-72h-400zM355 536l-210 105v86l210 -112v-79z" />
    <glyph glyph-name="iacute" unicode="&#xed;" 
d="M100 0v72h158v327q0 25 -25 25h-116v72h136q89 0 89 -89v-335h158v-72h-400zM245 536v79l210 112v-86z" />
    <glyph glyph-name="icircumflex" unicode="&#xee;" 
d="M100 0v72h158v327q0 25 -25 25h-116v72h136q89 0 89 -89v-335h158v-72h-400zM163 551v74l137 80l137 -80v-74l-135 80h-4z" />
    <glyph glyph-name="idieresis" unicode="&#xef;" 
d="M100 0v72h158v327q0 25 -25 25h-116v72h136q89 0 89 -89v-335h158v-72h-400zM392 565q-24 0 -40.5 17t-16.5 40q0 24 16.5 41t40.5 17t40 -17t16 -41q0 -23 -16 -40t-40 -17zM209 565q-24 0 -40.5 17t-16.5 40q0 24 16.5 41t40.5 17t40.5 -17t16.5 -41q0 -23 -16.5 -40
t-40.5 -17z" />
    <glyph glyph-name="eth" unicode="&#xf0;" 
d="M305 -12q-73 0 -128.5 35t-86.5 93.5t-31 130.5q0 75 31.5 134t85.5 92.5t122 33.5q48 0 90.5 -18.5t72.5 -63.5h5q-19 50 -42.5 91.5t-57.5 79.5l-155 -51v63l110 36q-37 35 -91 76h105q33 -24 61 -51l122 39v-62l-78 -26q57 -70 86.5 -157t29.5 -192
q0 -85 -30.5 -148.5t-87 -99t-133.5 -35.5zM308 66q43 0 80 22t60 63t23 97t-23 96.5t-60 62.5t-80 22q-44 0 -81 -22t-60 -62.5t-23 -96.5t23 -97t60 -63t81 -22z" />
    <glyph glyph-name="ntilde" unicode="&#xf1;" 
d="M88 0v496h70l9 -75h5q20 36 63 61.5t99 25.5q91 0 136.5 -54t45.5 -156v-298h-84v288q0 66 -29 103.5t-90 37.5q-59 0 -100 -40.5t-41 -116.5v-272h-84zM382 579q-28 0 -47.5 10.5t-35.5 21t-36 10.5q-36 0 -42 -40h-56q3 48 28.5 74t65.5 26q28 0 47 -10.5t35 -21
t37 -10.5q38 0 44 40h55q-1 -47 -27.5 -73.5t-67.5 -26.5z" />
    <glyph glyph-name="ograve" unicode="&#xf2;" 
d="M300 -12q-70 0 -124 32t-85 90.5t-31 137.5t31 137.5t85 90.5t124 32t124 -32t85 -90.5t31 -137.5t-31 -137.5t-85 -90.5t-124 -32zM300 68q43 0 78 19t55.5 59t20.5 102t-20.5 102t-55.5 59t-78 19q-42 0 -77 -19t-56 -59t-21 -102q0 -93 45 -136.5t109 -43.5zM355 536
l-210 105v86l210 -112v-79z" />
    <glyph glyph-name="oacute" unicode="&#xf3;" 
d="M300 -12q-70 0 -124 32t-85 90.5t-31 137.5t31 137.5t85 90.5t124 32t124 -32t85 -90.5t31 -137.5t-31 -137.5t-85 -90.5t-124 -32zM300 68q43 0 78 19t55.5 59t20.5 102t-20.5 102t-55.5 59t-78 19q-42 0 -77 -19t-56 -59t-21 -102q0 -93 45 -136.5t109 -43.5zM245 536
v79l210 112v-86z" />
    <glyph glyph-name="ocircumflex" unicode="&#xf4;" 
d="M300 -12q-70 0 -124 32t-85 90.5t-31 137.5t31 137.5t85 90.5t124 32t124 -32t85 -90.5t31 -137.5t-31 -137.5t-85 -90.5t-124 -32zM300 68q43 0 78 19t55.5 59t20.5 102t-20.5 102t-55.5 59t-78 19q-42 0 -77 -19t-56 -59t-21 -102q0 -93 45 -136.5t109 -43.5zM163 551
v74l137 80l137 -80v-74l-135 80h-4z" />
    <glyph glyph-name="otilde" unicode="&#xf5;" 
d="M300 -12q-70 0 -124 32t-85 90.5t-31 137.5t31 137.5t85 90.5t124 32t124 -32t85 -90.5t31 -137.5t-31 -137.5t-85 -90.5t-124 -32zM300 68q43 0 78 19t55.5 59t20.5 102t-20.5 102t-55.5 59t-78 19q-42 0 -77 -19t-56 -59t-21 -102q0 -93 45 -136.5t109 -43.5zM361 579
q-28 0 -47.5 10.5t-35.5 21t-36 10.5q-36 0 -42 -40h-56q3 48 28.5 74t65.5 26q28 0 47 -10.5t35 -21t37 -10.5q38 0 44 40h55q-1 -47 -27.5 -73.5t-67.5 -26.5z" />
    <glyph glyph-name="odieresis" unicode="&#xf6;" 
d="M300 -12q-70 0 -124 32t-85 90.5t-31 137.5t31 137.5t85 90.5t124 32t124 -32t85 -90.5t31 -137.5t-31 -137.5t-85 -90.5t-124 -32zM300 68q43 0 78 19t55.5 59t20.5 102t-20.5 102t-55.5 59t-78 19q-42 0 -77 -19t-56 -59t-21 -102q0 -93 45 -136.5t109 -43.5zM392 565
q-24 0 -40.5 17t-16.5 40q0 24 16.5 41t40.5 17t40 -17t16 -41q0 -23 -16 -40t-40 -17zM209 565q-24 0 -40.5 17t-16.5 40q0 24 16.5 41t40.5 17t40.5 -17t16.5 -41q0 -23 -16.5 -40t-40.5 -17z" />
    <glyph glyph-name="divide" unicode="&#xf7;" 
d="M75 312v76h450v-76h-450zM300 73q-31 0 -53 21t-22 52q0 30 22 51t53 21t53 -21t22 -51q0 -31 -22 -52t-53 -21zM300 482q-31 0 -53 21t-22 52q0 30 22 51t53 21t53 -21t22 -51q0 -31 -22 -52t-53 -21z" />
    <glyph glyph-name="oslash" unicode="&#xf8;" 
d="M44 -20l73 91q-27 33 -42 78t-15 99q0 79 31 137.5t85 90.5t124 32q76 0 133 -38l37 46h84l-71 -90q27 -34 42 -79t15 -99q0 -79 -31 -137.5t-85 -90.5t-124 -32q-76 0 -134 38l-36 -46h-86zM146 248q0 -34 6.5 -61t18.5 -48l212 267q-36 22 -83 22q-42 0 -77 -19
t-56 -59t-21 -102zM300 68q43 0 78 19t55.5 59t20.5 102q0 34 -6.5 61.5t-18.5 48.5l-212 -268q35 -22 83 -22z" />
    <glyph glyph-name="ugrave" unicode="&#xf9;" 
d="M265 -12q-90 0 -136 54t-46 156v298h84v-288q0 -66 29.5 -103.5t89.5 -37.5t101 40.5t41 116.5v272h84v-496h-70l-9 75h-5q-20 -36 -63 -61.5t-100 -25.5zM353 536l-210 105v86l210 -112v-79z" />
    <glyph glyph-name="uacute" unicode="&#xfa;" 
d="M265 -12q-90 0 -136 54t-46 156v298h84v-288q0 -66 29.5 -103.5t89.5 -37.5t101 40.5t41 116.5v272h84v-496h-70l-9 75h-5q-20 -36 -63 -61.5t-100 -25.5zM243 536v79l210 112v-86z" />
    <glyph glyph-name="ucircumflex" unicode="&#xfb;" 
d="M265 -12q-90 0 -136 54t-46 156v298h84v-288q0 -66 29.5 -103.5t89.5 -37.5t101 40.5t41 116.5v272h84v-496h-70l-9 75h-5q-20 -36 -63 -61.5t-100 -25.5zM161 551v74l137 80l137 -80v-74l-135 80h-4z" />
    <glyph glyph-name="udieresis" unicode="&#xfc;" 
d="M265 -12q-90 0 -136 54t-46 156v298h84v-288q0 -66 29.5 -103.5t89.5 -37.5t101 40.5t41 116.5v272h84v-496h-70l-9 75h-5q-20 -36 -63 -61.5t-100 -25.5zM390 565q-24 0 -40.5 17t-16.5 40q0 24 16.5 41t40.5 17t40 -17t16 -41q0 -23 -16 -40t-40 -17zM207 565
q-24 0 -40.5 17t-16.5 40q0 24 16.5 41t40.5 17t40.5 -17t16.5 -41q0 -23 -16.5 -40t-40.5 -17z" />
    <glyph glyph-name="yacute" unicode="&#xfd;" 
d="M149 -220l122 268h-29l-196 448h91l163 -384l172 384h88l-323 -716h-88zM247 536v79l210 112v-86z" />
    <glyph glyph-name="thorn" unicode="&#xfe;" 
d="M78 -220v940h84v-306q19 40 61 67t99 27q60 0 108.5 -30t76.5 -88.5t28 -142.5q0 -83 -28.5 -141t-78 -88t-113.5 -30q-57 0 -96.5 24.5t-56.5 57.5v-290h-84zM305 68q63 0 104 44.5t41 135.5t-41 135.5t-104 44.5t-104 -44.5t-41 -135.5t41 -135.5t104 -44.5z" />
    <glyph glyph-name="ydieresis" unicode="&#xff;" 
d="M149 -220l122 268h-29l-196 448h91l163 -384l172 384h88l-323 -716h-88zM394 565q-24 0 -40.5 17t-16.5 40q0 24 16.5 41t40.5 17t40 -17t16 -41q0 -23 -16 -40t-40 -17zM211 565q-24 0 -40.5 17t-16.5 40q0 24 16.5 41t40.5 17t40.5 -17t16.5 -41q0 -23 -16.5 -40
t-40.5 -17z" />
    <glyph glyph-name="Amacron" unicode="&#x100;" 
d="M33 0l219 700h97l218 -700h-92l-51 174h-248l-51 -174h-92zM298 582l-101 -338h206l-101 338h-4zM137 800v66h326v-66h-326z" />
    <glyph glyph-name="amacron" unicode="&#x101;" 
d="M258 -12q-59 0 -98 21t-58 55.5t-19 75.5q0 76 55.5 115.5t148.5 39.5h136v10q0 130 -119 130q-48 0 -80.5 -21t-41.5 -66h-86q5 50 33.5 86t73.5 55t101 19q106 0 154.5 -55.5t48.5 -147.5v-305h-72l-7 77h-7q-22 -36 -58.5 -62.5t-104.5 -26.5zM273 62q48 0 81.5 23
t51 61t17.5 83h-129q-68 0 -95.5 -23t-27.5 -61q0 -39 26 -61t76 -22zM141 596v66h326v-66h-326z" />
    <glyph glyph-name="Abreve" unicode="&#x102;" 
d="M33 0l219 700h97l218 -700h-92l-51 174h-248l-51 -174h-92zM298 582l-101 -338h206l-101 338h-4zM300 757q-67 0 -104 38t-37 93v13h60q0 -39 22 -59.5t59 -20.5t58.5 20.5t21.5 59.5h61v-13q0 -56 -37.5 -93.5t-103.5 -37.5z" />
    <glyph glyph-name="abreve" unicode="&#x103;" 
d="M258 -12q-59 0 -98 21t-58 55.5t-19 75.5q0 76 55.5 115.5t148.5 39.5h136v10q0 130 -119 130q-48 0 -80.5 -21t-41.5 -66h-86q5 50 33.5 86t73.5 55t101 19q106 0 154.5 -55.5t48.5 -147.5v-305h-72l-7 77h-7q-22 -36 -58.5 -62.5t-104.5 -26.5zM273 62q48 0 81.5 23
t51 61t17.5 83h-129q-68 0 -95.5 -23t-27.5 -61q0 -39 26 -61t76 -22zM304 553q-67 0 -104 38t-37 93v13h60q0 -39 22 -59.5t59 -20.5t58.5 20.5t21.5 59.5h61v-13q0 -56 -37.5 -93.5t-103.5 -37.5z" />
    <glyph glyph-name="Aogonek" unicode="&#x104;" 
d="M33 0l219 700h97l218 -700h-92l-51 174h-248l-51 -174h-92zM298 582l-101 -338h206l-101 338h-4zM502 -209q-41 0 -74 25t-33 78q0 46 27.5 75.5t69.5 52.5l49 26l26 -48l-47 -27q-26 -15 -41.5 -32.5t-15.5 -42.5q0 -24 15 -35.5t38 -11.5q13 0 25 3t30 12v-62
q-32 -13 -69 -13z" />
    <glyph glyph-name="aogonek" unicode="&#x105;" 
d="M258 -12q-59 0 -98 21t-58 55.5t-19 75.5q0 76 55.5 115.5t148.5 39.5h136v10q0 130 -119 130q-48 0 -80.5 -21t-41.5 -66h-86q5 50 33.5 86t73.5 55t101 19q106 0 154.5 -55.5t48.5 -147.5v-305h-72l-7 77h-7q-22 -36 -58.5 -62.5t-104.5 -26.5zM273 62q48 0 81.5 23
t51 61t17.5 83h-129q-68 0 -95.5 -23t-27.5 -61q0 -39 26 -61t76 -22zM442 -209q-41 0 -74 25t-33 78q0 46 27.5 75.5t69.5 52.5l49 26l26 -48l-47 -27q-26 -15 -41.5 -32.5t-15.5 -42.5q0 -24 15 -35.5t38 -11.5q13 0 25 3t30 12v-62q-32 -13 -69 -13z" />
    <glyph glyph-name="Cacute" unicode="&#x106;" 
d="M305 -12q-85 0 -146.5 45t-94 126t-32.5 191q0 109 32.5 190.5t94 126.5t146.5 45q108 0 174 -59.5t77 -158.5h-93q-10 59 -50 99t-108 40q-87 0 -137 -75.5t-50 -207.5q0 -133 50 -208t137 -75q71 0 109.5 38t48.5 98h93q-16 -100 -79.5 -157.5t-171.5 -57.5zM249 740
v79l210 112v-86z" />
    <glyph glyph-name="cacute" unicode="&#x107;" 
d="M308 -12q-67 0 -119.5 31t-83.5 89.5t-31 139.5t31 139.5t84.5 89.5t118.5 31q92 0 147 -46t70 -123h-86q-12 41 -46 65.5t-86 24.5q-38 0 -72 -20t-55 -60t-21 -101t21 -101.5t55 -60.5t72 -20q55 0 87.5 25t44.5 66h86q-19 -79 -74.5 -124t-142.5 -45zM253 536v79
l210 112v-86z" />
    <glyph glyph-name="Cdotaccent" unicode="&#x10a;" 
d="M305 -12q-85 0 -146.5 45t-94 126t-32.5 191q0 109 32.5 190.5t94 126.5t146.5 45q108 0 174 -59.5t77 -158.5h-93q-10 59 -50 99t-108 40q-87 0 -137 -75.5t-50 -207.5q0 -133 50 -208t137 -75q71 0 109.5 38t48.5 98h93q-16 -100 -79.5 -157.5t-171.5 -57.5zM304 788
q-29 0 -49.5 20t-20.5 48q0 29 20.5 48.5t49.5 19.5q30 0 50 -19.5t20 -48.5q0 -28 -20 -48t-50 -20z" />
    <glyph glyph-name="cdotaccent" unicode="&#x10b;" 
d="M308 -12q-67 0 -119.5 31t-83.5 89.5t-31 139.5t31 139.5t84.5 89.5t118.5 31q92 0 147 -46t70 -123h-86q-12 41 -46 65.5t-86 24.5q-38 0 -72 -20t-55 -60t-21 -101t21 -101.5t55 -60.5t72 -20q55 0 87.5 25t44.5 66h86q-19 -79 -74.5 -124t-142.5 -45zM308 584
q-29 0 -49.5 20t-20.5 48q0 29 20.5 48.5t49.5 19.5q30 0 50 -19.5t20 -48.5q0 -28 -20 -48t-50 -20z" />
    <glyph glyph-name="Ccaron" unicode="&#x10c;" 
d="M305 -12q-85 0 -146.5 45t-94 126t-32.5 191q0 109 32.5 190.5t94 126.5t146.5 45q108 0 174 -59.5t77 -158.5h-93q-10 59 -50 99t-108 40q-87 0 -137 -75.5t-50 -207.5q0 -133 50 -208t137 -75q71 0 109.5 38t48.5 98h93q-16 -100 -79.5 -157.5t-171.5 -57.5zM304 755
l-137 80v74l135 -80h4l135 80v-74z" />
    <glyph glyph-name="ccaron" unicode="&#x10d;" 
d="M308 -12q-67 0 -119.5 31t-83.5 89.5t-31 139.5t31 139.5t84.5 89.5t118.5 31q92 0 147 -46t70 -123h-86q-12 41 -46 65.5t-86 24.5q-38 0 -72 -20t-55 -60t-21 -101t21 -101.5t55 -60.5t72 -20q55 0 87.5 25t44.5 66h86q-19 -79 -74.5 -124t-142.5 -45zM308 551l-137 80
v74l135 -80h4l135 80v-74z" />
    <glyph glyph-name="Dcaron" unicode="&#x10e;" 
d="M66 0v700h147q172 0 254.5 -94t82.5 -256t-82.5 -256t-254.5 -94h-147zM150 77h61q92 0 147.5 34t80.5 95t25 144t-25 144t-80.5 95t-147.5 34h-61v-546zM214 755l-137 80v74l135 -80h4l135 80v-74z" />
    <glyph glyph-name="dcaron" unicode="&#x10f;" 
d="M234 -12q-63 0 -112.5 30t-77.5 88.5t-28 142.5q0 83 28 141t77.5 88t112.5 30q59 0 97.5 -23t57.5 -60v295h84v-720h-69l-9 77h-6q-20 -41 -59 -65t-96 -24zM245 68q63 0 104 44.5t41 135.5t-41 135.5t-104 44.5t-103.5 -44.5t-40.5 -135.5t40.5 -135.5t103.5 -44.5z
M517 496l48 224h101l-77 -224h-72z" />
    <glyph glyph-name="Dcroat" unicode="&#x110;" 
d="M86 0v314h-79v72h79v314h127q172 0 254.5 -94t82.5 -256t-82.5 -256t-254.5 -94h-127zM170 77h41q92 0 147.5 34t80.5 95t25 144t-25 144t-80.5 95t-147.5 34h-41v-237h143v-72h-143v-237z" />
    <glyph glyph-name="dcroat" unicode="&#x111;" 
d="M283 -12q-63 0 -112.5 30t-77.5 88.5t-28 142.5q0 83 28 141t77.5 88t112.5 30q59 0 97.5 -23t57.5 -60v162h-169v69h169v64h84v-64h63v-69h-63v-587h-69l-9 77h-6q-20 -41 -59 -65t-96 -24zM294 68q63 0 104 44.5t41 135.5t-41 135.5t-104 44.5t-103.5 -44.5
t-40.5 -135.5t40.5 -135.5t103.5 -44.5z" />
    <glyph glyph-name="Emacron" unicode="&#x112;" 
d="M86 0v700h437v-76h-353v-233h323v-76h-323v-239h353v-76h-437zM137 596v66h326v-66h-326z" />
    <glyph glyph-name="emacron" unicode="&#x113;" 
d="M305 -12q-70 0 -123.5 32.5t-84.5 91t-31 136.5t30.5 136.5t84.5 91t126 32.5t123 -32.5t78 -85.5t27 -114q0 -11 -0.5 -22t-0.5 -25h-385q3 -55 25.5 -91.5t57 -54.5t73.5 -18q55 0 86 23t47 64h83q-17 -69 -71 -116.5t-145 -47.5zM305 433q-58 0 -101.5 -35t-53.5 -98
h302q-4 62 -44.5 97.5t-102.5 35.5zM143 596v66h326v-66h-326z" />
    <glyph glyph-name="Ebreve" unicode="&#x114;" 
d="M86 0v700h437v-76h-353v-233h323v-76h-323v-239h353v-76h-437zM305 757q-67 0 -104 38t-37 93v13h60q0 -39 22 -59.5t59 -20.5t58.5 20.5t21.5 59.5h61v-13q0 -56 -37.5 -93.5t-103.5 -37.5z" />
    <glyph glyph-name="ebreve" unicode="&#x115;" 
d="M305 -12q-70 0 -123.5 32.5t-84.5 91t-31 136.5t30.5 136.5t84.5 91t126 32.5t123 -32.5t78 -85.5t27 -114q0 -11 -0.5 -22t-0.5 -25h-385q3 -55 25.5 -91.5t57 -54.5t73.5 -18q55 0 86 23t47 64h83q-17 -69 -71 -116.5t-145 -47.5zM305 433q-58 0 -101.5 -35t-53.5 -98
h302q-4 62 -44.5 97.5t-102.5 35.5zM306 553q-67 0 -104 38t-37 93v13h60q0 -39 22 -59.5t59 -20.5t58.5 20.5t21.5 59.5h61v-13q0 -56 -37.5 -93.5t-103.5 -37.5z" />
    <glyph glyph-name="Edotaccent" unicode="&#x116;" 
d="M86 0v700h437v-76h-353v-233h323v-76h-323v-239h353v-76h-437zM305 788q-29 0 -49.5 20t-20.5 48q0 29 20.5 48.5t49.5 19.5q30 0 50 -19.5t20 -48.5q0 -28 -20 -48t-50 -20z" />
    <glyph glyph-name="edotaccent" unicode="&#x117;" 
d="M305 -12q-70 0 -123.5 32.5t-84.5 91t-31 136.5t30.5 136.5t84.5 91t126 32.5t123 -32.5t78 -85.5t27 -114q0 -11 -0.5 -22t-0.5 -25h-385q3 -55 25.5 -91.5t57 -54.5t73.5 -18q55 0 86 23t47 64h83q-17 -69 -71 -116.5t-145 -47.5zM305 433q-58 0 -101.5 -35t-53.5 -98
h302q-4 62 -44.5 97.5t-102.5 35.5zM306 584q-29 0 -49.5 20t-20.5 48q0 29 20.5 48.5t49.5 19.5q30 0 50 -19.5t20 -48.5q0 -28 -20 -48t-50 -20z" />
    <glyph glyph-name="Eogonek" unicode="&#x118;" 
d="M86 0v700h437v-76h-353v-233h323v-76h-323v-239h353v-76h-437zM458 -209q-41 0 -74 25t-33 78q0 46 27.5 75.5t69.5 52.5l49 26l26 -48l-47 -27q-26 -15 -41.5 -32.5t-15.5 -42.5q0 -24 15 -35.5t38 -11.5q13 0 25 3t30 12v-62q-32 -13 -69 -13z" />
    <glyph glyph-name="eogonek" unicode="&#x119;" 
d="M305 -12q-70 0 -123.5 32.5t-84.5 91t-31 136.5t30.5 136.5t84.5 91t126 32.5t123 -32.5t78 -85.5t27 -114q0 -11 -0.5 -22t-0.5 -25h-385q3 -55 25.5 -91.5t57 -54.5t73.5 -18q55 0 86 23t47 64h83q-17 -69 -71 -116.5t-145 -47.5zM305 433q-58 0 -101.5 -35t-53.5 -98
h302q-4 62 -44.5 97.5t-102.5 35.5zM319 -209q-41 0 -74 25t-33 78q0 46 27.5 75.5t69.5 52.5l49 26l26 -48l-47 -27q-26 -15 -41.5 -32.5t-15.5 -42.5q0 -24 15 -35.5t38 -11.5q13 0 25 3t30 12v-62q-32 -13 -69 -13z" />
    <glyph glyph-name="Ecaron" unicode="&#x11a;" 
d="M86 0v700h437v-76h-353v-233h323v-76h-323v-239h353v-76h-437zM305 755l-137 80v74l135 -80h4l135 80v-74z" />
    <glyph glyph-name="ecaron" unicode="&#x11b;" 
d="M305 -12q-70 0 -123.5 32.5t-84.5 91t-31 136.5t30.5 136.5t84.5 91t126 32.5t123 -32.5t78 -85.5t27 -114q0 -11 -0.5 -22t-0.5 -25h-385q3 -55 25.5 -91.5t57 -54.5t73.5 -18q55 0 86 23t47 64h83q-17 -69 -71 -116.5t-145 -47.5zM305 433q-58 0 -101.5 -35t-53.5 -98
h302q-4 62 -44.5 97.5t-102.5 35.5zM306 551l-137 80v74l135 -80h4l135 80v-74z" />
    <glyph glyph-name="Gbreve" unicode="&#x11e;" 
d="M293 -12q-74 0 -132 43.5t-90.5 124.5t-32.5 194q0 112 33 193t93.5 125t143.5 44q99 0 161.5 -58t74.5 -156h-93q-10 60 -46.5 97.5t-96.5 37.5q-86 0 -135 -75t-49 -208q0 -135 49 -209t127 -74q56 0 92 33.5t54.5 86t20.5 108.5h-156v72h242v-367h-77l-7 106h-4
q-21 -54 -61.5 -86t-110.5 -32zM308 757q-67 0 -104 38t-37 93v13h60q0 -39 22 -59.5t59 -20.5t58.5 20.5t21.5 59.5h61v-13q0 -56 -37.5 -93.5t-103.5 -37.5z" />
    <glyph glyph-name="gbreve" unicode="&#x11f;" 
d="M291 146q-52 0 -93 19l-34 -41q-11 -15 -5.5 -29.5t28.5 -14.5h131q89 0 144 -34.5t55 -109.5q0 -45 -23 -83t-72.5 -61.5t-129.5 -23.5q-104 0 -167 39t-63 119q0 29 14.5 53.5t36.5 43.5q-29 18 -35.5 54t21.5 71l45 56q-48 50 -48 123q0 48 23 89.5t66.5 66.5
t105.5 25q40 0 74 -12h186v-63l-93 -3v-7q26 -43 26 -96q0 -48 -22.5 -89.5t-66 -66.5t-104.5 -25zM291 218q49 0 80.5 29t31.5 80t-31.5 79.5t-80.5 28.5q-50 0 -82 -28.5t-32 -79.5t32 -80t82 -29zM145 -71q0 -44 41 -66t106 -22q63 0 102.5 25t39.5 67q0 33 -28 55.5
t-103 22.5h-113q-45 -33 -45 -82zM291 553q-67 0 -104 38t-37 93v13h60q0 -39 22 -59.5t59 -20.5t58.5 20.5t21.5 59.5h61v-13q0 -56 -37.5 -93.5t-103.5 -37.5z" />
    <glyph glyph-name="Gdotaccent" unicode="&#x120;" 
d="M293 -12q-74 0 -132 43.5t-90.5 124.5t-32.5 194q0 112 33 193t93.5 125t143.5 44q99 0 161.5 -58t74.5 -156h-93q-10 60 -46.5 97.5t-96.5 37.5q-86 0 -135 -75t-49 -208q0 -135 49 -209t127 -74q56 0 92 33.5t54.5 86t20.5 108.5h-156v72h242v-367h-77l-7 106h-4
q-21 -54 -61.5 -86t-110.5 -32zM308 788q-29 0 -49.5 20t-20.5 48q0 29 20.5 48.5t49.5 19.5q30 0 50 -19.5t20 -48.5q0 -28 -20 -48t-50 -20z" />
    <glyph glyph-name="gdotaccent" unicode="&#x121;" 
d="M291 146q-52 0 -93 19l-34 -41q-11 -15 -5.5 -29.5t28.5 -14.5h131q89 0 144 -34.5t55 -109.5q0 -45 -23 -83t-72.5 -61.5t-129.5 -23.5q-104 0 -167 39t-63 119q0 29 14.5 53.5t36.5 43.5q-29 18 -35.5 54t21.5 71l45 56q-48 50 -48 123q0 48 23 89.5t66.5 66.5
t105.5 25q40 0 74 -12h186v-63l-93 -3v-7q26 -43 26 -96q0 -48 -22.5 -89.5t-66 -66.5t-104.5 -25zM291 218q49 0 80.5 29t31.5 80t-31.5 79.5t-80.5 28.5q-50 0 -82 -28.5t-32 -79.5t32 -80t82 -29zM145 -71q0 -44 41 -66t106 -22q63 0 102.5 25t39.5 67q0 33 -28 55.5
t-103 22.5h-113q-45 -33 -45 -82zM291 584q-29 0 -49.5 20t-20.5 48q0 29 20.5 48.5t49.5 19.5q30 0 50 -19.5t20 -48.5q0 -28 -20 -48t-50 -20z" />
    <glyph glyph-name="uni0122" unicode="&#x122;" 
d="M293 -12q-74 0 -132 43.5t-90.5 124.5t-32.5 194q0 112 33 193t93.5 125t143.5 44q99 0 161.5 -58t74.5 -156h-93q-10 60 -46.5 97.5t-96.5 37.5q-86 0 -135 -75t-49 -208q0 -135 49 -209t127 -74q56 0 92 33.5t54.5 86t20.5 108.5h-156v72h242v-367h-77l-7 106h-4
q-21 -54 -61.5 -86t-110.5 -32zM193 -264l59 196h108l-89 -196h-78z" />
    <glyph glyph-name="uni0123" unicode="&#x123;" 
d="M291 146q-52 0 -93 19l-34 -41q-11 -15 -5.5 -29.5t28.5 -14.5h131q89 0 144 -34.5t55 -109.5q0 -45 -23 -83t-72.5 -61.5t-129.5 -23.5q-104 0 -167 39t-63 119q0 29 14.5 53.5t36.5 43.5q-29 18 -35.5 54t21.5 71l45 56q-48 50 -48 123q0 48 23 89.5t66.5 66.5
t105.5 25q40 0 74 -12h186v-63l-93 -3v-7q26 -43 26 -96q0 -48 -22.5 -89.5t-66 -66.5t-104.5 -25zM291 218q49 0 80.5 29t31.5 80t-31.5 79.5t-80.5 28.5q-50 0 -82 -28.5t-32 -79.5t32 -80t82 -29zM145 -71q0 -44 41 -66t106 -22q63 0 102.5 25t39.5 67q0 33 -28 55.5
t-103 22.5h-113q-45 -33 -45 -82zM231 564l90 192h75l-57 -192h-108z" />
    <glyph glyph-name="Itilde" unicode="&#x128;" 
d="M99 0v73h159v554h-159v73h402v-73h-159v-554h159v-73h-402zM361 783q-28 0 -47.5 10.5t-35.5 21t-36 10.5q-36 0 -42 -40h-56q3 48 28.5 74t65.5 26q28 0 47 -10.5t35 -21t37 -10.5q38 0 44 40h55q-1 -47 -27.5 -73.5t-67.5 -26.5z" />
    <glyph glyph-name="itilde" unicode="&#x129;" 
d="M100 0v72h158v327q0 25 -25 25h-116v72h136q89 0 89 -89v-335h158v-72h-400zM361 579q-28 0 -47.5 10.5t-35.5 21t-36 10.5q-36 0 -42 -40h-56q3 48 28.5 74t65.5 26q28 0 47 -10.5t35 -21t37 -10.5q38 0 44 40h55q-1 -47 -27.5 -73.5t-67.5 -26.5z" />
    <glyph glyph-name="Imacron" unicode="&#x12a;" 
d="M99 0v73h159v554h-159v73h402v-73h-159v-554h159v-73h-402zM137 800v66h326v-66h-326z" />
    <glyph glyph-name="imacron" unicode="&#x12b;" 
d="M100 0v72h158v327q0 25 -25 25h-116v72h136q89 0 89 -89v-335h158v-72h-400zM137 596v66h326v-66h-326z" />
    <glyph glyph-name="Ibreve" unicode="&#x12c;" 
d="M99 0v73h159v554h-159v73h402v-73h-159v-554h159v-73h-402zM300 757q-67 0 -104 38t-37 93v13h60q0 -39 22 -59.5t59 -20.5t58.5 20.5t21.5 59.5h61v-13q0 -56 -37.5 -93.5t-103.5 -37.5z" />
    <glyph glyph-name="ibreve" unicode="&#x12d;" 
d="M100 0v72h158v327q0 25 -25 25h-116v72h136q89 0 89 -89v-335h158v-72h-400zM300 553q-67 0 -104 38t-37 93v13h60q0 -39 22 -59.5t59 -20.5t58.5 20.5t21.5 59.5h61v-13q0 -56 -37.5 -93.5t-103.5 -37.5z" />
    <glyph glyph-name="Iogonek" unicode="&#x12e;" 
d="M99 0v73h159v554h-159v73h402v-73h-159v-554h159v-73h-402zM436 -209q-41 0 -74 25t-33 78q0 46 27.5 75.5t69.5 52.5l49 26l26 -48l-47 -27q-26 -15 -41.5 -32.5t-15.5 -42.5q0 -24 15 -35.5t38 -11.5q13 0 25 3t30 12v-62q-32 -13 -69 -13z" />
    <glyph glyph-name="iogonek" unicode="&#x12f;" 
d="M100 0v72h158v327q0 25 -25 25h-116v72h136q89 0 89 -89v-335h158v-72h-400zM300 584q-29 0 -49.5 20t-20.5 48q0 29 20.5 48.5t49.5 19.5q30 0 50 -19.5t20 -48.5q0 -28 -20 -48t-50 -20zM435 -209q-41 0 -74 25t-33 78q0 46 27.5 75.5t69.5 52.5l49 26l26 -48l-47 -27
q-26 -15 -41.5 -32.5t-15.5 -42.5q0 -24 15 -35.5t38 -11.5q13 0 25 3t30 12v-62q-32 -13 -69 -13z" />
    <glyph glyph-name="Idotaccent" unicode="&#x130;" 
d="M99 0v73h159v554h-159v73h402v-73h-159v-554h159v-73h-402zM300 788q-29 0 -49.5 20t-20.5 48q0 29 20.5 48.5t49.5 19.5q30 0 50 -19.5t20 -48.5q0 -28 -20 -48t-50 -20z" />
    <glyph glyph-name="dotlessi" unicode="&#x131;" 
d="M100 0v72h158v327q0 25 -25 25h-116v72h136q89 0 89 -89v-335h158v-72h-400z" />
    <glyph glyph-name="uni0136" unicode="&#x136;" 
d="M82 0v700h84v-326l274 326h107l-295 -348v-4l299 -348h-109l-276 321v-321h-84zM193 -264l59 196h108l-89 -196h-78z" />
    <glyph glyph-name="uni0137" unicode="&#x137;" 
d="M111 0v720h84v-434l207 210h107l-221 -221v-6l248 -269h-104l-237 258v-258h-84zM196 -264l59 196h108l-89 -196h-78z" />
    <glyph glyph-name="Lacute" unicode="&#x139;" 
d="M87 0v700h84v-624h355v-76h-439zM74 740v79l210 112v-86z" />
    <glyph glyph-name="lacute" unicode="&#x13a;" 
d="M75 0v72h169v551q0 25 -25 25h-126v72h146q43 0 66 -23t23 -66v-559h169v-72h-422zM245 760v79l210 112v-86z" />
    <glyph glyph-name="uni013B" unicode="&#x13b;" 
d="M87 0v700h84v-624h355v-76h-439zM199 -264l59 196h108l-89 -196h-78z" />
    <glyph glyph-name="uni013C" unicode="&#x13c;" 
d="M75 0v72h169v551q0 25 -25 25h-126v72h146q43 0 66 -23t23 -66v-559h169v-72h-422zM193 -264l59 196h108l-89 -196h-78z" />
    <glyph glyph-name="Lcaron" unicode="&#x13d;" 
d="M87 0v700h84v-624h355v-76h-439zM379 476l48 224h101l-77 -224h-72z" />
    <glyph glyph-name="lcaron" unicode="&#x13e;" 
d="M75 0v72h169v551q0 25 -25 25h-126v72h146q43 0 66 -23t23 -66v-559h169v-72h-422zM427 494l48 224h101l-77 -224h-72z" />
    <glyph glyph-name="Ldot" unicode="&#x13f;" 
d="M87 0v700h84v-624h355v-76h-439zM437 278q-30 0 -51 21t-21 50t21 50t51 21t51.5 -21t21.5 -50t-21.5 -50t-51.5 -21z" />
    <glyph glyph-name="ldot" unicode="&#x140;" 
d="M75 0v72h169v551q0 25 -25 25h-126v72h146q43 0 66 -23t23 -66v-559h169v-72h-422zM586 278q-31 0 -53 21t-22 52q0 30 22 51t53 21t53 -21t22 -51q0 -31 -22 -52t-53 -21z" />
    <glyph glyph-name="Lslash" unicode="&#x141;" 
d="M113 0v244l-93 -37v74l93 37v382h84v-349l131 53v-74l-131 -53v-201h355v-76h-439z" />
    <glyph glyph-name="lslash" unicode="&#x142;" 
d="M75 0v72h169v243l-106 -46v74l106 46v234q0 25 -25 25h-126v72h146q43 0 66 -23t23 -66v-206l105 45v-73l-105 -46v-279h169v-72h-422z" />
    <glyph glyph-name="Nacute" unicode="&#x143;" 
d="M57 0v700h86l318 -553v553h83v-700h-87l-318 553v-553h-82zM245 740v79l210 112v-86z" />
    <glyph glyph-name="nacute" unicode="&#x144;" 
d="M88 0v496h70l9 -75h5q20 36 63 61.5t99 25.5q91 0 136.5 -54t45.5 -156v-298h-84v288q0 66 -29 103.5t-90 37.5q-59 0 -100 -40.5t-41 -116.5v-272h-84zM266 536v79l210 112v-86z" />
    <glyph glyph-name="uni0145" unicode="&#x145;" 
d="M57 0v700h86l318 -553v553h83v-700h-87l-318 553v-553h-82zM193 -264l59 196h108l-89 -196h-78z" />
    <glyph glyph-name="uni0146" unicode="&#x146;" 
d="M88 0v496h70l9 -75h5q20 36 63 61.5t99 25.5q91 0 136.5 -54t45.5 -156v-298h-84v288q0 66 -29 103.5t-90 37.5q-59 0 -100 -40.5t-41 -116.5v-272h-84zM195 -264l59 196h108l-89 -196h-78z" />
    <glyph glyph-name="Ncaron" unicode="&#x147;" 
d="M57 0v700h86l318 -553v553h83v-700h-87l-318 553v-553h-82zM300 755l-137 80v74l135 -80h4l135 80v-74z" />
    <glyph glyph-name="ncaron" unicode="&#x148;" 
d="M88 0v496h70l9 -75h5q20 36 63 61.5t99 25.5q91 0 136.5 -54t45.5 -156v-298h-84v288q0 66 -29 103.5t-90 37.5q-59 0 -100 -40.5t-41 -116.5v-272h-84zM321 551l-137 80v74l135 -80h4l135 80v-74z" />
    <glyph glyph-name="Omacron" unicode="&#x14c;" 
d="M300 -12q-85 0 -146 45t-93.5 126.5t-32.5 190.5t32.5 190.5t93.5 126.5t146 45t146 -45t93.5 -126.5t32.5 -190.5t-32.5 -190.5t-93.5 -126.5t-146 -45zM300 67q83 0 134.5 74t51.5 209t-51.5 209t-134.5 74q-84 0 -135 -74t-51 -209t51 -209t135 -74zM137 800v66h326
v-66h-326z" />
    <glyph glyph-name="omacron" unicode="&#x14d;" 
d="M300 -12q-70 0 -124 32t-85 90.5t-31 137.5t31 137.5t85 90.5t124 32t124 -32t85 -90.5t31 -137.5t-31 -137.5t-85 -90.5t-124 -32zM300 68q43 0 78 19t55.5 59t20.5 102t-20.5 102t-55.5 59t-78 19q-42 0 -77 -19t-56 -59t-21 -102q0 -93 45 -136.5t109 -43.5zM137 596
v66h326v-66h-326z" />
    <glyph glyph-name="Obreve" unicode="&#x14e;" 
d="M300 -12q-85 0 -146 45t-93.5 126.5t-32.5 190.5t32.5 190.5t93.5 126.5t146 45t146 -45t93.5 -126.5t32.5 -190.5t-32.5 -190.5t-93.5 -126.5t-146 -45zM300 67q83 0 134.5 74t51.5 209t-51.5 209t-134.5 74q-84 0 -135 -74t-51 -209t51 -209t135 -74zM300 757
q-67 0 -104 38t-37 93v13h60q0 -39 22 -59.5t59 -20.5t58.5 20.5t21.5 59.5h61v-13q0 -56 -37.5 -93.5t-103.5 -37.5z" />
    <glyph glyph-name="obreve" unicode="&#x14f;" 
d="M300 -12q-70 0 -124 32t-85 90.5t-31 137.5t31 137.5t85 90.5t124 32t124 -32t85 -90.5t31 -137.5t-31 -137.5t-85 -90.5t-124 -32zM300 68q43 0 78 19t55.5 59t20.5 102t-20.5 102t-55.5 59t-78 19q-42 0 -77 -19t-56 -59t-21 -102q0 -93 45 -136.5t109 -43.5zM300 553
q-67 0 -104 38t-37 93v13h60q0 -39 22 -59.5t59 -20.5t58.5 20.5t21.5 59.5h61v-13q0 -56 -37.5 -93.5t-103.5 -37.5z" />
    <glyph glyph-name="Ohungarumlaut" unicode="&#x150;" 
d="M300 -12q-85 0 -146 45t-93.5 126.5t-32.5 190.5t32.5 190.5t93.5 126.5t146 45t146 -45t93.5 -126.5t32.5 -190.5t-32.5 -190.5t-93.5 -126.5t-146 -45zM300 67q83 0 134.5 74t51.5 209t-51.5 209t-134.5 74q-84 0 -135 -74t-51 -209t51 -209t135 -74zM337 758l65 151
h78l-82 -151h-61zM182 758l66 151h77l-82 -151h-61z" />
    <glyph glyph-name="ohungarumlaut" unicode="&#x151;" 
d="M300 -12q-70 0 -124 32t-85 90.5t-31 137.5t31 137.5t85 90.5t124 32t124 -32t85 -90.5t31 -137.5t-31 -137.5t-85 -90.5t-124 -32zM300 68q43 0 78 19t55.5 59t20.5 102t-20.5 102t-55.5 59t-78 19q-42 0 -77 -19t-56 -59t-21 -102q0 -93 45 -136.5t109 -43.5zM337 554
l65 151h78l-82 -151h-61zM182 554l66 151h77l-82 -151h-61z" />
    <glyph glyph-name="OE" unicode="&#x152;" 
d="M197 -12q-53 0 -92.5 36.5t-61.5 116.5t-22 209t22 209t62 116.5t92 36.5q38 0 66 -16.5t47 -52.5h4v57h276v-76h-193v-233h163v-76h-163v-239h193v-76h-276v66h-4q-18 -38 -43.5 -58t-69.5 -20zM209 64q51 0 80.5 65t29.5 221t-29.5 221t-80.5 65q-52 0 -78.5 -65
t-26.5 -221t26.5 -221t78.5 -65z" />
    <glyph glyph-name="oe" unicode="&#x153;" 
d="M180 -12q-73 0 -115 70.5t-42 189.5t42.5 189.5t114.5 70.5q41 0 75 -20t51 -70q15 41 49 65.5t77 24.5q73 0 109 -60.5t36 -162.5q0 -25 -2 -56h-228q2 -82 23.5 -123t55.5 -41q25 0 40.5 23t22.5 64h79q-9 -70 -45.5 -117t-96.5 -47q-86 0 -125 87q-20 -41 -50 -64
t-71 -23zM427 433q-30 0 -52 -35t-27 -98h149q-1 64 -20.5 98.5t-49.5 34.5zM187 66q38 0 59.5 44t21.5 138t-21.5 138t-59.5 44t-59.5 -44t-21.5 -138t21.5 -138t59.5 -44z" />
    <glyph glyph-name="Racute" unicode="&#x154;" 
d="M82 0v700h215q81 0 133.5 -27t78.5 -73.5t26 -105.5q0 -69 -35.5 -121.5t-108.5 -73.5l152 -299h-100l-141 287h-5h-131v-287h-84zM166 364h128q80 0 117.5 36.5t37.5 93.5q0 60 -36.5 95t-119.5 35h-127v-260zM245 740v79l210 112v-86z" />
    <glyph glyph-name="racute" unicode="&#x155;" 
d="M84 0v72h127v327q0 25 -24 25h-90v72h121q33 0 53 -18t20 -53v-21h4q12 50 45.5 77t93.5 27h91v-89h-103q-61 0 -94 -40.5t-33 -103.5v-203h156v-72h-367zM305 536v79l210 112v-86z" />
    <glyph glyph-name="uni0156" unicode="&#x156;" 
d="M82 0v700h215q81 0 133.5 -27t78.5 -73.5t26 -105.5q0 -69 -35.5 -121.5t-108.5 -73.5l152 -299h-100l-141 287h-5h-131v-287h-84zM166 364h128q80 0 117.5 36.5t37.5 93.5q0 60 -36.5 95t-119.5 35h-127v-260zM193 -264l59 196h108l-89 -196h-78z" />
    <glyph glyph-name="uni0157" unicode="&#x157;" 
d="M84 0v72h127v327q0 25 -24 25h-90v72h121q33 0 53 -18t20 -53v-21h4q12 50 45.5 77t93.5 27h91v-89h-103q-61 0 -94 -40.5t-33 -103.5v-203h156v-72h-367zM146 -264l59 196h108l-89 -196h-78z" />
    <glyph glyph-name="Rcaron" unicode="&#x158;" 
d="M82 0v700h215q81 0 133.5 -27t78.5 -73.5t26 -105.5q0 -69 -35.5 -121.5t-108.5 -73.5l152 -299h-100l-141 287h-5h-131v-287h-84zM166 364h128q80 0 117.5 36.5t37.5 93.5q0 60 -36.5 95t-119.5 35h-127v-260zM300 755l-137 80v74l135 -80h4l135 80v-74z" />
    <glyph glyph-name="rcaron" unicode="&#x159;" 
d="M84 0v72h127v327q0 25 -24 25h-90v72h121q33 0 53 -18t20 -53v-21h4q12 50 45.5 77t93.5 27h91v-89h-103q-61 0 -94 -40.5t-33 -103.5v-203h156v-72h-367zM360 551l-137 80v74l135 -80h4l135 80v-74z" />
    <glyph glyph-name="Sacute" unicode="&#x15a;" 
d="M307 -12q-74 0 -128.5 28t-84 78t-30.5 117h88q1 -60 40.5 -103.5t114.5 -43.5q69 0 106.5 33.5t37.5 80.5q0 39 -18 65.5t-58.5 47t-108.5 42.5q-96 29 -140 79t-44 124q0 50 26 90t75 63t119 23q66 0 115.5 -24.5t77 -68.5t27.5 -101h-88q0 28 -15 55t-45 45t-76 18
q-55 0 -92 -26.5t-37 -72.5q0 -35 16.5 -59t54.5 -43.5t103 -41.5q61 -20 104.5 -46.5t67 -65.5t23.5 -97q0 -57 -29 -101t-81 -69.5t-121 -25.5zM245 740v79l210 112v-86z" />
    <glyph glyph-name="sacute" unicode="&#x15b;" 
d="M305 -12q-95 0 -153.5 44.5t-65.5 122.5h87q6 -41 40.5 -67t93.5 -26q56 0 83.5 24t27.5 55q0 42 -33 57.5t-99 23.5q-79 9 -131 43t-52 102q0 61 51 101t139 40q87 0 137 -39.5t57 -112.5h-83q-3 36 -34.5 57.5t-78.5 21.5q-49 0 -76 -18.5t-27 -48.5t30.5 -49.5
t96.5 -25.5q52 -6 95 -20t68.5 -44t25.5 -84q1 -45 -24.5 -80.5t-70.5 -56t-104 -20.5zM245 536v79l210 112v-86z" />
    <glyph glyph-name="Scedilla" unicode="&#x15e;" 
d="M307 -12q-74 0 -128.5 28t-84 78t-30.5 117h88q1 -60 40.5 -103.5t114.5 -43.5q69 0 106.5 33.5t37.5 80.5q0 39 -18 65.5t-58.5 47t-108.5 42.5q-96 29 -140 79t-44 124q0 50 26 90t75 63t119 23q66 0 115.5 -24.5t77 -68.5t27.5 -101h-88q0 28 -15 55t-45 45t-76 18
q-55 0 -92 -26.5t-37 -72.5q0 -35 16.5 -59t54.5 -43.5t103 -41.5q61 -20 104.5 -46.5t67 -65.5t23.5 -97q0 -57 -29 -101t-81 -69.5t-121 -25.5zM229 -259v53h100q28 0 44 12t16 36q0 22 -16 33t-44 11h-57v121h57v-70h9q53 0 86 -23.5t33 -72.5q0 -48 -34 -74t-86 -26
h-108z" />
    <glyph glyph-name="scedilla" unicode="&#x15f;" 
d="M305 -12q-95 0 -153.5 44.5t-65.5 122.5h87q6 -41 40.5 -67t93.5 -26q56 0 83.5 24t27.5 55q0 42 -33 57.5t-99 23.5q-79 9 -131 43t-52 102q0 61 51 101t139 40q87 0 137 -39.5t57 -112.5h-83q-3 36 -34.5 57.5t-78.5 21.5q-49 0 -76 -18.5t-27 -48.5t30.5 -49.5
t96.5 -25.5q52 -6 95 -20t68.5 -44t25.5 -84q1 -45 -24.5 -80.5t-70.5 -56t-104 -20.5zM229 -259v53h100q28 0 44 12t16 36q0 22 -16 33t-44 11h-57v121h57v-70h9q53 0 86 -23.5t33 -72.5q0 -48 -34 -74t-86 -26h-108z" />
    <glyph glyph-name="Scaron" unicode="&#x160;" 
d="M307 -12q-74 0 -128.5 28t-84 78t-30.5 117h88q1 -60 40.5 -103.5t114.5 -43.5q69 0 106.5 33.5t37.5 80.5q0 39 -18 65.5t-58.5 47t-108.5 42.5q-96 29 -140 79t-44 124q0 50 26 90t75 63t119 23q66 0 115.5 -24.5t77 -68.5t27.5 -101h-88q0 28 -15 55t-45 45t-76 18
q-55 0 -92 -26.5t-37 -72.5q0 -35 16.5 -59t54.5 -43.5t103 -41.5q61 -20 104.5 -46.5t67 -65.5t23.5 -97q0 -57 -29 -101t-81 -69.5t-121 -25.5zM300 755l-137 80v74l135 -80h4l135 80v-74z" />
    <glyph glyph-name="scaron" unicode="&#x161;" 
d="M305 -12q-95 0 -153.5 44.5t-65.5 122.5h87q6 -41 40.5 -67t93.5 -26q56 0 83.5 24t27.5 55q0 42 -33 57.5t-99 23.5q-79 9 -131 43t-52 102q0 61 51 101t139 40q87 0 137 -39.5t57 -112.5h-83q-3 36 -34.5 57.5t-78.5 21.5q-49 0 -76 -18.5t-27 -48.5t30.5 -49.5
t96.5 -25.5q52 -6 95 -20t68.5 -44t25.5 -84q1 -45 -24.5 -80.5t-70.5 -56t-104 -20.5zM300 551l-137 80v74l135 -80h4l135 80v-74z" />
    <glyph glyph-name="uni0162" unicode="&#x162;" 
d="M258 0v624h-188v76h460v-76h-188v-624h-84zM229 -259v53h100q28 0 44 12t16 36q0 22 -16 33t-44 11h-57v121h57v-70h9q53 0 86 -23.5t33 -72.5q0 -48 -34 -74t-86 -26h-108z" />
    <glyph glyph-name="uni0163" unicode="&#x163;" 
d="M352 0q-68 0 -107 33t-39 119v272h-126v72h75q51 0 59 50l14 77h62v-127h198v-72h-198v-272q0 -42 19.5 -59t67.5 -17h111v-76h-136zM255 -259v53h100q28 0 44 12t16 36q0 22 -16 33t-44 11h-57v121h57v-70h9q53 0 86 -23.5t33 -72.5q0 -48 -34 -74t-86 -26h-108z" />
    <glyph glyph-name="Tcaron" unicode="&#x164;" 
d="M258 0v624h-188v76h460v-76h-188v-624h-84zM300 755l-137 80v74l135 -80h4l135 80v-74z" />
    <glyph glyph-name="tcaron" unicode="&#x165;" 
d="M352 0q-68 0 -107 33t-39 119v272h-126v72h75q51 0 59 50l14 77h62v-127h198v-72h-198v-272q0 -42 19.5 -59t67.5 -17h111v-76h-136zM379 596l48 224h101l-77 -224h-72z" />
    <glyph glyph-name="Utilde" unicode="&#x168;" 
d="M299 -12q-70 0 -124.5 29t-86 88.5t-31.5 149.5v445h84v-448q0 -90 44 -139t116 -49t115 49t43 139v448h84v-445q0 -90 -32 -149.5t-87 -88.5t-125 -29zM361 783q-28 0 -47.5 10.5t-35.5 21t-36 10.5q-36 0 -42 -40h-56q3 48 28.5 74t65.5 26q28 0 47 -10.5t35 -21
t37 -10.5q38 0 44 40h55q-1 -47 -27.5 -73.5t-67.5 -26.5z" />
    <glyph glyph-name="utilde" unicode="&#x169;" 
d="M265 -12q-90 0 -136 54t-46 156v298h84v-288q0 -66 29.5 -103.5t89.5 -37.5t101 40.5t41 116.5v272h84v-496h-70l-9 75h-5q-20 -36 -63 -61.5t-100 -25.5zM359 579q-28 0 -47.5 10.5t-35.5 21t-36 10.5q-36 0 -42 -40h-56q3 48 28.5 74t65.5 26q28 0 47 -10.5t35 -21
t37 -10.5q38 0 44 40h55q-1 -47 -27.5 -73.5t-67.5 -26.5z" />
    <glyph glyph-name="Umacron" unicode="&#x16a;" 
d="M299 -12q-70 0 -124.5 29t-86 88.5t-31.5 149.5v445h84v-448q0 -90 44 -139t116 -49t115 49t43 139v448h84v-445q0 -90 -32 -149.5t-87 -88.5t-125 -29zM137 800v66h326v-66h-326z" />
    <glyph glyph-name="umacron" unicode="&#x16b;" 
d="M265 -12q-90 0 -136 54t-46 156v298h84v-288q0 -66 29.5 -103.5t89.5 -37.5t101 40.5t41 116.5v272h84v-496h-70l-9 75h-5q-20 -36 -63 -61.5t-100 -25.5zM135 596v66h326v-66h-326z" />
    <glyph glyph-name="Ubreve" unicode="&#x16c;" 
d="M299 -12q-70 0 -124.5 29t-86 88.5t-31.5 149.5v445h84v-448q0 -90 44 -139t116 -49t115 49t43 139v448h84v-445q0 -90 -32 -149.5t-87 -88.5t-125 -29zM300 757q-67 0 -104 38t-37 93v13h60q0 -39 22 -59.5t59 -20.5t58.5 20.5t21.5 59.5h61v-13q0 -56 -37.5 -93.5
t-103.5 -37.5z" />
    <glyph glyph-name="ubreve" unicode="&#x16d;" 
d="M265 -12q-90 0 -136 54t-46 156v298h84v-288q0 -66 29.5 -103.5t89.5 -37.5t101 40.5t41 116.5v272h84v-496h-70l-9 75h-5q-20 -36 -63 -61.5t-100 -25.5zM298 553q-67 0 -104 38t-37 93v13h60q0 -39 22 -59.5t59 -20.5t58.5 20.5t21.5 59.5h61v-13q0 -56 -37.5 -93.5
t-103.5 -37.5z" />
    <glyph glyph-name="Uring" unicode="&#x16e;" 
d="M299 -12q-70 0 -124.5 29t-86 88.5t-31.5 149.5v445h84v-448q0 -90 44 -139t116 -49t115 49t43 139v448h84v-445q0 -90 -32 -149.5t-87 -88.5t-125 -29zM300 761q-43 0 -74 27.5t-31 75.5q0 47 31 75t74 28t74 -28t31 -75q0 -48 -31 -75.5t-74 -27.5zM300 805
q24 0 40.5 15.5t16.5 43.5q0 27 -16.5 42.5t-40.5 15.5t-40.5 -15.5t-16.5 -42.5q0 -28 16.5 -43.5t40.5 -15.5z" />
    <glyph glyph-name="uring" unicode="&#x16f;" 
d="M265 -12q-90 0 -136 54t-46 156v298h84v-288q0 -66 29.5 -103.5t89.5 -37.5t101 40.5t41 116.5v272h84v-496h-70l-9 75h-5q-20 -36 -63 -61.5t-100 -25.5zM298 557q-43 0 -74 27.5t-31 75.5q0 47 31 75t74 28t74 -28t31 -75q0 -48 -31 -75.5t-74 -27.5zM298 601
q24 0 40.5 15.5t16.5 43.5q0 27 -16.5 42.5t-40.5 15.5t-40.5 -15.5t-16.5 -42.5q0 -28 16.5 -43.5t40.5 -15.5z" />
    <glyph glyph-name="Uhungarumlaut" unicode="&#x170;" 
d="M299 -12q-70 0 -124.5 29t-86 88.5t-31.5 149.5v445h84v-448q0 -90 44 -139t116 -49t115 49t43 139v448h84v-445q0 -90 -32 -149.5t-87 -88.5t-125 -29zM337 758l65 151h78l-82 -151h-61zM182 758l66 151h77l-82 -151h-61z" />
    <glyph glyph-name="uhungarumlaut" unicode="&#x171;" 
d="M265 -12q-90 0 -136 54t-46 156v298h84v-288q0 -66 29.5 -103.5t89.5 -37.5t101 40.5t41 116.5v272h84v-496h-70l-9 75h-5q-20 -36 -63 -61.5t-100 -25.5zM335 554l65 151h78l-82 -151h-61zM180 554l66 151h77l-82 -151h-61z" />
    <glyph glyph-name="Uogonek" unicode="&#x172;" 
d="M299 -12q-70 0 -124.5 29t-86 88.5t-31.5 149.5v445h84v-448q0 -90 44 -139t116 -49t115 49t43 139v448h84v-445q0 -90 -32 -149.5t-87 -88.5t-125 -29zM318 -209q-41 0 -74 25t-33 78q0 46 27.5 75.5t69.5 52.5l49 26l26 -48l-47 -27q-26 -15 -41.5 -32.5t-15.5 -42.5
q0 -24 15 -35.5t38 -11.5q13 0 25 3t30 12v-62q-32 -13 -69 -13z" />
    <glyph glyph-name="uogonek" unicode="&#x173;" 
d="M265 -12q-90 0 -136 54t-46 156v298h84v-288q0 -66 29.5 -103.5t89.5 -37.5t101 40.5t41 116.5v272h84v-496h-70l-9 75h-5q-20 -36 -63 -61.5t-100 -25.5zM447 -209q-41 0 -74 25t-33 78q0 46 27.5 75.5t69.5 52.5l49 26l26 -48l-47 -27q-26 -15 -41.5 -32.5t-15.5 -42.5
q0 -24 15 -35.5t38 -11.5q13 0 25 3t30 12v-62q-32 -13 -69 -13z" />
    <glyph glyph-name="Wcircumflex" unicode="&#x174;" 
d="M109 0l-107 700h85l71 -540l99 540h86l99 -540l71 540h85l-107 -700h-96l-95 538l-95 -538h-96zM163 755v74l137 80l137 -80v-74l-135 80h-4z" />
    <glyph glyph-name="wcircumflex" unicode="&#x175;" 
d="M124 0l-110 496h83l71 -371l85 371h94l85 -371l71 371h84l-111 -496h-86l-90 385l-90 -385h-86zM163 551v74l137 80l137 -80v-74l-135 80h-4z" />
    <glyph glyph-name="Ycircumflex" unicode="&#x176;" 
d="M258 0v275l-227 425h95l174 -340l174 340h95l-227 -425v-275h-84zM163 755v74l137 80l137 -80v-74l-135 80h-4z" />
    <glyph glyph-name="ycircumflex" unicode="&#x177;" 
d="M149 -220l122 268h-29l-196 448h91l163 -384l172 384h88l-323 -716h-88zM165 551v74l137 80l137 -80v-74l-135 80h-4z" />
    <glyph glyph-name="Ydieresis" unicode="&#x178;" 
d="M258 0v275l-227 425h95l174 -340l174 340h95l-227 -425v-275h-84zM392 769q-24 0 -40.5 17t-16.5 40q0 24 16.5 41t40.5 17t40 -17t16 -41q0 -23 -16 -40t-40 -17zM209 769q-24 0 -40.5 17t-16.5 40q0 24 16.5 41t40.5 17t40.5 -17t16.5 -41q0 -23 -16.5 -40t-40.5 -17z
" />
    <glyph glyph-name="Zacute" unicode="&#x179;" 
d="M69 0v69l362 555h-357v76h454v-69l-363 -555h367v-76h-463zM245 740v79l210 112v-86z" />
    <glyph glyph-name="zacute" unicode="&#x17a;" 
d="M102 0v77l292 341h-287v78h386v-77l-293 -341h298v-78h-396zM245 536v79l210 112v-86z" />
    <glyph glyph-name="Zdotaccent" unicode="&#x17b;" 
d="M69 0v69l362 555h-357v76h454v-69l-363 -555h367v-76h-463zM300 788q-29 0 -49.5 20t-20.5 48q0 29 20.5 48.5t49.5 19.5q30 0 50 -19.5t20 -48.5q0 -28 -20 -48t-50 -20z" />
    <glyph glyph-name="zdotaccent" unicode="&#x17c;" 
d="M102 0v77l292 341h-287v78h386v-77l-293 -341h298v-78h-396zM300 584q-29 0 -49.5 20t-20.5 48q0 29 20.5 48.5t49.5 19.5q30 0 50 -19.5t20 -48.5q0 -28 -20 -48t-50 -20z" />
    <glyph glyph-name="Zcaron" unicode="&#x17d;" 
d="M69 0v69l362 555h-357v76h454v-69l-363 -555h367v-76h-463zM300 755l-137 80v74l135 -80h4l135 80v-74z" />
    <glyph glyph-name="zcaron" unicode="&#x17e;" 
d="M102 0v77l292 341h-287v78h386v-77l-293 -341h298v-78h-396zM300 551l-137 80v74l135 -80h4l135 80v-74z" />
    <glyph glyph-name="uni018F" unicode="&#x18f;" 
d="M287 -12q-66 0 -113 27.5t-77 75.5t-44 109.5t-14 130.5q0 10 0.5 22t1.5 26h442q-3 85 -29.5 141t-68 84.5t-88.5 28.5q-61 0 -103.5 -34t-56.5 -91h-87q12 55 43 101t82 74.5t122 28.5q85 0 146 -43.5t94 -123.5t33 -190q0 -113 -35 -195.5t-98.5 -127t-149.5 -44.5z
M289 66q51 0 93.5 27.5t69 81t31.5 129.5h-358q2 -109 41.5 -173.5t122.5 -64.5z" />
    <glyph glyph-name="florin" unicode="&#x192;" 
d="M25 -220v77h59q38 0 56.5 15t25.5 53l89 499h-113v72h125l15 79q13 77 53 111t119 34h115v-76h-122q-37 0 -56 -15.5t-25 -53.5l-14 -79h180v-72h-193l-89 -499q-14 -77 -51.5 -111t-121.5 -34h-52z" />
    <glyph glyph-name="AEacute" unicode="&#x1fc;" 
d="M2 0l231 700h357v-76h-204v-233h174v-76h-174v-239h204v-76h-288v174h-153l-55 -174h-92zM289 624l-118 -380h131v380h-13zM333 740v79l210 112v-86z" />
    <glyph glyph-name="aeacute" unicode="&#x1fd;" 
d="M156 -12q-44 0 -74.5 20.5t-47 53.5t-16.5 73q0 80 51.5 122t133.5 42h55v46q0 46 -19.5 68t-52.5 22q-30 0 -49 -19.5t-21 -57.5h-82q4 69 46.5 109.5t103.5 40.5q47 0 77.5 -19t45.5 -52q19 30 49.5 50.5t72.5 20.5q80 0 119.5 -59.5t39.5 -169.5q0 -11 -1 -24.5
t-1 -24.5h-246q2 -83 26.5 -124t59.5 -41q54 0 71 87h79q-8 -69 -45 -116.5t-109 -47.5q-46 0 -79 28t-46 65h-3q-17 -45 -55.5 -69t-82.5 -24zM342 299h165q-3 64 -22.5 99t-57.5 35q-39 0 -60.5 -35.5t-24.5 -98.5zM171 62q36 0 61.5 29t25.5 84v55h-48q-54 0 -80 -24.5
t-26 -66.5q0 -36 17 -56.5t50 -20.5zM245 536v79l210 112v-86z" />
    <glyph glyph-name="uni0218" unicode="&#x218;" 
d="M307 -12q-74 0 -128.5 28t-84 78t-30.5 117h88q1 -60 40.5 -103.5t114.5 -43.5q69 0 106.5 33.5t37.5 80.5q0 39 -18 65.5t-58.5 47t-108.5 42.5q-96 29 -140 79t-44 124q0 50 26 90t75 63t119 23q66 0 115.5 -24.5t77 -68.5t27.5 -101h-88q0 28 -15 55t-45 45t-76 18
q-55 0 -92 -26.5t-37 -72.5q0 -35 16.5 -59t54.5 -43.5t103 -41.5q61 -20 104.5 -46.5t67 -65.5t23.5 -97q0 -57 -29 -101t-81 -69.5t-121 -25.5zM193 -264l59 196h108l-89 -196h-78z" />
    <glyph glyph-name="uni0219" unicode="&#x219;" 
d="M305 -12q-95 0 -153.5 44.5t-65.5 122.5h87q6 -41 40.5 -67t93.5 -26q56 0 83.5 24t27.5 55q0 42 -33 57.5t-99 23.5q-79 9 -131 43t-52 102q0 61 51 101t139 40q87 0 137 -39.5t57 -112.5h-83q-3 36 -34.5 57.5t-78.5 21.5q-49 0 -76 -18.5t-27 -48.5t30.5 -49.5
t96.5 -25.5q52 -6 95 -20t68.5 -44t25.5 -84q1 -45 -24.5 -80.5t-70.5 -56t-104 -20.5zM193 -264l59 196h108l-89 -196h-78z" />
    <glyph glyph-name="uni021A" unicode="&#x21a;" 
d="M258 0v624h-188v76h460v-76h-188v-624h-84zM193 -264l59 196h108l-89 -196h-78z" />
    <glyph glyph-name="uni021B" unicode="&#x21b;" 
d="M352 0q-68 0 -107 33t-39 119v272h-126v72h75q51 0 59 50l14 77h62v-127h198v-72h-198v-272q0 -42 19.5 -59t67.5 -17h111v-76h-136zM219 -264l59 196h108l-89 -196h-78z" />
    <glyph glyph-name="uni0259" unicode="&#x259;" 
d="M293 -12q-72 0 -123 32.5t-77.5 85.5t-26.5 115v21t1 25h384q-3 55 -25.5 91.5t-57 54.5t-73.5 18q-55 0 -86 -23t-47 -64h-83q17 69 71 116.5t145 47.5q70 0 123.5 -32.5t84.5 -91t31 -136.5t-30.5 -136.5t-84.5 -91t-126 -32.5zM295 63q58 0 101.5 35t53.5 98h-302
q4 -62 44.5 -97.5t102.5 -35.5z" />
    <glyph glyph-name="circumflex" unicode="&#x2c6;" 
d="M163 551v74l137 80l137 -80v-74l-135 80h-4z" />
    <glyph glyph-name="caron" unicode="&#x2c7;" 
d="M300 551l-137 80v74l135 -80h4l135 80v-74z" />
    <glyph glyph-name="breve" unicode="&#x2d8;" 
d="M300 553q-67 0 -104 38t-37 93v13h60q0 -39 22 -59.5t59 -20.5t58.5 20.5t21.5 59.5h61v-13q0 -56 -37.5 -93.5t-103.5 -37.5z" />
    <glyph glyph-name="dotaccent" unicode="&#x2d9;" 
d="M300 584q-29 0 -49.5 20t-20.5 48q0 29 20.5 48.5t49.5 19.5q30 0 50 -19.5t20 -48.5q0 -28 -20 -48t-50 -20z" />
    <glyph glyph-name="ring" unicode="&#x2da;" 
d="M300 557q-43 0 -74 27.5t-31 75.5q0 47 31 75t74 28t74 -28t31 -75q0 -48 -31 -75.5t-74 -27.5zM300 601q24 0 40.5 15.5t16.5 43.5q0 27 -16.5 42.5t-40.5 15.5t-40.5 -15.5t-16.5 -42.5q0 -28 16.5 -43.5t40.5 -15.5z" />
    <glyph glyph-name="ogonek" unicode="&#x2db;" 
d="M320 -209q-41 0 -74 25t-33 78q0 46 27.5 75.5t69.5 52.5l49 26l26 -48l-47 -27q-26 -15 -41.5 -32.5t-15.5 -42.5q0 -24 15 -35.5t38 -11.5q13 0 25 3t30 12v-62q-32 -13 -69 -13z" />
    <glyph glyph-name="tilde" unicode="&#x2dc;" 
d="M361 579q-28 0 -47.5 10.5t-35.5 21t-36 10.5q-36 0 -42 -40h-56q3 48 28.5 74t65.5 26q28 0 47 -10.5t35 -21t37 -10.5q38 0 44 40h55q-1 -47 -27.5 -73.5t-67.5 -26.5z" />
    <glyph glyph-name="hungarumlaut" unicode="&#x2dd;" 
d="M306 554l65 151h78l-82 -151h-61zM151 554l66 151h77l-82 -151h-61z" />
    <glyph glyph-name="gravecomb" unicode="&#x300;" horiz-adv-x="0" 
d="M405 536l-210 105v86l210 -112v-79z" />
    <glyph glyph-name="acutecomb" unicode="&#x301;" horiz-adv-x="0" 
d="M195 536v79l210 112v-86z" />
    <glyph glyph-name="uni0302" unicode="&#x302;" horiz-adv-x="0" 
d="M163 551v74l137 80l137 -80v-74l-135 80h-4z" />
    <glyph glyph-name="tildecomb" unicode="&#x303;" horiz-adv-x="0" 
d="M361 579q-28 0 -47.5 10.5t-35.5 21t-36 10.5q-36 0 -42 -40h-56q3 48 28.5 74t65.5 26q28 0 47 -10.5t35 -21t37 -10.5q38 0 44 40h55q-1 -47 -27.5 -73.5t-67.5 -26.5z" />
    <glyph glyph-name="uni0304" unicode="&#x304;" horiz-adv-x="0" 
d="M137 596v66h326v-66h-326z" />
    <glyph glyph-name="uni0306" unicode="&#x306;" horiz-adv-x="0" 
d="M300 553q-67 0 -104 38t-37 93v13h60q0 -39 22 -59.5t59 -20.5t58.5 20.5t21.5 59.5h61v-13q0 -56 -37.5 -93.5t-103.5 -37.5z" />
    <glyph glyph-name="uni0307" unicode="&#x307;" horiz-adv-x="0" 
d="M300 584q-29 0 -49.5 20t-20.5 48q0 29 20.5 48.5t49.5 19.5q30 0 50 -19.5t20 -48.5q0 -28 -20 -48t-50 -20z" />
    <glyph glyph-name="uni0308" unicode="&#x308;" horiz-adv-x="0" 
d="M392 565q-24 0 -40.5 17t-16.5 40q0 24 16.5 41t40.5 17t40 -17t16 -41q0 -23 -16 -40t-40 -17zM209 565q-24 0 -40.5 17t-16.5 40q0 24 16.5 41t40.5 17t40.5 -17t16.5 -41q0 -23 -16.5 -40t-40.5 -17z" />
    <glyph glyph-name="uni030A" unicode="&#x30a;" horiz-adv-x="0" 
d="M300 557q-43 0 -74 27.5t-31 75.5q0 47 31 75t74 28t74 -28t31 -75q0 -48 -31 -75.5t-74 -27.5zM300 601q24 0 40.5 15.5t16.5 43.5q0 27 -16.5 42.5t-40.5 15.5t-40.5 -15.5t-16.5 -42.5q0 -28 16.5 -43.5t40.5 -15.5z" />
    <glyph glyph-name="uni030B" unicode="&#x30b;" horiz-adv-x="0" 
d="M306 554l65 151h78l-82 -151h-61zM151 554l66 151h77l-82 -151h-61z" />
    <glyph glyph-name="uni030C" unicode="&#x30c;" horiz-adv-x="0" 
d="M300 551l-137 80v74l135 -80h4l135 80v-74z" />
    <glyph glyph-name="uni0312" unicode="&#x312;" horiz-adv-x="0" 
d="M211 564l90 192h75l-57 -192h-108z" />
    <glyph glyph-name="uni0326" unicode="&#x326;" horiz-adv-x="0" 
d="M194 -264l59 196h108l-89 -196h-78z" />
    <glyph glyph-name="uni0327" unicode="&#x327;" horiz-adv-x="0" 
d="M236 -259v53h100q28 0 44 12t16 36q0 22 -16 33t-44 11h-57v121h57v-70h9q53 0 86 -23.5t33 -72.5q0 -48 -34 -74t-86 -26h-108z" />
    <glyph glyph-name="uni0328" unicode="&#x328;" horiz-adv-x="0" 
d="M320 -209q-41 0 -74 25t-33 78q0 46 27.5 75.5t69.5 52.5l49 26l26 -48l-47 -27q-26 -15 -41.5 -32.5t-15.5 -42.5q0 -24 15 -35.5t38 -11.5q13 0 25 3t30 12v-62q-32 -13 -69 -13z" />
    <glyph glyph-name="pi" unicode="&#x3c0;" 
d="M125 0v424h-96v72h542v-72h-96v-424h-84v424h-182v-424h-84z" />
    <glyph glyph-name="Wgrave" unicode="&#x1e80;" 
d="M109 0l-107 700h85l71 -540l99 540h86l99 -540l71 540h85l-107 -700h-96l-95 538l-95 -538h-96zM355 740l-210 105v86l210 -112v-79z" />
    <glyph glyph-name="wgrave" unicode="&#x1e81;" 
d="M124 0l-110 496h83l71 -371l85 371h94l85 -371l71 371h84l-111 -496h-86l-90 385l-90 -385h-86zM355 536l-210 105v86l210 -112v-79z" />
    <glyph glyph-name="Wacute" unicode="&#x1e82;" 
d="M109 0l-107 700h85l71 -540l99 540h86l99 -540l71 540h85l-107 -700h-96l-95 538l-95 -538h-96zM245 740v79l210 112v-86z" />
    <glyph glyph-name="wacute" unicode="&#x1e83;" 
d="M124 0l-110 496h83l71 -371l85 371h94l85 -371l71 371h84l-111 -496h-86l-90 385l-90 -385h-86zM245 536v79l210 112v-86z" />
    <glyph glyph-name="Wdieresis" unicode="&#x1e84;" 
d="M109 0l-107 700h85l71 -540l99 540h86l99 -540l71 540h85l-107 -700h-96l-95 538l-95 -538h-96zM392 769q-24 0 -40.5 17t-16.5 40q0 24 16.5 41t40.5 17t40 -17t16 -41q0 -23 -16 -40t-40 -17zM209 769q-24 0 -40.5 17t-16.5 40q0 24 16.5 41t40.5 17t40.5 -17t16.5 -41
q0 -23 -16.5 -40t-40.5 -17z" />
    <glyph glyph-name="wdieresis" unicode="&#x1e85;" 
d="M124 0l-110 496h83l71 -371l85 371h94l85 -371l71 371h84l-111 -496h-86l-90 385l-90 -385h-86zM392 565q-24 0 -40.5 17t-16.5 40q0 24 16.5 41t40.5 17t40 -17t16 -41q0 -23 -16 -40t-40 -17zM209 565q-24 0 -40.5 17t-16.5 40q0 24 16.5 41t40.5 17t40.5 -17t16.5 -41
q0 -23 -16.5 -40t-40.5 -17z" />
    <glyph glyph-name="uni1EBC" unicode="&#x1ebc;" 
d="M86 0v700h437v-76h-353v-233h323v-76h-323v-239h353v-76h-437zM366 783q-28 0 -47.5 10.5t-35.5 21t-36 10.5q-36 0 -42 -40h-56q3 48 28.5 74t65.5 26q28 0 47 -10.5t35 -21t37 -10.5q38 0 44 40h55q-1 -47 -27.5 -73.5t-67.5 -26.5z" />
    <glyph glyph-name="uni1EBD" unicode="&#x1ebd;" 
d="M305 -12q-70 0 -123.5 32.5t-84.5 91t-31 136.5t30.5 136.5t84.5 91t126 32.5t123 -32.5t78 -85.5t27 -114q0 -11 -0.5 -22t-0.5 -25h-385q3 -55 25.5 -91.5t57 -54.5t73.5 -18q55 0 86 23t47 64h83q-17 -69 -71 -116.5t-145 -47.5zM305 433q-58 0 -101.5 -35t-53.5 -98
h302q-4 62 -44.5 97.5t-102.5 35.5zM367 579q-28 0 -47.5 10.5t-35.5 21t-36 10.5q-36 0 -42 -40h-56q3 48 28.5 74t65.5 26q28 0 47 -10.5t35 -21t37 -10.5q38 0 44 40h55q-1 -47 -27.5 -73.5t-67.5 -26.5z" />
    <glyph glyph-name="Ygrave" unicode="&#x1ef2;" 
d="M258 0v275l-227 425h95l174 -340l174 340h95l-227 -425v-275h-84zM355 740l-210 105v86l210 -112v-79z" />
    <glyph glyph-name="ygrave" unicode="&#x1ef3;" 
d="M149 -220l122 268h-29l-196 448h91l163 -384l172 384h88l-323 -716h-88zM357 536l-210 105v86l210 -112v-79z" />
    <glyph glyph-name="uni1EF8" unicode="&#x1ef8;" 
d="M258 0v275l-227 425h95l174 -340l174 340h95l-227 -425v-275h-84zM361 783q-28 0 -47.5 10.5t-35.5 21t-36 10.5q-36 0 -42 -40h-56q3 48 28.5 74t65.5 26q28 0 47 -10.5t35 -21t37 -10.5q38 0 44 40h55q-1 -47 -27.5 -73.5t-67.5 -26.5z" />
    <glyph glyph-name="uni1EF9" unicode="&#x1ef9;" 
d="M149 -220l122 268h-29l-196 448h91l163 -384l172 384h88l-323 -716h-88zM363 579q-28 0 -47.5 10.5t-35.5 21t-36 10.5q-36 0 -42 -40h-56q3 48 28.5 74t65.5 26q28 0 47 -10.5t35 -21t37 -10.5q38 0 44 40h55q-1 -47 -27.5 -73.5t-67.5 -26.5z" />
    <glyph glyph-name="endash" unicode="&#x2013;" 
d="M95 314v72h410v-72h-410z" />
    <glyph glyph-name="emdash" unicode="&#x2014;" 
d="M0 314v72h600v-72h-600z" />
    <glyph glyph-name="quoteleft" unicode="&#x2018;" 
d="M202 420l99 280h76l-67 -280h-108z" />
    <glyph glyph-name="quoteright" unicode="&#x2019;" 
d="M223 420l67 280h108l-99 -280h-76z" />
    <glyph glyph-name="quotesinglbase" unicode="&#x201a;" 
d="M223 -138l67 280h108l-99 -280h-76z" />
    <glyph glyph-name="quotedblleft" unicode="&#x201c;" 
d="M91 420l99 280h76l-67 -280h-108zM311 420l99 280h76l-67 -280h-108z" />
    <glyph glyph-name="quotedblright" unicode="&#x201d;" 
d="M109 420l67 280h108l-99 -280h-76zM329 420l67 280h108l-99 -280h-76z" />
    <glyph glyph-name="quotedblbase" unicode="&#x201e;" 
d="M109 -138l67 280h108l-99 -280h-76zM329 -138l67 280h108l-99 -280h-76z" />
    <glyph glyph-name="dagger" unicode="&#x2020;" 
d="M259 158v353h-143v68h143v121h82v-121h143v-68h-143v-353h-82z" />
    <glyph glyph-name="daggerdbl" unicode="&#x2021;" 
d="M259 158v121h-143v69h143v163h-143v68h143v121h82v-121h143v-68h-143v-163h143v-69h-143v-121h-82z" />
    <glyph glyph-name="bullet" unicode="&#x2022;" 
d="M300 226q-34 0 -62 17t-45 45t-17 62t17 62t45 45t62 17t62 -17t45 -45t17 -62t-17 -62t-45 -45t-62 -17z" />
    <glyph glyph-name="ellipsis" unicode="&#x2026;" 
d="M98 -2q-31 0 -52 21t-21 52q0 30 21 51t52 21q30 0 51 -21t21 -51q0 -31 -21 -52t-51 -21zM300 -2q-30 0 -51.5 21t-21.5 52q0 30 21.5 51t51.5 21t51.5 -21t21.5 -51q0 -31 -21.5 -52t-51.5 -21zM502 -2q-30 0 -51 21t-21 52q0 30 21 51t51 21q31 0 52 -21t21 -51
q0 -31 -21 -52t-52 -21z" />
    <glyph glyph-name="perthousand" unicode="&#x2030;" 
d="M166 402q-64 0 -105.5 42t-41.5 113t41.5 113t105.5 42t105.5 -42t41.5 -113t-41.5 -113t-105.5 -42zM166 462q32 0 56.5 24.5t24.5 70.5t-24.5 70.5t-56.5 24.5t-56.5 -24.5t-24.5 -70.5t24.5 -70.5t56.5 -24.5zM40 226l-28 57l502 246l28 -57zM271 -12q-57 0 -93.5 42
t-36.5 113t36.5 113t93.5 42q30 0 54.5 -12.5t41.5 -35.5q18 23 42.5 35.5t54.5 12.5q57 0 93.5 -42t36.5 -113t-36.5 -113t-93.5 -42q-30 0 -54.5 12.5t-42.5 35.5q-17 -23 -41.5 -35.5t-54.5 -12.5zM271 48q27 0 45 24.5t18 70.5t-18 70.5t-45 24.5q-28 0 -45.5 -24.5
t-17.5 -70.5t17.5 -70.5t45.5 -24.5zM464 48q27 0 45.5 24.5t18.5 70.5t-18.5 70.5t-45.5 24.5t-45 -24.5t-18 -70.5t18 -70.5t45 -24.5z" />
    <glyph glyph-name="guilsinglleft" unicode="&#x2039;" 
d="M316 98l-117 197l117 197h88l-112 -195v-4l112 -195h-88z" />
    <glyph glyph-name="guilsinglright" unicode="&#x203a;" 
d="M196 98l112 195v4l-112 195h88l117 -197l-117 -197h-88z" />
    <glyph glyph-name="fraction" unicode="&#x2044;" 
d="M106 324v56h388v-56h-388z" />
    <glyph glyph-name="uni2074" unicode="&#x2074;" 
d="M345 280v88h-199v55l186 277h81v-270h57v-62h-57v-88h-68zM222 430h127v194z" />
    <glyph glyph-name="Euro" unicode="&#x20ac;" 
d="M2 239v65h70q-1 22 -2 46q0 23 2 46h-70v65h78q21 117 85.5 184t164.5 67q97 0 157 -54t72 -142h-88q-10 53 -47 85t-94 32q-64 0 -105.5 -45t-57.5 -127h193v-65h-202q-1 -22 -2 -46q1 -24 2 -46h202v-65h-193q17 -82 59 -127t103 -45q60 0 95 32t48 81h87
q-20 -88 -77 -140t-153 -52q-102 0 -165.5 67t-83.5 184h-78z" />
    <glyph glyph-name="uni20BD" unicode="&#x20bd;" 
d="M126 0v124h-91v66h91v510h211q80 0 131 -29t75 -77t24 -106t-24 -106t-75 -77t-131 -29h-127v-86h198v-66h-198v-124h-84zM210 353h125q74 0 110 37.5t36 97.5t-36 98t-110 38h-125v-271z" />
    <glyph glyph-name="uni2113" unicode="&#x2113;" 
d="M355 0q-107 0 -167 55t-60 160v4q-30 -8 -62 -14v75q34 7 66 16q9 82 32.5 156.5t59.5 133t81 92.5t97 34q62 0 95.5 -32t33.5 -92q0 -114 -85.5 -203t-232.5 -141q-1 -14 -1 -28q0 -71 38.5 -105t106.5 -35h106v-76h-108zM401 638q-35 0 -72 -40.5t-66.5 -111
t-42.5 -161.5q113 47 172 115.5t59 140.5q0 28 -13.5 42.5t-36.5 14.5z" />
    <glyph glyph-name="trademark" unicode="&#x2122;" 
d="M317 350v350h69l64 -156l65 156h68v-350h-62v226l-45 -114h-52l-45 115v-227h-62zM117 350v291h-94v59h254v-59h-94v-291h-66z" />
    <glyph glyph-name="uni2126" unicode="&#x2126;" 
d="M45 0v69h146v30q-45 29 -82 74.5t-58.5 107t-21.5 136.5q0 88 35.5 154.5t97 103.5t138.5 37q76 0 137.5 -37t97.5 -103.5t36 -154.5q0 -112 -47 -193.5t-116 -124.5v-30h147v-69h-223v135q46 29 80 65.5t53.5 88.5t19.5 128q0 65 -23.5 113.5t-65 75.5t-96.5 27t-97 -27
t-65 -75.5t-23 -113.5q0 -76 19 -128t53.5 -88.5t79.5 -65.5v-135h-222z" />
    <glyph glyph-name="estimated" unicode="&#x212e;" 
d="M300 53q-79 0 -141 34t-98 99t-36 159q0 82 34.5 148t97 105t144.5 39q89 0 150 -38t92.5 -99.5t31.5 -130.5v-37h-451v-150q25 -37 68.5 -62.5t107.5 -25.5q71 0 127.5 34.5t84.5 95.5h50q-34 -79 -101.5 -125t-160.5 -46zM124 381h356v127q-34 44 -79.5 65.5
t-99.5 21.5q-56 0 -101 -21.5t-76 -65.5v-127z" />
    <glyph glyph-name="partialdiff" unicode="&#x2202;" 
d="M269 -12q-66 0 -113.5 30t-73.5 83t-26 122q0 54 18 104.5t52 91t82.5 64.5t109.5 24q51 0 89.5 -21.5t59.5 -54.5h5q-15 72 -59.5 129t-127.5 92l38 68q103 -39 166 -133.5t63 -242.5q0 -68 -19 -132t-55.5 -114.5t-89 -80t-119.5 -29.5zM274 66q53 0 96 33.5t69.5 94
t28.5 141.5q-26 46 -61 70t-87 24q-57 0 -97 -28.5t-60.5 -74t-20.5 -98.5q0 -75 38 -118.5t94 -43.5z" />
    <glyph glyph-name="uni2206" unicode="&#x2206;" 
d="M44 0v72l208 628h97l207 -628v-72h-512zM134 76h332l-164 513h-4z" />
    <glyph glyph-name="product" unicode="&#x220f;" 
d="M106 0v624h-74v76h536v-76h-74v-624h-84v624h-220v-624h-84z" />
    <glyph glyph-name="summation" unicode="&#x2211;" 
d="M67 -99v84l247 315l-238 318v82h433v-72h-337l222 -306v-45l-235 -305h367v-71h-459z" />
    <glyph glyph-name="minus" unicode="&#x2212;" 
d="M75 312v76h450v-76h-450z" />
    <glyph glyph-name="uni2215" unicode="&#x2215;" 
d="M83 -90l346 850h88l-347 -850h-87z" />
    <glyph glyph-name="radical" unicode="&#x221a;" 
d="M179 0l-146 356h96l98 -258l213 602h146v-72h-85l-227 -628h-95z" />
    <glyph glyph-name="infinity" unicode="&#x221e;" 
d="M156 145q-61 0 -102.5 37.5t-41.5 105.5q0 67 42.5 104.5t101.5 37.5q50 0 83 -26t58 -61q23 38 60.5 62.5t86.5 24.5q61 0 102.5 -37.5t41.5 -104.5t-43 -105t-105 -38q-48 0 -81 25t-59 58q-22 -36 -58.5 -59.5t-85.5 -23.5zM79 288q0 -37 23 -58t57 -21
q35 0 60.5 20.5t42.5 52.5q-24 34 -49 59.5t-58 25.5q-31 0 -53.5 -21t-22.5 -58zM441 367q-33 -1 -60.5 -22.5t-45.5 -56.5q23 -32 48 -55.5t62 -23.5q33 0 54.5 21t21.5 58t-22 58t-58 21z" />
    <glyph glyph-name="integral" unicode="&#x222b;" 
d="M52 -220v77h67q37 0 56 15t25 53l116 650q14 77 53.5 111t118.5 34h60v-76h-66q-38 0 -57 -15.5t-25 -53.5l-116 -650q-13 -77 -51 -111t-121 -34h-60z" />
    <glyph glyph-name="approxequal" unicode="&#x2248;" 
d="M387 400q-29 0 -53 10t-44.5 23t-40 22.5t-39.5 9.5q-25 0 -41 -17.5t-19 -47.5h-71q6 71 41.5 105.5t92.5 34.5q29 0 53 -9.5t44.5 -22.5t40 -23t39.5 -10q25 0 41 18t19 47h71q-6 -71 -41.5 -105.5t-92.5 -34.5zM387 170q-29 0 -53 10t-44.5 23t-40 22.5t-39.5 9.5
q-25 0 -41 -17.5t-19 -47.5h-71q6 71 41.5 105.5t92.5 34.5q29 0 53 -9.5t44.5 -22.5t40 -23t39.5 -10q25 0 41 18t19 47h71q-6 -71 -41.5 -105.5t-92.5 -34.5z" />
    <glyph glyph-name="notequal" unicode="&#x2260;" 
d="M118 47l66 142h-109v76h144l79 170h-223v76h259l66 143h82l-66 -143h109v-76h-145l-79 -170h224v-76h-259l-66 -142h-82z" />
    <glyph glyph-name="lessequal" unicode="&#x2264;" 
d="M366 141l-262 191l262 190h130l-258 -187v-6l258 -188h-130zM75 0v76h450v-76h-450z" />
    <glyph glyph-name="greaterequal" unicode="&#x2265;" 
d="M104 141l258 188v6l-258 187h130l262 -190l-262 -191h-130zM75 0v76h450v-76h-450z" />
    <glyph glyph-name="lozenge" unicode="&#x25ca;" 
d="M252 0l-213 350l213 350h97l212 -350l-212 -350h-97zM298 76h4l167 274l-167 274h-4l-166 -274z" />
    <glyph glyph-name="a.ss02" 
d="M283 -12q-63 0 -112.5 30t-77.5 88.5t-28 142.5q0 83 28 141t77.5 88t112.5 30q58 0 94.5 -21.5t57.5 -57.5h4l9 67h74v-496h-69l-9 77h-6q-20 -41 -59 -65t-96 -24zM294 68q63 0 104 44.5t41 135.5t-41 135.5t-104 44.5t-103.5 -44.5t-40.5 -135.5t40.5 -135.5
t103.5 -44.5z" />
    <glyph glyph-name="aacute.ss02" 
d="M283 -12q-63 0 -112.5 30t-77.5 88.5t-28 142.5q0 83 28 141t77.5 88t112.5 30q58 0 94.5 -21.5t57.5 -57.5h4l9 67h74v-496h-69l-9 77h-6q-20 -41 -59 -65t-96 -24zM294 68q63 0 104 44.5t41 135.5t-41 135.5t-104 44.5t-103.5 -44.5t-40.5 -135.5t40.5 -135.5
t103.5 -44.5zM245 536v79l210 112v-86z" />
    <glyph glyph-name="abreve.ss02" 
d="M283 -12q-63 0 -112.5 30t-77.5 88.5t-28 142.5q0 83 28 141t77.5 88t112.5 30q58 0 94.5 -21.5t57.5 -57.5h4l9 67h74v-496h-69l-9 77h-6q-20 -41 -59 -65t-96 -24zM294 68q63 0 104 44.5t41 135.5t-41 135.5t-104 44.5t-103.5 -44.5t-40.5 -135.5t40.5 -135.5
t103.5 -44.5zM300 553q-67 0 -104 38t-37 93v13h60q0 -39 22 -59.5t59 -20.5t58.5 20.5t21.5 59.5h61v-13q0 -56 -37.5 -93.5t-103.5 -37.5z" />
    <glyph glyph-name="acircumflex.ss02" 
d="M283 -12q-63 0 -112.5 30t-77.5 88.5t-28 142.5q0 83 28 141t77.5 88t112.5 30q58 0 94.5 -21.5t57.5 -57.5h4l9 67h74v-496h-69l-9 77h-6q-20 -41 -59 -65t-96 -24zM294 68q63 0 104 44.5t41 135.5t-41 135.5t-104 44.5t-103.5 -44.5t-40.5 -135.5t40.5 -135.5
t103.5 -44.5zM163 551v74l137 80l137 -80v-74l-135 80h-4z" />
    <glyph glyph-name="adieresis.ss02" 
d="M283 -12q-63 0 -112.5 30t-77.5 88.5t-28 142.5q0 83 28 141t77.5 88t112.5 30q58 0 94.5 -21.5t57.5 -57.5h4l9 67h74v-496h-69l-9 77h-6q-20 -41 -59 -65t-96 -24zM294 68q63 0 104 44.5t41 135.5t-41 135.5t-104 44.5t-103.5 -44.5t-40.5 -135.5t40.5 -135.5
t103.5 -44.5zM392 565q-24 0 -40.5 17t-16.5 40q0 24 16.5 41t40.5 17t40 -17t16 -41q0 -23 -16 -40t-40 -17zM209 565q-24 0 -40.5 17t-16.5 40q0 24 16.5 41t40.5 17t40.5 -17t16.5 -41q0 -23 -16.5 -40t-40.5 -17z" />
    <glyph glyph-name="agrave.ss02" 
d="M283 -12q-63 0 -112.5 30t-77.5 88.5t-28 142.5q0 83 28 141t77.5 88t112.5 30q58 0 94.5 -21.5t57.5 -57.5h4l9 67h74v-496h-69l-9 77h-6q-20 -41 -59 -65t-96 -24zM294 68q63 0 104 44.5t41 135.5t-41 135.5t-104 44.5t-103.5 -44.5t-40.5 -135.5t40.5 -135.5
t103.5 -44.5zM355 536l-210 105v86l210 -112v-79z" />
    <glyph glyph-name="amacron.ss02" 
d="M283 -12q-63 0 -112.5 30t-77.5 88.5t-28 142.5q0 83 28 141t77.5 88t112.5 30q58 0 94.5 -21.5t57.5 -57.5h4l9 67h74v-496h-69l-9 77h-6q-20 -41 -59 -65t-96 -24zM294 68q63 0 104 44.5t41 135.5t-41 135.5t-104 44.5t-103.5 -44.5t-40.5 -135.5t40.5 -135.5
t103.5 -44.5zM137 596v66h326v-66h-326z" />
    <glyph glyph-name="aogonek.ss02" 
d="M283 -12q-63 0 -112.5 30t-77.5 88.5t-28 142.5q0 83 28 141t77.5 88t112.5 30q58 0 94.5 -21.5t57.5 -57.5h4l9 67h74v-496h-69l-9 77h-6q-20 -41 -59 -65t-96 -24zM294 68q63 0 104 44.5t41 135.5t-41 135.5t-104 44.5t-103.5 -44.5t-40.5 -135.5t40.5 -135.5
t103.5 -44.5zM457 -209q-41 0 -74 25t-33 78q0 46 27.5 75.5t69.5 52.5l49 26l26 -48l-47 -27q-26 -15 -41.5 -32.5t-15.5 -42.5q0 -24 15 -35.5t38 -11.5q13 0 25 3t30 12v-62q-32 -13 -69 -13z" />
    <glyph glyph-name="aring.ss02" 
d="M283 -12q-63 0 -112.5 30t-77.5 88.5t-28 142.5q0 83 28 141t77.5 88t112.5 30q58 0 94.5 -21.5t57.5 -57.5h4l9 67h74v-496h-69l-9 77h-6q-20 -41 -59 -65t-96 -24zM294 68q63 0 104 44.5t41 135.5t-41 135.5t-104 44.5t-103.5 -44.5t-40.5 -135.5t40.5 -135.5
t103.5 -44.5zM300 557q-43 0 -74 27.5t-31 75.5q0 47 31 75t74 28t74 -28t31 -75q0 -48 -31 -75.5t-74 -27.5zM300 601q24 0 40.5 15.5t16.5 43.5q0 27 -16.5 42.5t-40.5 15.5t-40.5 -15.5t-16.5 -42.5q0 -28 16.5 -43.5t40.5 -15.5z" />
    <glyph glyph-name="atilde.ss02" 
d="M283 -12q-63 0 -112.5 30t-77.5 88.5t-28 142.5q0 83 28 141t77.5 88t112.5 30q58 0 94.5 -21.5t57.5 -57.5h4l9 67h74v-496h-69l-9 77h-6q-20 -41 -59 -65t-96 -24zM294 68q63 0 104 44.5t41 135.5t-41 135.5t-104 44.5t-103.5 -44.5t-40.5 -135.5t40.5 -135.5
t103.5 -44.5zM361 579q-28 0 -47.5 10.5t-35.5 21t-36 10.5q-36 0 -42 -40h-56q3 48 28.5 74t65.5 26q28 0 47 -10.5t35 -21t37 -10.5q38 0 44 40h55q-1 -47 -27.5 -73.5t-67.5 -26.5z" />
    <glyph glyph-name="ae.ss02" 
d="M177 -12q-72 0 -113 70.5t-41 189.5t41 189.5t112 70.5q28 0 51 -9.5t41 -31.5v29h76v-35q14 22 39.5 34.5t53.5 12.5q69 0 104.5 -60.5t35.5 -162.5q0 -25 -2 -56h-228q2 -82 23.5 -123t55.5 -41q25 0 40.5 23t22.5 64h79q-9 -70 -42.5 -117t-90.5 -47q-28 0 -52.5 11.5
t-38.5 32.5v-32h-76v32q-36 -44 -91 -44zM348 300h149q-1 64 -20.5 98.5t-49.5 34.5t-52.5 -35t-26.5 -98zM187 66q38 0 59.5 44t21.5 138t-21.5 138t-59.5 44t-59.5 -44t-21.5 -138t21.5 -138t59.5 -44z" />
    <glyph glyph-name="aeacute.ss02" 
d="M156 -12q-44 0 -74.5 20.5t-47 53.5t-16.5 73q0 80 51.5 122t133.5 42h55v46q0 46 -19.5 68t-52.5 22q-30 0 -49 -19.5t-21 -57.5h-82q4 69 46.5 109.5t103.5 40.5q47 0 77.5 -19t45.5 -52q19 30 49.5 50.5t72.5 20.5q80 0 119.5 -59.5t39.5 -169.5q0 -11 -1 -24.5
t-1 -24.5h-246q2 -83 26.5 -124t59.5 -41q54 0 71 87h79q-8 -69 -45 -116.5t-109 -47.5q-46 0 -79 28t-46 65h-3q-17 -45 -55.5 -69t-82.5 -24zM342 299h165q-3 64 -22.5 99t-57.5 35q-39 0 -60.5 -35.5t-24.5 -98.5zM171 62q36 0 61.5 29t25.5 84v55h-48q-54 0 -80 -24.5
t-26 -66.5q0 -36 17 -56.5t50 -20.5zM245 536v79l210 112v-86z" />
    <glyph glyph-name="g.ss03" 
d="M298 -232q-69 0 -117.5 25.5t-75 66t-30.5 86.5h88q9 -47 44 -73.5t91 -26.5q143 0 143 148v80q-19 -36 -55.5 -61t-98.5 -25q-63 0 -113.5 30t-79.5 88t-29 142t29 142t78 88t110 30q59 0 99 -25t60 -63h6l10 76h68v-503q0 -65 -24 -116t-74.5 -80t-128.5 -29zM297 68
q63 0 104.5 44.5t41.5 135.5t-41.5 135.5t-104.5 44.5q-64 0 -105 -44.5t-41 -135.5t41 -135.5t105 -44.5z" />
    <glyph glyph-name="gbreve.ss03" 
d="M298 -232q-69 0 -117.5 25.5t-75 66t-30.5 86.5h88q9 -47 44 -73.5t91 -26.5q143 0 143 148v80q-19 -36 -55.5 -61t-98.5 -25q-63 0 -113.5 30t-79.5 88t-29 142t29 142t78 88t110 30q59 0 99 -25t60 -63h6l10 76h68v-503q0 -65 -24 -116t-74.5 -80t-128.5 -29zM297 68
q63 0 104.5 44.5t41.5 135.5t-41.5 135.5t-104.5 44.5q-64 0 -105 -44.5t-41 -135.5t41 -135.5t105 -44.5zM300 553q-67 0 -104 38t-37 93v13h60q0 -39 22 -59.5t59 -20.5t58.5 20.5t21.5 59.5h61v-13q0 -56 -37.5 -93.5t-103.5 -37.5z" />
    <glyph glyph-name="uni0123.ss03" 
d="M298 -232q-69 0 -117.5 25.5t-75 66t-30.5 86.5h88q9 -47 44 -73.5t91 -26.5q143 0 143 148v80q-19 -36 -55.5 -61t-98.5 -25q-63 0 -113.5 30t-79.5 88t-29 142t29 142t78 88t110 30q59 0 99 -25t60 -63h6l10 76h68v-503q0 -65 -24 -116t-74.5 -80t-128.5 -29zM297 68
q63 0 104.5 44.5t41.5 135.5t-41.5 135.5t-104.5 44.5q-64 0 -105 -44.5t-41 -135.5t41 -135.5t105 -44.5zM240 564l90 192h75l-57 -192h-108z" />
    <glyph glyph-name="gdotaccent.ss03" 
d="M298 -232q-69 0 -117.5 25.5t-75 66t-30.5 86.5h88q9 -47 44 -73.5t91 -26.5q143 0 143 148v80q-19 -36 -55.5 -61t-98.5 -25q-63 0 -113.5 30t-79.5 88t-29 142t29 142t78 88t110 30q59 0 99 -25t60 -63h6l10 76h68v-503q0 -65 -24 -116t-74.5 -80t-128.5 -29zM297 68
q63 0 104.5 44.5t41.5 135.5t-41.5 135.5t-104.5 44.5q-64 0 -105 -44.5t-41 -135.5t41 -135.5t105 -44.5zM300 584q-29 0 -49.5 20t-20.5 48q0 29 20.5 48.5t49.5 19.5q30 0 50 -19.5t20 -48.5q0 -28 -20 -48t-50 -20z" />
    <glyph glyph-name="f.ss05" 
d="M223 0v424h-123v72h123v79q0 77 37 111t112 34h119v-76h-114q-37 0 -53.5 -15.5t-16.5 -53.5v-79h184v-72h-184v-424h-84z" />
    <glyph glyph-name="three.ss04" 
d="M301 -12q-69 0 -123 26t-86.5 75t-36.5 120h84q4 -61 46 -102.5t116 -41.5q73 0 114 40t41 108q0 69 -43.5 109t-118.5 40h-87v66l193 198h-307v74h417v-71l-192 -191v-6h4q65 0 114.5 -27t77 -76.5t27.5 -115.5q0 -65 -29.5 -115.5t-83.5 -80t-127 -29.5z" />
    <glyph glyph-name="six.ss04" 
d="M308 -12q-71 0 -126 30t-86 86t-31 134q0 75 27 131.5t63 109.5l149 221h103l-206 -290l6 -4q19 20 53 31t66 11q62 0 112 -29.5t79 -81t29 -117.5q0 -64 -30.5 -117t-84 -84t-123.5 -31zM308 64q46 0 80.5 20.5t53.5 55t19 78.5t-19 79t-53.5 55t-80.5 20
q-69 0 -111.5 -44t-42.5 -110t42.5 -110t111.5 -44z" />
    <glyph glyph-name="nine.ss04" 
d="M193 0l206 290l-6 4q-19 -20 -53 -31t-66 -11q-61 0 -111 29.5t-79.5 81t-29.5 117.5q0 64 30 117t83.5 84t124.5 31t126 -29.5t86.5 -84.5t31.5 -130q0 -76 -27.5 -136t-63.5 -114l-149 -218h-103zM292 328q69 0 111.5 44t42.5 110t-42.5 110t-111.5 44
q-46 0 -80.5 -20.5t-53.5 -55t-19 -78.5t19 -79t53.5 -55t80.5 -20z" />
    <glyph glyph-name="comma.ss01" 
d="M214 -148v53q40 0 66.5 23t26.5 71h-10q-34 0 -53 22.5t-19 49.5q0 30 22 51t53 21t53.5 -22.5t22.5 -70.5q0 -102 -42 -150t-120 -48z" />
    <glyph glyph-name="semicolon.ss01" 
d="M300 393q-31 0 -53 21t-22 52q0 30 22 51t53 21t53 -21t22 -51q0 -31 -22 -52t-53 -21zM214 -148v53q40 0 66.5 23t26.5 71h-10q-34 0 -53 22.5t-19 49.5q0 30 22 51t53 21t53.5 -22.5t22.5 -70.5q0 -102 -42 -150t-120 -48z" />
    <glyph glyph-name="quotesinglbase.ss01" 
d="M209 -154v53q53 0 82 25.5t29 75.5h-10q-34 0 -53 22.5t-19 48.5q0 31 22 52t53 21t53.5 -24t22.5 -74q0 -102 -46.5 -151t-133.5 -49z" />
    <glyph glyph-name="quotedblbase.ss01" 
d="M95 -154v53q53 0 82 25.5t29 75.5h-10q-34 0 -53 22.5t-19 48.5q0 31 22 52t53 21t53.5 -24t22.5 -74q0 -102 -46.5 -151t-133.5 -49zM313 -154v53q53 0 82 25.5t29 75.5h-10q-34 0 -53 22.5t-19 48.5q0 31 22 52t53 21t53.5 -24t22.5 -74q0 -102 -46.5 -151t-133.5 -49z
" />
    <glyph glyph-name="quotedblleft.ss01" 
d="M183 414q-31 0 -53.5 24t-22.5 74q0 102 46.5 151t134.5 49v-53q-54 0 -83 -25.5t-29 -75.5h10q34 0 53 -22.5t19 -48.5q0 -31 -22 -52t-53 -21zM401 414q-31 0 -53.5 24t-22.5 74q0 102 46.5 151t134.5 49v-53q-54 0 -83 -25.5t-29 -75.5h10q34 0 53 -22.5t19 -48.5
q0 -31 -22 -52t-53 -21z" />
    <glyph glyph-name="quotedblright.ss01" 
d="M95 414v53q53 0 82 25.5t29 75.5h-10q-34 0 -53 22.5t-19 48.5q0 31 22 52t53 21t53.5 -24t22.5 -74q0 -102 -46.5 -151t-133.5 -49zM313 414v53q53 0 82 25.5t29 75.5h-10q-34 0 -53 22.5t-19 48.5q0 31 22 52t53 21t53.5 -24t22.5 -74q0 -102 -46.5 -151t-133.5 -49z
" />
    <glyph glyph-name="quoteleft.ss01" 
d="M287 414q-31 0 -53.5 24t-22.5 74q0 102 46.5 151t134.5 49v-53q-54 0 -83 -25.5t-29 -75.5h10q34 0 53 -22.5t19 -48.5q0 -31 -22 -52t-53 -21z" />
    <glyph glyph-name="quoteright.ss01" 
d="M209 414v53q53 0 82 25.5t29 75.5h-10q-34 0 -53 22.5t-19 48.5q0 31 22 52t53 21t53.5 -24t22.5 -74q0 -102 -46.5 -151t-133.5 -49z" />
    <glyph glyph-name="uni030C.alt" horiz-adv-x="0" 
d="M272 496l48 224h101l-77 -224h-72z" />
  </font>
</defs>
</svg>
