<?xml version="1.0" standalone="no"?>
<!DOCTYPE svg PUBLIC "-//W3C//DTD SVG 1.1//EN" "http://www.w3.org/Graphics/SVG/1.1/DTD/svg11.dtd" >
<svg xmlns="http://www.w3.org/2000/svg" xmlns:xlink="http://www.w3.org/1999/xlink" version="1.1">
<metadata>
Created by FontForge 20201107 at Wed Nov 27 17:41:51 2024
 By 
Copyright (c) 2021 by Jan Maack. All rights reserved.
</metadata>
<defs>
<font id="IvyPrestoDisplay-LightItalic" horiz-adv-x="0" >
  <font-face 
    font-family="IvyPresto Display Light"
    font-weight="300"
    font-style="italic"
    font-stretch="normal"
    units-per-em="2048"
    panose-1="2 11 4 4 2 1 1 1 1 2"
    ascent="1581"
    descent="-467"
    x-height="1098"
    cap-height="1491"
    bbox="-840 -520 2929 2210"
    underline-thickness="40"
    underline-position="-450"
    slope="-12"
    unicode-range="U+000D-1D11E"
  />
<missing-glyph horiz-adv-x="1392" 
d="M-39 -467l438 2060h1033l-439 -2060h-1032zM16 -426h940l420 1978h-940z" />
    <glyph glyph-name="f_f" unicode="ff" horiz-adv-x="1083" 
d="M1292 1606q47 0 115 -11l-49 -151h-12q-116 96 -181 96q-142 0 -200 -276l-41 -191h274l-45 -74h-244l-209 -976q-84 -390 -473 -441v12q122 28 192 122.5t105 260.5l217 1022h-342l-217 -1026q-84 -389 -473 -440v12q122 28 192 122.5t105 260.5l227 1071h-106l4 21
l119 53q51 241 190.5 374.5t339.5 133.5q50 0 115 -10l-45 -135h-12q-108 80 -185 80q-144 0 -202 -273l-37 -170h344q55 258 194 395.5t340 137.5z" />
    <glyph glyph-name="f_f_i" unicode="ffi" horiz-adv-x="1490" 
d="M1274 115q28 0 80.5 51t113.5 131l11 -8q-79 -150 -160.5 -232t-155.5 -82q-116 0 -73 218l145 677q13 58 9.5 93.5t-34.5 35.5h-301l-209 -976q-83 -390 -473 -441v12q122 28 192 122.5t105 260.5l217 1022h-342l-217 -1026q-84 -389 -473 -440v12q122 28 192 122.5
t105 260.5l227 1071h-106l4 21l119 53q51 241 190.5 374.5t339.5 133.5q50 0 115 -10l-45 -135h-12q-108 80 -185 80q-144 0 -202 -273l-37 -170h344q54 255 194 395t348 140q114 0 201 -35l-61 -170h-13q-49 61 -114.5 100t-132.5 39q-157 0 -215 -278l-41 -191h127
q94 0 182 12.5t110 12.5q34 0 53 -15t23 -46t0 -67t-16 -89l-141 -670q-15 -72 -4 -88q6 -8 16 -8z" />
    <glyph glyph-name="f_i" unicode="fi" horiz-adv-x="983" 
d="M766 115q28 0 80.5 51t111.5 131l11 -8q-77 -149 -159 -231.5t-155 -82.5q-116 0 -73 218l143 677q15 58 11.5 93.5t-34.5 35.5h-303l-217 -1026q-84 -389 -473 -440v12q122 28 192 122.5t105 260.5l227 1071h-106l4 21l119 53q54 256 194 395.5t349 139.5q113 0 200 -35
l-61 -170h-12q-49 61 -115 100t-133 39q-156 0 -217 -278l-41 -191h129q94 0 182 12.5t111 12.5q34 0 52.5 -14.5t22 -46.5t-0.5 -66.5t-15 -89.5l-143 -670q-20 -96 14 -96z" />
    <glyph glyph-name="f_l" unicode="fl" horiz-adv-x="1005" 
d="M788 115q27 0 83.5 54t113.5 130l10 -8q-79 -149 -160.5 -232.5t-156.5 -83.5q-31 0 -51 14.5t-27.5 35t-8 52.5t2.5 57t10 59l262 1239q-96 110 -207 110q-143 0 -204 -278l-41 -191h254l-45 -74h-224l-217 -1026q-84 -389 -473 -440v12q122 28 192 122.5t105 260.5
l227 1071h-106l4 21l119 53q54 259 188.5 396t333.5 137q101 0 180 -37l109 33h8l-295 -1391q-21 -96 14 -96z" />
    <glyph glyph-name="f_f_l" unicode="ffl" horiz-adv-x="1515" 
d="M1298 115q26 0 82 53.5t115 130.5l10 -8q-79 -149 -160.5 -232.5t-156.5 -83.5q-31 0 -51 14.5t-27.5 35t-8 52.5t2.5 57t10 59l262 1237q-90 112 -207 112q-146 0 -204 -278l-41 -191h252l-46 -74h-221l-209 -976q-84 -391 -473 -441v12q123 28 193.5 122.5t105.5 260.5
l217 1022h-344l-217 -1026q-84 -389 -473 -440v12q122 28 192 122.5t105 260.5l227 1071h-106l4 21l119 53q51 241 190.5 374.5t339.5 133.5q50 0 115 -10l-45 -135h-12q-108 80 -185 80q-144 0 -202 -273l-37 -170h346q55 259 189.5 396t332.5 137q101 0 180 -37l109 33h8
l-295 -1391q-21 -96 14 -96z" />
    <glyph glyph-name=".notdef" horiz-adv-x="1392" 
d="M-39 -467l438 2060h1033l-439 -2060h-1032zM16 -426h940l420 1978h-940z" />
    <glyph glyph-name=".null" 
 />
    <glyph glyph-name="uni000D" unicode="&#xd;" horiz-adv-x="442" 
 />
    <glyph glyph-name="space" unicode=" " horiz-adv-x="425" 
 />
    <glyph glyph-name="exclam" unicode="!" horiz-adv-x="411" 
d="M182 391h-16q20 149 54.5 426t58.5 470t28 210q8 37 36 60.5t67 23.5q44 0 74 -36t22 -79q-4 -19 -61 -206t-137.5 -451t-125.5 -418zM111 -25q-49 0 -84 34.5t-35 82.5q0 50 35 84.5t84 34.5q47 0 81.5 -35t34.5 -84q0 -47 -34.5 -82t-81.5 -35z" />
    <glyph glyph-name="quotedbl" unicode="&#x22;" horiz-adv-x="598" 
d="M231 926h-12q9 90 17 298t10 224q4 42 27.5 65t58.5 23q47 0 73 -32.5t15 -76.5q-5 -22 -84 -219.5t-105 -281.5zM541 926h-13q9 90 17 298t10 224q3 41 27 64.5t59 23.5q47 0 73 -32.5t15 -76.5q-5 -22 -83.5 -220t-104.5 -281z" />
    <glyph glyph-name="numbersign" unicode="#" horiz-adv-x="1081" 
d="M1137 1022l-9 -37h-219l-168 -479h205l-8 -37h-209l-164 -469h-41l164 469h-399l-164 -469h-41l164 469h-215l8 37h219l168 479h-205l8 37h209l164 469h41l-164 -469h400l163 469h41l-163 -469h215zM301 506h399l168 479h-399z" />
    <glyph glyph-name="dollar" unicode="$" horiz-adv-x="991" 
d="M862 1698l-59 -197q146 -28 256 -102l-51 -242h-13q-43 233 -207 301l-184 -612l23 -19q110 -98 147 -138q125 -139 125 -296q0 -95 -41 -174.5t-110 -131.5t-159.5 -81t-189.5 -29q-27 0 -57 3l-55 -187h-35l55 191q-90 10 -175.5 40.5t-145.5 71.5l53 314h12
q21 -159 91 -257.5t177 -129.5l197 651q-4 2 -12 10l-74 61q-32 27 -53.5 47.5t-53.5 59t-52 75t-35 89t-15 108.5q0 93 38.5 169t103 123t144 72t165.5 25q54 0 98 -8l55 193h37zM553 889l22 -19l183 598q-46 15 -105 15q-79 0 -144 -25t-109 -84.5t-44 -146.5
q0 -59 18.5 -112.5t54 -98t60.5 -69.5t64 -58zM762 297q0 57 -16.5 107t-52.5 95.5t-65.5 74.5t-82.5 75l-193 -635q37 -6 72 -6q47 0 93 9.5t90.5 31.5t78.5 54.5t55 82.5t21 111z" />
    <glyph glyph-name="percent" unicode="%" horiz-adv-x="1345" 
d="M418 778q-117 0 -182.5 73t-65.5 198q0 116 43.5 219t128 169t190.5 66q119 0 184.5 -72.5t65.5 -197.5q0 -116 -44 -219t-129 -169.5t-191 -66.5zM131 0h-47l1216 1491h48zM418 803q75 0 136.5 80.5t91.5 189t30 209.5q0 91 -35.5 144t-105.5 53q-77 0 -138.5 -80
t-91 -187.5t-29.5 -210.5q0 -91 36 -144.5t106 -53.5zM899 -12q-119 0 -184.5 72.5t-65.5 197.5q0 116 44.5 219t129.5 169.5t191 66.5q118 0 183 -73t65 -198q0 -86 -26 -167.5t-72 -145.5t-115.5 -102.5t-149.5 -38.5zM897 12q59 0 109.5 47t82.5 119t50 154t18 157
q0 91 -35.5 145t-105.5 54q-58 0 -108.5 -47.5t-82.5 -120t-50.5 -155t-18.5 -156.5q0 -91 35.5 -144t105.5 -53z" />
    <glyph glyph-name="ampersand" unicode="&#x26;" horiz-adv-x="1349" 
d="M1399 1094q0 -120 -83.5 -210.5t-232.5 -123.5q103 -103 103 -258q0 -98 -41 -192t-114 -169t-186 -120.5t-247 -45.5q-240 0 -391.5 133t-151.5 332q0 163 104 298.5t269 203.5q-70 31 -111 95t-41 149q0 143 113.5 236.5t278.5 93.5q85 0 174 -29t159 -76l-53 -246h-12
q-16 148 -84 234t-188 86q-113 0 -179.5 -73t-66.5 -193q0 -110 52 -169.5t122 -68.5l-8 -16q-161 -46 -258 -183.5t-97 -300.5q0 -128 62 -227.5t162.5 -151t220.5 -51.5q131 0 242.5 63.5t173 163t61.5 207.5t-61.5 178t-159.5 70q-102 0 -176 -76.5t-74 -189.5
q0 -108 76 -184l-6 -11q-91 34 -140 102t-49 163q0 122 84 211.5t268 128.5q136 28 186 47q201 73 201 254q0 56 -26 127l12 4q53 -45 83 -95t30 -120z" />
    <glyph glyph-name="quotesingle" unicode="'" horiz-adv-x="290" 
d="M231 926h-12q9 90 17 298t10 224q4 42 27.5 65t58.5 23q47 0 73 -32.5t15 -76.5q-5 -22 -84 -219.5t-105 -281.5z" />
    <glyph glyph-name="parenleft" unicode="(" horiz-adv-x="507" 
d="M332 -330l-15 -10q-121 135 -192.5 317.5t-71.5 389.5q0 173 52 349.5t144 334t213 297t265 254.5l14 -11q-265 -233 -422 -597t-157 -730q0 -176 43 -330t127 -264z" />
    <glyph glyph-name="parenright" unicode=")" horiz-adv-x="507" 
d="M-182 -340l-15 10q176 154 308.5 374t202 466t69.5 487q0 376 -170 594l14 11q123 -135 195 -317.5t72 -389.5q0 -230 -92 -463t-241 -425t-343 -347z" />
    <glyph glyph-name="asterisk" unicode="*" horiz-adv-x="925" 
d="M604 1110l354 -145l-63 -107l-303 234l49 -387h-123l49 385l-303 -232l-63 107l356 145l-354 145l61 109l303 -234l-49 386h123l-49 -386l303 234l61 -109z" />
    <glyph glyph-name="plus" unicode="+" horiz-adv-x="1040" 
d="M586 766h395v-41h-395v-410h-45v410h-396v41h396v410h45v-410z" />
    <glyph glyph-name="comma" unicode="," horiz-adv-x="380" 
d="M-55 -276l-2 12q74 17 144 75t71 123q1 38 -26 56t-71 28q-45 11 -66.5 41t-21.5 64q0 46 31 75t78 29q65 0 112.5 -52t47.5 -136q0 -121 -86 -208.5t-211 -106.5z" />
    <glyph glyph-name="hyphen" unicode="-" horiz-adv-x="481" 
d="M451 563h-412l22 92h410z" />
    <glyph glyph-name="period" unicode="." horiz-adv-x="342" 
d="M92 -25q-49 0 -84 34.5t-35 82.5q0 50 34.5 84.5t84.5 34.5q48 0 82.5 -35t34.5 -84q0 -47 -35 -82t-82 -35z" />
    <glyph glyph-name="slash" unicode="/" horiz-adv-x="729" 
d="M-53 -131h-47l966 1733h47z" />
    <glyph glyph-name="zero" unicode="0" horiz-adv-x="1214" 
d="M522 -25q-207 0 -315.5 138t-108.5 379q0 119 21.5 241t61 235.5t100.5 213.5t134.5 174t167.5 117t197 43q207 0 315.5 -137t108.5 -380q0 -143 -29.5 -288.5t-89 -277.5t-140 -234.5t-190.5 -163t-233 -60.5zM518 4q91 0 175.5 74t146 192.5t107.5 263.5t69.5 292.5
t23.5 273.5q0 179 -63 283t-193 104q-91 0 -175 -73.5t-145.5 -192t-108 -263.5t-70 -292t-23.5 -273q0 -180 63 -284.5t193 -104.5z" />
    <glyph glyph-name="one" unicode="1" horiz-adv-x="641" 
d="M639 1511l-274 -1292q-25 -117 7.5 -162t137.5 -45l-4 -12h-555l4 12q107 0 163.5 45.5t80.5 161.5l209 985q-125 -63 -261 -78l5 13q113 38 202 94.5t150 121.5t123 156h12z" />
    <glyph glyph-name="two" unicode="2" horiz-adv-x="1021" 
d="M113 147h438q154 0 231 34.5t148 137.5h12l-160 -319h-868l2 8l287 250q69 60 119 105t121.5 114t122 126t106.5 130t90.5 137t57 136.5t22.5 138.5q0 122 -69 192t-183 70q-127 0 -232.5 -91.5t-171.5 -266.5h-12q58 225 196.5 346t309.5 121q158 0 253 -90t95 -234
q0 -71 -27.5 -147.5t-63.5 -139.5t-110.5 -145.5t-126 -134t-156 -138.5t-154.5 -126t-166 -128q-71 -54 -105 -81z" />
    <glyph glyph-name="three" unicode="3" horiz-adv-x="978" 
d="M612 860l-24 -12q141 -47 221 -147t80 -226q0 -96 -43.5 -187.5t-116.5 -160t-175 -110.5t-214 -42q-106 0 -214 36.5t-173 86.5l80 258h12q3 -163 81.5 -257.5t213.5 -94.5q79 0 151 34t122.5 90t80 129t29.5 149q0 129 -80.5 220t-232.5 124l-39 8l-2 12l69 35
q371 178 371 414q0 95 -57 148.5t-158 53.5q-121 0 -215 -77.5t-135 -182.5l-13 2q50 155 167 254t278 99q136 0 212.5 -67t76.5 -179q0 -234 -353 -410z" />
    <glyph glyph-name="four" unicode="4" horiz-adv-x="1089" 
d="M1006 420h-250l-39 -180q-29 -118 -12 -173t102 -55l-2 -12h-443l5 12q85 0 121 50t63 178l39 180h-582l-20 57l987 1034h12l-203 -956h160q51 0 79.5 7t51.5 30h12zM113 555h505l146 684z" />
    <glyph glyph-name="five" unicode="5" horiz-adv-x="940" 
d="M721 1311q-131 0 -336 43l-121 -377l127 -25q225 -44 349 -160t124 -284q0 -107 -43.5 -205t-118 -170t-182 -115t-229.5 -43q-90 0 -196.5 21t-147.5 47l78 248h12q-9 -130 61 -208.5t205 -78.5q85 0 162 33t132 88.5t87.5 130.5t32.5 156q0 144 -105 246.5t-297 140.5
l-137 26l221 691q206 -46 394 -46q192 0 276 58h12q-58 -118 -145 -167.5t-215 -49.5z" />
    <glyph glyph-name="six" unicode="6" horiz-adv-x="1034" 
d="M655 903q146 0 238 -97t92 -257q0 -147 -72 -279t-197.5 -213.5t-271.5 -81.5q-170 0 -273 108.5t-103 322.5q0 235 108.5 460t312 399.5t463.5 250.5l4 -13q-244 -86 -419.5 -307.5t-249.5 -503.5q61 86 158 148.5t210 62.5zM455 4q76 0 142.5 50t110 127.5t68.5 168
t25 174.5q0 135 -66.5 208t-177.5 73q-79 0 -151 -41t-127 -105q-37 -154 -37 -313q0 -170 56 -256t157 -86z" />
    <glyph glyph-name="seven" unicode="7" horiz-adv-x="929" 
d="M162 1184l104 307h860v-8q-655 -813 -774 -1483h-205q50 165 133.5 336.5t196 341.5t232.5 326.5t270 330.5h-442q-119 0 -178 -11.5t-98.5 -41t-86.5 -98.5h-12z" />
    <glyph glyph-name="eight" unicode="8" horiz-adv-x="1081" 
d="M700 813l19 -10q264 -143 264 -361q0 -122 -69 -229t-193.5 -172.5t-274.5 -65.5q-181 0 -300 90t-119 248q0 81 34 151.5t95.5 123.5t135 92t163.5 68q-199 137 -199 329q0 181 138.5 310t332.5 129q153 0 253.5 -82.5t100.5 -221.5q0 -74 -30.5 -139.5t-85 -114
t-120.5 -84.5t-145 -61zM727 1487q-139 0 -231.5 -99t-92.5 -231q0 -181 224 -301l49 -29q129 71 207 181t78 235q0 112 -60.5 178t-173.5 66zM453 4q168 0 274.5 103.5t106.5 246.5q0 49 -16 93.5t-38.5 75t-58 60.5t-61.5 46.5t-62 36.5l-92 51l-25 14
q-148 -72 -238.5 -188.5t-90.5 -257.5q0 -138 82.5 -209.5t218.5 -71.5z" />
    <glyph glyph-name="nine" unicode="9" horiz-adv-x="1032" 
d="M676 1516q170 0 273.5 -108.5t103.5 -322.5q0 -235 -109 -460t-312.5 -399.5t-463.5 -250.5l-4 13q165 58 303 183t228.5 284.5t138.5 343.5q-59 -85 -157 -148t-212 -63q-146 0 -238 97t-92 257q0 147 72 279t197.5 213.5t271.5 81.5zM842 831q37 154 37 314
q0 170 -56 256t-157 86q-100 0 -182 -85t-123.5 -203t-41.5 -232q0 -135 67 -208t177 -73q79 0 151.5 41t127.5 104z" />
    <glyph glyph-name="colon" unicode=":" horiz-adv-x="430" 
d="M283 772q-47 3 -79.5 41.5t-27.5 85.5t42.5 78t84.5 27q47 -3 78.5 -41t28.5 -86q-5 -47 -42.5 -78t-84.5 -27zM111 -29q-47 4 -78.5 42t-28.5 85q5 47 42.5 79t84.5 28q47 -5 79 -42.5t28 -84.5q-3 -47 -41 -78.5t-86 -28.5z" />
    <glyph glyph-name="semicolon" unicode=";" horiz-adv-x="454" 
d="M293 772q-47 0 -82 36t-35 83t35 82t82 35t83 -35t36 -82t-36 -83t-83 -36zM-20 -276l-3 12q46 10 93.5 38.5t83 72t36.5 87.5q1 20 -6.5 35.5t-23.5 24.5t-30 14t-34 10q-47 11 -67.5 40.5t-20.5 64.5q0 46 31 75t78 29q64 0 110.5 -51.5t46.5 -136.5
q0 -121 -84.5 -208.5t-209.5 -106.5z" />
    <glyph glyph-name="less" unicode="&#x3c;" horiz-adv-x="1040" 
d="M924 1151l20 -37l-776 -369l776 -368l-20 -37l-815 387v37z" />
    <glyph glyph-name="equal" unicode="=" horiz-adv-x="1040" 
d="M979 872h-836v41h836v-41zM979 578h-836v40h836v-40z" />
    <glyph glyph-name="greater" unicode="&#x3e;" horiz-adv-x="1040" 
d="M180 1114l21 37l815 -387v-37l-815 -387l-21 37l776 368z" />
    <glyph glyph-name="question" unicode="?" horiz-adv-x="862" 
d="M360 391q-42 0 -63 21.5t-21 56.5q0 39 39.5 95.5t98.5 114.5t128.5 134.5t128.5 152.5t98.5 172.5t39.5 190.5q0 104 -54 162.5t-155 58.5q-120 0 -219.5 -96.5t-175.5 -273.5h-12l67 325q198 78 348 78q161 0 261 -78t100 -207q0 -75 -35 -153t-91 -143.5t-123.5 -130
t-135.5 -121t-124 -106.5t-91 -97t-35 -84q0 -53 53 -53q23 0 47 8l2 -10q-39 -17 -76 -17zM276 -25q-49 0 -84.5 35.5t-35.5 85.5t35.5 85.5t84.5 35.5q50 0 85.5 -35.5t35.5 -85.5t-35.5 -85.5t-85.5 -35.5z" />
    <glyph glyph-name="at" unicode="@" horiz-adv-x="1607" 
d="M1143 291q-89 0 -135 54t-31 147q-61 -103 -136 -159.5t-149 -56.5q-73 0 -113 56.5t-40 161.5q0 99 36 203.5t97 190t151 140.5t189 55q132 0 172 -90l92 80h12l-151 -457q-49 -135 -46 -214.5t72 -79.5q98 0 193.5 92t155 240t59.5 302q0 236 -143.5 382.5
t-378.5 146.5q-182 0 -346.5 -86.5t-281.5 -230t-186 -337t-69 -401.5q0 -175 65 -308t191 -208t297 -76q159 0 314.5 62t283.5 182l12 -12q-298 -283 -631 -283q-288 0 -459 173t-171 464q0 219 78.5 421.5t211 349.5t315 235t380.5 88q266 0 429 -154t163 -408
q0 -112 -37.5 -229.5t-102 -214.5t-160.5 -159t-202 -62zM760 352q86 0 182.5 141.5t136.5 340.5q8 50 8 79q0 68 -21.5 105t-74.5 37q-81 0 -157 -84t-121 -208.5t-45 -242.5q0 -168 92 -168z" />
    <glyph glyph-name="A" unicode="A" horiz-adv-x="1214" 
d="M825 1516l172 -1254q20 -138 46 -191t87 -59l-2 -12h-466l2 12q92 6 131 54.5t26 148.5l-41 307h-483l-78 -139q-37 -66 -60 -111t-40.5 -89t-20.5 -71.5t5 -50t31 -34.5t61 -15l-2 -12h-338l2 12q69 11 138 96.5t183 284.5l631 1123h16zM688 1223l-364 -652h450z" />
    <glyph glyph-name="B" unicode="B" horiz-adv-x="1202" 
d="M778 778v-4q151 -22 247.5 -116t96.5 -226q0 -108 -50.5 -191.5t-139 -135.5t-204 -78.5t-251.5 -26.5h-551l2 12q41 0 71 11t49 27.5t34 50t23 63.5t20 84l211 995q10 43 14.5 72t6 58t-4.5 47t-19.5 32.5t-36.5 20.5t-56 6l2 12h516q218 0 331 -84t113 -223
q0 -84 -34.5 -154t-94.5 -119t-134 -82t-161 -51zM729 1458h-88q-79 0 -94 -74l-125 -591h164q198 0 314 103.5t116 287.5q0 127 -75 200.5t-212 73.5zM446 33q221 0 353.5 116.5t132.5 313.5q0 135 -91 216t-255 81h-170l-127 -596q-3 -16 -4 -21.5t-2.5 -20t0.5 -20.5
t5.5 -18t11.5 -17.5t20 -13.5t29.5 -11t42 -6t54.5 -3z" />
    <glyph glyph-name="C" unicode="C" horiz-adv-x="1241" 
d="M651 -25q-270 0 -417.5 157.5t-147.5 428.5q0 138 36 274.5t108.5 259t172 216.5t237 149.5t292.5 55.5q237 0 428 -123l-39 -236h-12q-46 160 -139.5 245t-231.5 85q-100 0 -192.5 -44t-163.5 -118.5t-130 -173.5t-97 -210t-58.5 -226t-20.5 -223q0 -222 93 -355
t272 -133q283 0 512 367h12l-94 -291q-67 -30 -117.5 -49.5t-135 -37.5t-167.5 -18z" />
    <glyph glyph-name="D" unicode="D" horiz-adv-x="1429" 
d="M522 0h-596l2 12q41 0 71 11t49 27.5t34 50t23 63.5t20 84l211 995q10 43 14.5 72t6 58t-4.5 47t-19.5 32.5t-36.5 20.5t-56 6l2 12h569q296 0 457.5 -151t161.5 -418q0 -187 -66 -355.5t-182.5 -294t-288 -199t-371.5 -73.5zM508 33q142 0 263 53.5t205.5 143.5t144 209
t88 250.5t28.5 266.5q0 245 -113 373.5t-323 128.5h-160q-36 0 -61.5 -19t-32.5 -55l-258 -1220q-9 -30 -2.5 -54t28 -41.5t69.5 -26.5t124 -9z" />
    <glyph glyph-name="E" unicode="E" horiz-adv-x="1142" 
d="M240 1479l2 12h1001l-37 -307h-12q-28 120 -64.5 176.5t-96.5 77t-177 20.5h-293l-141 -665h229q92 0 146.5 19.5t87.5 59.5t69 121h13l-95 -448h-12q-2 60 -10.5 95.5t-31 65t-65 42t-110.5 12.5h-229l-133 -631q-10 -49 3 -72.5t58 -23.5h242q88 0 142.5 10t112 43.5
t108.5 93t120 164.5h12l-121 -344h-1032l2 12q34 0 60.5 7t46 23t33.5 34.5t25 49.5t18 59t16 71l209 979q9 45 13.5 71.5t6.5 58.5t-4 49.5t-18.5 34t-36 23.5t-57.5 7z" />
    <glyph glyph-name="F" unicode="F" horiz-adv-x="1073" 
d="M240 1479l2 12h975l-39 -307h-13q-21 90 -44 141.5t-62.5 82.5t-90.5 40.5t-139 9.5h-266l-151 -706h231q92 0 146.5 19.5t87.5 59.5t69 121h12l-96 -448h-12q-2 60 -10 96t-30 65t-64.5 41.5t-110.5 12.5h-229l-99 -463q-9 -45 -13.5 -71.5t-6.5 -58.5t4 -49.5t18.5 -34
t36 -23.5t57.5 -7l-2 -12h-475l2 12q34 0 60.5 7t46 23t33.5 34.5t25 49.5t18 59t16 71l209 979q9 45 13.5 71.5t6.5 58.5t-4 49.5t-18.5 34t-36 23.5t-57.5 7z" />
    <glyph glyph-name="G" unicode="G" horiz-adv-x="1345" 
d="M637 -25q-254 0 -400.5 159.5t-146.5 430.5q0 145 38 285t112.5 260t176.5 211t238.5 143t288.5 52q143 0 264 -35.5t197 -79.5l-43 -236h-12q-92 322 -408 322q-120 0 -228 -62t-185.5 -164.5t-135 -232t-86 -267t-28.5 -267.5q0 -223 94 -356.5t272 -133.5
q137 0 238 54.5t118 138.5l48 225q10 42 14.5 68t7 55.5t-2.5 46t-16 32t-32 23.5t-51 10l2 13h375l-3 -13q-23 -3 -39 -17t-29.5 -48.5t-22 -68t-23.5 -101.5l-66 -299q-109 -66 -245 -107t-281 -41z" />
    <glyph glyph-name="H" unicode="H" horiz-adv-x="1363" 
d="M1049 1479l2 12h475l-2 -12q-41 0 -71 -12t-49.5 -29.5t-34.5 -52t-23.5 -65.5t-20.5 -85l-207 -979q-10 -44 -14.5 -71.5t-6.5 -59t3.5 -49.5t18 -34t36 -23t57.5 -7l-2 -12h-475l2 12q34 0 60.5 7t46 23t33.5 34.5t25 49.5t18 59t16 71l106 498h-628l-107 -498
q-9 -45 -13.5 -71.5t-6.5 -58.5t4 -49.5t18.5 -34t36 -23.5t57.5 -7l-2 -12h-475l2 12q34 0 60.5 7t46 23t33.5 34.5t25 49.5t18 59t16 71l209 979q9 45 13.5 71.5t6.5 58.5t-4 49.5t-18.5 34t-36 23.5t-57.5 7l2 12h475l-2 -12q-34 0 -60.5 -7t-46 -23t-33.5 -34.5
t-25 -49.5t-18 -59t-16 -71l-94 -444h629l94 444q11 53 16 85t4 66t-12.5 52t-37 29.5t-66.5 11.5z" />
    <glyph glyph-name="I" unicode="I" horiz-adv-x="555" 
d="M401 0h-475l2 12q34 0 60.5 7t46 23t33.5 34.5t25 49.5t18 59t16 71l209 979q9 45 13.5 71.5t6.5 58.5t-4 49.5t-18.5 34t-36 23.5t-57.5 7l2 12h475l-2 -12q-34 0 -60.5 -7t-46 -23t-33.5 -34.5t-25 -49.5t-18 -59t-16 -71l-209 -979q-9 -45 -13.5 -71.5t-6.5 -58.5
t4 -49.5t18.5 -34t36 -23.5t57.5 -7z" />
    <glyph glyph-name="J" unicode="J" horiz-adv-x="538" 
d="M-176 -328l-6 11q136 104 190.5 198.5t93.5 282.5l228 1071q9 43 14 71.5t6.5 59t-4.5 49t-19 34.5t-36.5 23t-57.5 7l3 12h475l-2 -12q-41 0 -71 -12t-49.5 -29.5t-34.5 -52t-23.5 -65.5t-20.5 -85l-195 -920q-29 -137 -63.5 -229.5t-91 -171.5t-137 -135.5
t-199.5 -106.5z" />
    <glyph glyph-name="K" unicode="K" horiz-adv-x="1257" 
d="M516 1243l-209 -995q-11 -52 -16 -83.5t-4 -64.5t13 -49.5t37.5 -27.5t65.5 -11l-2 -12h-475l2 12q41 0 71 11t49 27.5t34 50t23 63.5t20 84l211 995q11 52 15.5 84t3.5 64t-13 49.5t-37 28t-65 10.5l2 12h475l-2 -12q-51 0 -84.5 -14t-55 -48.5t-33.5 -71t-26 -102.5z
M1438 1491l-2 -12q-57 -13 -173.5 -90.5t-285.5 -233.5l-350 -321q165 -391 318.5 -600.5t242.5 -221.5l-2 -12q-68 -8 -168 -8q-51 0 -93 17.5t-90.5 63.5t-101 130t-117 214.5t-145.5 319.5l477 445q58 54 84.5 80t55.5 58.5t39.5 54.5t11.5 44q3 53 -78 60l2 12h375z" />
    <glyph glyph-name="L" unicode="L" horiz-adv-x="1056" 
d="M870 0h-944l2 12q34 0 60.5 7t46 23t33.5 34.5t25 49.5t18 59t16 71l209 979q9 45 13.5 71.5t6.5 58.5t-4 49.5t-18.5 34t-36 23.5t-57.5 7l2 12h475l-2 -12q-34 0 -60.5 -7t-46 -23t-33.5 -34.5t-25 -49.5t-18 -59t-16 -71l-235 -1106q-11 -49 2 -72.5t57 -23.5h143
q117 0 190 24t145.5 93.5t166.5 211.5h12z" />
    <glyph glyph-name="M" unicode="M" horiz-adv-x="1662" 
d="M1782 1491l-2 -12q-53 -5 -85.5 -18t-53.5 -45t-31.5 -70t-22.5 -109l-155 -993q-7 -45 -10.5 -70.5t-4.5 -56.5t5.5 -47t18.5 -31t34.5 -21t54.5 -6l-2 -12h-469l2 12q41 0 71 10.5t49 27t32.5 48t21.5 63.5t16 83l174 1102l-761 -1346h-17l-207 1348l-266 -1006
q-85 -327 102 -330l-2 -12h-383l3 12q93 7 146 87.5t95 242.5l242 911q13 49 14.5 86.5t-7 61.5t-27.5 40t-42 24.5t-55 13.5l2 12h338l180 -1208l682 1208h320z" />
    <glyph glyph-name="N" unicode="N" horiz-adv-x="1320" 
d="M1114 1479l2 12h381l-2 -12q-40 0 -72.5 -17t-56 -46t-43.5 -77t-34 -98t-29 -121l-242 -1145h-12l-596 1368l-211 -993q-13 -63 -19 -111t-3 -92.5t16.5 -73t42.5 -45t73 -16.5l-4 -12h-399l4 12q100 0 158 87.5t92 250.5l194 910q23 105 -8 156t-125 63l2 12h316
l514 -1182l170 811q19 87 24.5 148.5t-3.5 111.5t-41.5 74.5t-88.5 24.5z" />
    <glyph glyph-name="O" unicode="O" horiz-adv-x="1452" 
d="M655 -25q-267 0 -416 158t-149 428q0 146 36.5 287t107.5 261t166 211.5t220 143.5t263 52q268 0 418.5 -157.5t150.5 -428.5q0 -183 -59 -355.5t-161.5 -305.5t-253.5 -213.5t-323 -80.5zM647 4q108 0 206.5 62t171.5 165t127.5 233t82 268.5t27.5 268.5q0 220 -94 353
t-273 133q-135 0 -253.5 -95t-196 -242.5t-122 -322t-44.5 -338.5q0 -220 94.5 -352.5t273.5 -132.5z" />
    <glyph glyph-name="P" unicode="P" horiz-adv-x="1079" 
d="M242 1491h489q201 0 315.5 -96t114.5 -265q0 -214 -156 -357.5t-397 -143.5q-118 0 -215 33l-86 -406q-16 -77 -18.5 -131.5t27 -83.5t96.5 -29l-2 -12h-484l2 12q41 0 71 12t49.5 29.5t34.5 52t23.5 65.5t20.5 85l209 979q9 44 13.5 73t6 59.5t-4.5 48.5t-19 33.5
t-36 22.5t-56 7zM557 672q99 0 181 41.5t133.5 111t79.5 156t28 180.5q0 142 -69.5 219.5t-200.5 77.5h-68q-36 0 -61.5 -19t-32.5 -55l-131 -618q-6 -15 -2 -31.5t14.5 -30.5t43.5 -23t85 -9z" />
    <glyph glyph-name="Q" unicode="Q" horiz-adv-x="1452" 
d="M1628 -139l4 -11q-100 -81 -196.5 -119t-214.5 -38q-353 0 -590 282q-256 7 -398.5 164.5t-142.5 421.5q0 146 36.5 287t107.5 261t166 211.5t220 143.5t263 52q268 0 418.5 -157.5t150.5 -428.5q0 -211 -74.5 -404.5t-215.5 -334.5t-322 -191q87 -114 211 -172.5
t260 -58.5q175 0 317 92zM279 489q0 -220 94.5 -352.5t273.5 -132.5q108 0 206.5 62t171.5 165t127.5 233t82 268.5t27.5 268.5q0 220 -94 353t-273 133q-135 0 -253.5 -95t-196 -242.5t-122 -322t-44.5 -338.5z" />
    <glyph glyph-name="R" unicode="R" horiz-adv-x="1167" 
d="M733 711q98 -299 197 -488t172 -211l-2 -12q-54 -8 -148 -8q-114 0 -200 156t-195 548q-83 2 -151 19l-101 -467q-12 -56 -16.5 -86.5t-4 -64t12.5 -49t36.5 -26t65.5 -10.5l-2 -12h-473l2 12q51 0 84.5 14t55 48.5t33.5 71t26 102.5l213 995q11 54 15 86t2.5 64.5
t-13.5 48.5t-37 26.5t-65 10.5l2 12h491q207 0 320.5 -94t113.5 -244q0 -89 -35.5 -166.5t-96 -132.5t-138 -91.5t-164.5 -51.5zM547 1384l-121 -573q-9 -37 22 -57.5t127 -20.5q197 0 301.5 124.5t104.5 326.5q0 122 -67.5 198t-206.5 76h-68q-77 0 -92 -74z" />
    <glyph glyph-name="S" unicode="S" horiz-adv-x="966" 
d="M369 -25q-108 0 -213.5 33.5t-182.5 87.5l54 291h12q37 -185 136 -279t241 -94q146 0 239 84.5t93 220.5q0 57 -16.5 104t-58 94t-68 70.5t-89.5 74.5q-18 15 -27 22l-73 57q-40 33 -68 61t-64 74.5t-55.5 105t-19.5 124.5q0 175 139.5 292.5t333.5 117.5q193 0 365 -117
l-52 -242h-12q-32 143 -126 231.5t-226 88.5q-124 0 -203.5 -74.5t-79.5 -198.5q0 -56 18 -106.5t52.5 -91.5t60.5 -65t64 -54l73 -58q51 -41 80 -65.5t70.5 -68t64 -81t39.5 -90t17 -108.5q0 -125 -72 -227t-190.5 -158t-255.5 -56z" />
    <glyph glyph-name="T" unicode="T" horiz-adv-x="1126" 
d="M1278 1491l-37 -307h-12q-21 91 -43 142t-60 82t-86 40.5t-131 9.5h-59l-256 -1202q-11 -53 -16 -85t-4 -66t12.5 -52t37 -29.5t66.5 -11.5l-2 -12h-477l2 12q41 0 71.5 11.5t50 29.5t35 52.5t24 66t20.5 84.5l254 1202h-62q-107 0 -171.5 -20.5t-123 -77t-137.5 -176.5
h-12l90 307h1026z" />
    <glyph glyph-name="U" unicode="U" horiz-adv-x="1318" 
d="M594 -25q-265 0 -374 138t-52 401l154 721q9 43 14 71.5t6.5 59t-4.5 49t-19 34.5t-36.5 23t-57.5 7l4 12h476l-5 -12q-41 0 -71 -12t-49 -29t-34.5 -52.5t-23.5 -66t-20 -84.5l-152 -715q-54 -246 13.5 -370.5t267.5 -124.5q180 0 297 109.5t164 330.5l139 655
q17 81 22.5 142t-2 112t-37 78t-79.5 27l4 12h368l-4 -12q-50 0 -88.5 -26.5t-65.5 -79.5t-45 -110.5t-36 -142.5l-140 -655q-105 -490 -534 -490z" />
    <glyph glyph-name="V" unicode="V" horiz-adv-x="1214" 
d="M1108 1479l2 12h338l-2 -12q-70 -11 -141 -98t-181 -283l-628 -1123h-17l-174 1254q-20 138 -46 191t-87 59l2 12h467l-2 -12q-91 -6 -131 -55t-27 -148l137 -1004l465 836q28 49 46.5 85t36 73t26 62.5t13 50t0 41t-15.5 29.5t-31.5 20t-49.5 10z" />
    <glyph glyph-name="W" unicode="W" horiz-adv-x="1843" 
d="M1731 1479l2 12h338l-3 -12q-71 -12 -141 -99.5t-172 -283.5l-581 -1121h-17l-119 1031l-583 -1031h-17l-135 1254q-14 132 -42 188t-91 62l2 12h477l-2 -12q-98 -6 -137.5 -53t-30.5 -142l105 -1001l448 788l-18 158q-14 135 -41.5 189.5t-93.5 60.5l2 12h477l-2 -12
q-100 -6 -138.5 -52.5t-27.5 -142.5l110 -979l414 803q27 53 44.5 87t35 73t24.5 63t11.5 49.5t-0.5 40.5t-16 28.5t-31.5 20t-50.5 9.5z" />
    <glyph glyph-name="X" unicode="X" horiz-adv-x="1175" 
d="M1008 1479l2 12h364l-2 -12q-86 -10 -172.5 -88t-206.5 -228l-284 -360l223 -570q79 -201 162 -221l-2 -12h-408l2 12q70 6 91.5 50t-7.5 114l-195 494l-286 -363q-55 -68 -84.5 -118t-37.5 -88t13 -60t70 -29l-2 -12h-377l2 12q87 10 177.5 90t207.5 226l301 381
l-215 548q-79 202 -162 222l2 12h408l-2 -12q-68 -6 -90 -50t6 -114l186 -473l271 342q55 69 85 118t39.5 87.5t-10.5 60.5t-69 29z" />
    <glyph glyph-name="Y" unicode="Y" horiz-adv-x="1165" 
d="M1067 1479l2 12h338l-2 -12q-81 -11 -174 -104.5t-230 -282.5l-296 -416l-91 -420q-9 -43 -14 -71.5t-6.5 -59t4.5 -49t19 -34.5t36.5 -23t57.5 -7l-2 -12h-478l2 12q41 0 71.5 11.5t50 29.5t35 52.5t24 66t20.5 84.5l84 393l-164 580q-42 142 -72.5 192.5t-82.5 57.5
l2 12h458l-2 -12q-189 -12 -135 -195l166 -569l279 393q49 68 79 113t54.5 88t32 69.5t5 48.5t-20.5 34t-50 18z" />
    <glyph glyph-name="Z" unicode="Z" horiz-adv-x="1071" 
d="M301 1491h926v-8l-1094 -1450h373q88 0 142.5 9.5t111.5 43.5t108 93.5t121 164.5h12l-120 -344h-979v8l1097 1450h-337q-118 0 -188 -21t-133 -77.5t-146 -175.5h-13z" />
    <glyph glyph-name="bracketleft" unicode="[" horiz-adv-x="552" 
d="M774 1573h-319q-73 -559 -154 -942q-82 -390 -248 -942h320l-6 -29h-402l414 1942h401z" />
    <glyph glyph-name="backslash" unicode="\" horiz-adv-x="704" 
d="M528 -131h-41l-229 1733h41z" />
    <glyph glyph-name="bracketright" unicode="]" horiz-adv-x="552" 
d="M219 1573l6 29h402l-414 -1942h-401l6 29h321q76 584 152 942q78 368 250 942h-322z" />
    <glyph glyph-name="asciicircum" unicode="^" horiz-adv-x="1040" 
d="M733 1516l268 -783l-36 -20l-248 725l-559 -725l-37 20l604 783h8z" />
    <glyph glyph-name="underscore" unicode="_" horiz-adv-x="774" 
d="M625 -176h-779l9 45h778z" />
    <glyph glyph-name="grave" unicode="`" horiz-adv-x="1228" 
d="M621 1204l-9 -4q-28 54 -108 178.5t-94 153.5q-13 26 -13 43q0 31 22.5 51.5t51.5 20.5q50 0 68 -52q5 -15 35 -170.5t47 -220.5z" />
    <glyph glyph-name="a" unicode="a" horiz-adv-x="1046" 
d="M1024 297l10 -8q-77 -149 -158.5 -231.5t-154.5 -82.5q-121 0 -74 218l51 237q-87 -215 -214 -335t-255 -120q-100 0 -155.5 78.5t-55.5 225.5q0 110 31 226.5t90.5 221.5t138 188.5t181.5 133t213 49.5q148 0 211 -84l110 71h11l-185 -874q-21 -96 12 -96q28 0 81 51.5
t112 130.5zM324 76q75 0 162.5 88.5t164.5 247t115 342.5q10 58 10 110q0 205 -137 205q-82 0 -165 -71.5t-143.5 -181t-99 -245t-38.5 -258.5q0 -114 34.5 -175.5t96.5 -61.5z" />
    <glyph glyph-name="b" unicode="b" horiz-adv-x="989" 
d="M758 1098q101 0 156 -78t55 -225q0 -110 -31 -226.5t-90.5 -222t-138 -189t-181.5 -133t-213 -49.5q-125 0 -196.5 63.5t-71.5 188.5q0 57 14 117l211 995q19 97 4 139t-67 54l2 12l274 58h9l-201 -955q87 213 213 332t252 119zM348 4q110 0 215.5 119t168.5 295t63 342
q0 115 -34 176t-97 61q-75 0 -162.5 -88.5t-164.5 -247t-116 -342.5q-10 -58 -10 -110q0 -205 137 -205z" />
    <glyph glyph-name="c" unicode="c" horiz-adv-x="829" 
d="M307 -25q-129 0 -204.5 85t-75.5 257q0 136 49 276t130.5 251.5t197 182.5t237.5 71q114 0 176 -56t62 -147l-111 -111h-12q17 138 -17.5 211.5t-111.5 73.5q-75 0 -153.5 -64.5t-137.5 -166t-97 -232t-38 -254.5q0 -274 182 -274q90 0 177 61t181 176l13 -8
q-110 -173 -217.5 -252.5t-229.5 -79.5z" />
    <glyph glyph-name="d" unicode="d" horiz-adv-x="1046" 
d="M831 115q27 0 81 52t112 130l10 -8q-79 -150 -160 -232t-153 -82q-121 0 -74 218l51 239q-89 -217 -215.5 -337t-253.5 -120q-100 0 -155.5 78.5t-55.5 225.5q0 110 31 226.5t90.5 221.5t137.5 188.5t181 133t212 49.5q99 0 161 -39l60 280q20 97 5 138.5t-67 54.5l2 12
l273 58h8l-295 -1391q-21 -96 14 -96zM322 76q76 0 164 88.5t165 247t115 342.5q10 58 10 110q0 205 -137 205q-83 0 -166 -71.5t-143.5 -181t-98.5 -245t-38 -258.5q0 -115 33.5 -176t95.5 -61z" />
    <glyph glyph-name="e" unicode="e" horiz-adv-x="849" 
d="M885 940q0 -55 -31.5 -103.5t-85 -88t-141.5 -80t-182.5 -73.5t-227.5 -73q-18 -82 -18 -172q0 -274 182 -274q91 0 188.5 63.5t190.5 175.5l12 -8q-217 -334 -467 -334q-128 0 -204 86t-76 252q0 99 26.5 207t81.5 211t129 185.5t178.5 133t221.5 50.5
q112 0 167.5 -42.5t55.5 -115.5zM629 1067q-118 0 -236 -151.5t-168 -358.5q267 94 386.5 181.5t119.5 209.5q0 119 -102 119z" />
    <glyph glyph-name="f" unicode="f" horiz-adv-x="573" 
d="M784 1606q47 0 115 -11l-49 -151h-12q-116 96 -181 96q-141 0 -202 -276l-41 -191h274l-45 -74h-244l-217 -1026q-84 -389 -473 -440v12q122 28 192 122.5t105 260.5l227 1071h-106l4 21l119 53q54 258 193.5 395.5t340.5 137.5z" />
    <glyph glyph-name="g" unicode="g" horiz-adv-x="929" 
d="M709 1042l317 45l-49 -104l-225 21q75 -78 75 -205q0 -114 -53.5 -211.5t-149.5 -156.5t-212 -60q-88 -25 -120 -45t-32 -50q0 -39 62 -57l213 -57q53 -15 88.5 -26.5t77 -28t68 -34.5t50 -41.5t34.5 -53t11 -64.5q0 -110 -89.5 -204.5t-233 -148t-301.5 -53.5
q-172 0 -259 66.5t-87 177.5q0 101 74.5 182t207.5 119l33 6l8 -2q-96 -48 -143 -115t-47 -141q0 -100 83 -162.5t242 -62.5q169 0 285.5 70.5t116.5 171.5q0 34 -15.5 62t-37.5 46t-60 34.5t-67.5 26t-75.5 21.5l-252 68q-125 35 -125 129q0 122 217 172
q-115 19 -181.5 97.5t-66.5 197.5q0 173 121.5 299.5t298.5 126.5q117 0 199 -56zM399 399q63 0 117 46t87 116.5t52 149.5t19 151q0 97 -38.5 152t-113.5 55q-64 0 -118 -45.5t-88 -115.5t-53 -149t-19 -151q0 -99 39.5 -154t115.5 -55z" />
    <glyph glyph-name="h" unicode="h" horiz-adv-x="1044" 
d="M1026 297l10 -8q-78 -149 -160.5 -231.5t-154.5 -82.5q-125 0 -74 218l119 528q14 58 20.5 97.5t6 79t-18 59.5t-51.5 20q-87 0 -196 -134t-208 -362t-153 -481h-166l283 1339q19 97 4 139t-68 54l4 12l273 58h8l-254 -1203q116 314 270 506.5t305 192.5q49 0 80 -21
t44.5 -55.5t14 -87t-7.5 -106t-24 -123.5l-113 -494q-6 -24 -8.5 -38t-4 -32t3.5 -26.5t17 -8.5q55 0 199 191z" />
    <glyph glyph-name="i" unicode="i" horiz-adv-x="487" 
d="M399 1268q-49 0 -82.5 33t-33.5 81t33.5 81.5t82.5 33.5q47 0 81 -34t34 -81t-34 -80.5t-81 -33.5zM160 -25q-121 0 -74 218l143 669q6 28 7.5 38.5t3 30.5t-4.5 28t-18 8q-40 0 -156 -150l-10 8q66 130 140.5 201.5t138.5 71.5q45 0 65 -30.5t19 -75t-15 -111.5
l-141 -670q-15 -72 -4 -88q6 -8 16 -8q28 0 81 51t114 131l10 -8q-79 -149 -160.5 -231.5t-154.5 -82.5z" />
    <glyph glyph-name="j" unicode="j" horiz-adv-x="446" 
d="M408 1268q-47 0 -81 34t-34 80q0 47 34 81t81 34t80.5 -34t33.5 -81q0 -46 -33.5 -80t-80.5 -34zM-258 -467v12q122 28 192 122.5t105 260.5l199 934q26 105 -13 105q-21 0 -57.5 -36.5t-97.5 -113.5l-11 8q66 130 140.5 201.5t138.5 71.5q35 0 55.5 -16.5t26 -47.5
t2.5 -67.5t-14 -85.5l-193 -908q-84 -389 -473 -440z" />
    <glyph glyph-name="k" unicode="k" horiz-adv-x="976" 
d="M741 123q73 0 193 182l10 -8q-83 -165 -155 -243.5t-138 -78.5q-88 0 -151.5 131t-130.5 424q228 126 295 172q125 87 143 170q4 17 4 35q0 43 -23.5 63.5t-58.5 20.5q-94 0 -199 -100.5t-181 -242t-103 -271.5l-80 -377h-166l283 1339q19 97 4 139t-68 54l4 12l273 58h8
l-211 -1010q43 102 102 192.5t129 161t151 111.5t161 41q67 0 110 -35.5t43 -104.5q0 -100 -110.5 -185t-350.5 -193q58 -246 105 -351.5t108 -105.5z" />
    <glyph glyph-name="l" unicode="l" horiz-adv-x="446" 
d="M119 -25q-121 0 -74 218l244 1146q20 97 5 138.5t-67 54.5l2 12l273 58h8l-295 -1391q-21 -96 14 -96q28 0 83.5 53.5t113.5 130.5l10 -8q-79 -149 -160.5 -232.5t-156.5 -83.5z" />
    <glyph glyph-name="m" unicode="m" horiz-adv-x="1708" 
d="M1688 297l10 -8q-78 -148 -161 -231t-153 -83q-126 0 -75 218l121 528q9 39 14 66t9.5 59t2 53.5t-9.5 40.5t-22.5 28t-39.5 9q-87 0 -196 -134t-207.5 -361.5t-153.5 -481.5h-163l149 721q9 41 13.5 66t9.5 59t2.5 54t-8.5 39.5t-21.5 28.5t-38.5 9q-87 0 -196.5 -134.5
t-208.5 -362t-154 -480.5h-164l182 862q6 28 7.5 38.5t3 30.5t-4.5 28t-18 8q-40 0 -156 -150l-10 8q66 130 140.5 201.5t138.5 71.5q45 0 65 -30.5t19 -75t-15 -111.5l-102 -480q116 313 269.5 505t303.5 192q41 0 70 -14t44 -41.5t21.5 -60.5t3 -81t-10.5 -92.5
t-19 -103.5l-70 -312q116 315 271.5 510t306.5 195q49 0 80.5 -21t44.5 -55t13.5 -87.5t-8 -106.5t-24.5 -123l-112 -494q-6 -24 -8.5 -38t-4 -32t3.5 -26.5t17 -8.5q25 0 76.5 47.5t122.5 143.5z" />
    <glyph glyph-name="n" unicode="n" horiz-adv-x="1091" 
d="M1071 297l10 -8q-77 -148 -159 -231t-154 -83q-127 0 -76 218l121 528q9 39 14.5 66t9.5 59t2 53.5t-8.5 40.5t-22 28t-38.5 9q-87 0 -196.5 -134.5t-208.5 -362t-154 -480.5h-164l182 862q6 28 7.5 38.5t3 30.5t-4.5 28t-18 8q-40 0 -156 -150l-10 8q66 130 140.5 201.5
t138.5 71.5q45 0 65 -30.5t19 -75t-15 -111.5l-106 -490q116 318 270.5 512.5t306.5 194.5q50 0 81.5 -21t45 -55t14 -87t-7.5 -106.5t-24 -123.5l-115 -494q-15 -73 -10 -90q4 -15 20 -15q24 0 75 48t122 143z" />
    <glyph glyph-name="o" unicode="o" horiz-adv-x="1007" 
d="M412 -25q-169 0 -271 113.5t-102 306.5q0 126 43 252.5t115 226t177 162t220 62.5q169 0 270 -114t101 -308q0 -128 -42.5 -254.5t-115 -225t-177 -160t-218.5 -61.5zM408 4q86 0 162 75.5t124 190t75.5 244t27.5 244.5q0 144 -50 227.5t-149 83.5q-86 0 -161.5 -75.5
t-123.5 -190t-76 -244t-28 -244.5q0 -143 50 -227t149 -84z" />
    <glyph glyph-name="p" unicode="p" horiz-adv-x="1032" 
d="M645 1098q174 0 263 -110.5t89 -291.5q0 -131 -46.5 -260t-127.5 -231.5t-200.5 -166t-253.5 -63.5q-103 0 -166 35l-56 -264q-25 -97 -17.5 -149t65.5 -52l-2 -12h-349l2 12q59 0 85.5 47t48.5 154l247 1165q-106 -54 -200 -110l-9 12q115 98 222 160l36 172l177 106h10
l-41 -194q118 41 223 41zM403 4q110 0 208.5 97.5t156 251t57.5 315.5t-63 254t-193 92q-66 0 -161 -29l-142 -672q-12 -70 -12 -118q0 -91 33 -141t116 -50z" />
    <glyph glyph-name="q" unicode="q" horiz-adv-x="1003" 
d="M1004 1085l-283 -1339q-12 -56 -16.5 -88t-2 -60.5t18.5 -40.5t47 -12l-2 -12h-346l2 12q58 0 83 44.5t50 156.5l147 692q-89 -220 -216.5 -341.5t-256.5 -121.5q-100 0 -155.5 78.5t-55.5 225.5q0 110 31 226.5t90.5 221.5t138 188.5t181.5 133t213 49.5q148 0 211 -84
l108 71h13zM324 76q75 0 162.5 88.5t164.5 247t115 342.5q10 58 10 110q0 205 -137 205q-82 0 -165 -71.5t-143.5 -181t-99 -245t-38.5 -258.5q0 -114 34.5 -175.5t96.5 -61.5z" />
    <glyph glyph-name="r" unicode="r" horiz-adv-x="735" 
d="M756 1098q51 0 86 -17l-78 -176h-12q-35 17 -70 17q-61 0 -120.5 -52.5t-108.5 -139t-94.5 -208t-81 -249.5t-66.5 -273h-164l182 862q15 74 8 92q-5 13 -20 13q-40 0 -156 -150l-10 8q66 130 140.5 201.5t138.5 71.5q45 0 65 -30.5t19 -75t-15 -111.5l-86 -396
q43 132 90.5 238.5t103 193t119.5 134t130 47.5z" />
    <glyph glyph-name="s" unicode="s" horiz-adv-x="708" 
d="M242 -25q-88 0 -167 31t-122 78l53 162h12q27 -98 106 -165t175 -67q85 0 140 59.5t55 145.5q0 38 -11 69.5t-39 63.5t-50 52.5t-70 60.5l-58 47q-34 27 -54.5 47t-43.5 51.5t-34 71.5t-11 90q0 137 95 231.5t239 94.5q128 0 262 -84l-39 -156h-12q-31 82 -98.5 141.5
t-153.5 59.5q-78 0 -126 -58.5t-48 -132.5q0 -47 20.5 -88.5t44.5 -66.5t66 -60l57 -47q50 -40 77 -65.5t55 -62t40 -76.5t12 -91q0 -145 -105.5 -240.5t-266.5 -95.5z" />
    <glyph glyph-name="t" unicode="t" horiz-adv-x="622" 
d="M717 999h-318l-157 -747q-29 -152 41 -152q47 0 126 67t175 195l10 -8q-90 -168 -205.5 -273.5t-212.5 -105.5q-79 0 -104.5 74.5t0.5 186.5l164 763h-109l6 21l31 12q83 36 154 106t143 203h12l-55 -268h344z" />
    <glyph glyph-name="u" unicode="u" horiz-adv-x="1091" 
d="M1069 297l10 -8q-77 -149 -159.5 -231.5t-155.5 -82.5q-46 0 -67.5 29.5t-20 78t13.5 110.5l105 481q-118 -315 -271.5 -507t-304.5 -192q-41 0 -70 14t-44 41.5t-21.5 61.5t-3 81t11.5 92.5t21 103.5l112 493q15 73 11 90q-4 15 -19 15q-42 0 -158 -150l-10 8
q66 130 139 201.5t134 71.5q126 0 75 -217l-121 -529q-9 -39 -14.5 -66t-9.5 -59t-2 -53.5t8.5 -40.5t22 -28t38.5 -9q60 0 138 74.5t154.5 199.5t147.5 305.5t113 375.5l162 26h10l-184 -866q-6 -28 -7.5 -38.5t-3 -30.5t4.5 -28t18 -8q25 0 75.5 47.5t121.5 143.5z" />
    <glyph glyph-name="v" unicode="v" horiz-adv-x="921" 
d="M262 -25q-62 0 -100.5 30.5t-52 86.5t-10 124.5t21.5 152.5l106 493q14 73 8 91q-4 14 -18 14q-43 0 -162 -154l-10 8q71 135 145.5 206t139.5 71q117 0 69 -217l-114 -529q-55 -268 90 -268q78 0 155.5 74t132 182.5t89 233.5t34.5 227q0 84 -23.5 156t-70.5 104v12
l148 25q82 -65 82 -203q0 -117 -64 -277.5t-158.5 -302t-215 -241t-222.5 -99.5z" />
    <glyph glyph-name="w" unicode="w" horiz-adv-x="1437" 
d="M1208 1073l144 25q82 -65 82 -203q0 -117 -60 -277t-150.5 -302t-208.5 -241.5t-222 -99.5q-55 0 -91 35t-49.5 94.5t-13 129.5t13.5 149q-71 -173 -175.5 -290.5t-217.5 -117.5q-61 0 -99.5 32.5t-51.5 89.5t-10 124.5t20 147.5l108 493q10 41 9.5 73t-21.5 32
q-41 0 -160 -154l-10 8q71 135 145.5 206t139.5 71q34 0 53.5 -19t24.5 -51.5t2 -69t-13 -77.5l-112 -529q-13 -71 -14.5 -130.5t23.5 -98.5t75 -39q56 0 115.5 71.5t109 185t88.5 234.5t66 240l49 225l161 37h9q-9 -38 -33 -137.5t-34 -140.5t-28.5 -122t-26.5 -124.5
t-18 -102.5t-14 -102.5t-4 -81.5q0 -182 109 -182q73 0 144.5 74t122 182.5t82 233.5t31.5 227q0 83 -23 154.5t-67 105.5v12z" />
    <glyph glyph-name="x" unicode="x" horiz-adv-x="976" 
d="M844 975q-40 0 -77 -39t-79 -109l-139 -229l115 -362q9 -28 16 -46t17 -36.5t23 -27.5t28 -9q30 0 76 49.5t100 144.5l10 -8q-66 -165 -125.5 -246.5t-132.5 -81.5q-28 0 -51.5 12t-38 26.5t-29.5 43.5t-21.5 45.5t-17.5 49.5l-94 299l-170 -285q-53 -90 -104 -140.5
t-117 -50.5q-82 0 -96 107l90 145h8q0 -53 15.5 -92t51.5 -39q34 0 74.5 43t75.5 101l158 256l-109 342q-13 40 -22 62t-26.5 41.5t-39.5 19.5q-26 0 -53 -36t-70 -122l-10 4q38 148 85.5 219.5t117.5 71.5q37 0 64.5 -15t46.5 -45.5t28 -53t22 -62.5l91 -281l155 266
q51 88 101.5 139.5t107.5 51.5q59 0 74.5 -53t-17.5 -117l-41 -86h-8q0 133 -63 133z" />
    <glyph glyph-name="y" unicode="y" horiz-adv-x="944" 
d="M684 1073l147 25q87 -70 87 -226q0 -117 -43.5 -266t-115.5 -297.5t-170.5 -291.5t-202.5 -252.5t-217 -176.5t-210 -67q-104 0 -172 65l63 135h13q38 -54 89.5 -86t104.5 -32q45 0 87.5 16t85 54t74.5 94.5t51.5 146t19.5 199.5q0 167 -32 363t-85.5 336t-107.5 140
q-51 0 -95 -159l-10 4q17 147 60 224t108 77q87 0 159 -140.5t110 -347t38 -420.5q0 -139 -22 -243q137 189 215 397t78 418q0 219 -107 299v12z" />
    <glyph glyph-name="z" unicode="z" horiz-adv-x="823" 
d="M874 1114h13q0 -32 -23.5 -72.5t-54.5 -68.5l-717 -754q41 -2 203 -46t237 -44q76 0 123.5 44t100.5 169h12l-20 -92q-9 -37 -15 -60t-17.5 -55.5t-23 -52.5t-30 -42.5t-40.5 -35t-52.5 -21t-67.5 -8.5q-83 0 -262 50.5t-215 50.5q-23 -23 -23 -101h-12q-35 53 -35 97
q0 63 61 118l682 715q-67 1 -184.5 22t-175.5 21q-88 0 -141 -38.5t-103 -127.5h-12l31 90q80 226 266 226q61 0 184.5 -20.5t165.5 -20.5q105 0 145 57z" />
    <glyph glyph-name="braceleft" unicode="{" horiz-adv-x="516" 
d="M670 1602h61l-6 -29h-51q-131 0 -205 -80.5t-74 -222.5q0 -53 16.5 -156.5t16.5 -150.5q0 -125 -82 -214t-209 -118q83 -22 132.5 -74t49.5 -123q0 -61 -35.5 -143.5t-78 -150.5t-78 -149.5t-35.5 -142.5q0 -77 45.5 -118t134.5 -41h52l-7 -29h-61q-134 0 -218.5 57.5
t-84.5 161.5q0 50 25.5 115.5t62.5 130t74 128.5t62.5 127t25.5 109q0 53 -34.5 87.5t-105.5 41.5l5 25q108 10 162.5 74.5t54.5 173.5q0 55 -18.5 173.5t-18.5 176.5q0 114 59.5 197.5t153.5 123.5t209 40z" />
    <glyph glyph-name="bar" unicode="|" horiz-adv-x="350" 
d="M53 -131h-43l369 1733h43z" />
    <glyph glyph-name="braceright" unicode="}" horiz-adv-x="516" 
d="M350 772q0 -54 34 -88t105 -41l-4 -25q-107 -10 -162 -74t-55 -173q0 -55 18.5 -174t18.5 -177q0 -114 -59 -197t-153 -123t-210 -40h-61l6 29h51q132 0 206.5 81t74.5 222q0 53 -16.5 156.5t-16.5 150.5q0 125 81.5 214t207.5 118q-82 22 -132.5 74t-50.5 122
q0 61 36 143.5t79 150.5t79 149.5t36 142.5q0 77 -46.5 118.5t-135.5 41.5h-52l7 29h61q134 0 218.5 -58t84.5 -162q0 -50 -26 -115.5t-62.5 -130t-73 -128.5t-62.5 -127t-26 -109z" />
    <glyph glyph-name="asciitilde" unicode="~" horiz-adv-x="1040" 
d="M156 651l-23 6q43 108 106 166t142 58q46 0 102.5 -28t100.5 -61.5t99.5 -61.5t100.5 -28q120 0 195 181l22 -6q-89 -224 -247 -224q-46 0 -102.5 28t-101 61t-100 61t-100.5 28q-120 0 -194 -180z" />
    <glyph glyph-name="uni00A0" unicode="&#xa0;" horiz-adv-x="425" 
 />
    <glyph glyph-name="exclamdown" unicode="&#xa1;" horiz-adv-x="393" 
d="M295 1114q47 0 83 -35t36 -82q0 -49 -35.5 -83.5t-83.5 -34.5t-82.5 34.5t-34.5 83.5q0 47 35 82t82 35zM223 698h17q-20 -147 -54.5 -425.5t-59 -470.5t-28.5 -210q-8 -38 -36 -61t-68 -23q-44 0 -73 36t-21 79q3 20 59.5 205.5t138 452.5t125.5 417z" />
    <glyph glyph-name="cent" unicode="&#xa2;" horiz-adv-x="890" 
d="M758 1278l-56 -182q99 -7 152 -62t53 -139l-110 -111h-13q15 121 -9.5 192.5t-82.5 86.5l-299 -985h19q90 0 177 61t181 176l12 -8q-106 -165 -207 -245t-213 -87l-55 -180h-37l54 180q-125 3 -197 88.5t-72 253.5q0 135 48.5 274.5t129.5 251t196 183t237 72.5l55 180
h37zM358 86l299 983h-2q-76 0 -154.5 -64.5t-137.5 -166t-96.5 -231.5t-37.5 -255q0 -230 129 -266z" />
    <glyph glyph-name="sterling" unicode="&#xa3;" horiz-adv-x="1058" 
d="M717 1487q-60 0 -105.5 -24.5t-73 -64t-44.5 -97.5t-23 -117.5t-6 -132.5q0 -55 4.5 -176.5t5.5 -161.5h424l-43 -62h-381q-3 -280 -194 -471q15 -3 70.5 -16.5t82 -19t72.5 -14t84.5 -12t75.5 -3.5q105 0 162 39.5t124 148.5h13q-19 -51 -34.5 -87t-37.5 -76.5
t-47 -67.5t-56.5 -50.5t-72 -35t-88.5 -11.5q-55 0 -115.5 21t-102 46.5t-92.5 57t-77 43.5q-123 -104 -287 -168h-12l18 86q16 75 52.5 109.5t109.5 34.5q45 0 125 -17q114 143 114 357q0 57 -8 106h-243l43 62h192q-3 24 -14.5 100t-17 126.5t-5.5 94.5q0 221 105.5 351.5
t310.5 130.5q155 0 309 -89l-59 -280h-12q-7 180 -69 260t-177 80z" />
    <glyph glyph-name="currency" unicode="&#xa4;" horiz-adv-x="1083" 
d="M930 680q0 -138 -92 -240l145 -145l-29 -29l-145 146q-103 -90 -240 -90q-136 0 -239 90l-146 -146l-28 29l145 145q-92 102 -92 240t92 240l-145 145l28 29l146 -146q103 90 239 90q137 0 240 -90l145 146l29 -29l-145 -145q92 -102 92 -240zM569 362q131 0 223.5 93
t92.5 225t-92.5 224.5t-223.5 92.5t-223 -92.5t-92 -224.5t92 -225t223 -93z" />
    <glyph glyph-name="yen" unicode="&#xa5;" horiz-adv-x="1275" 
d="M1102 1479l2 12h338l-2 -12q-81 -11 -172.5 -104t-229.5 -283l-295 -410h332l-8 -41h-336l-39 -184h336l-10 -41h-334l-35 -160q-11 -53 -16 -85t-4 -66t12.5 -52t37 -29.5t66.5 -11.5l-2 -12h-475l2 12q41 0 71 12t49.5 29.5t34.5 52t23.5 65.5t20.5 85l35 160h-338
l8 41h338l39 184h-338l8 41h322l-154 547q-40 141 -71 191.5t-82 58.5l2 12h456l-2 -12q-187 -12 -133 -195l164 -567l278 391q49 68 79.5 113t55 88t32.5 69.5t5 48.5t-21 34t-50 18z" />
    <glyph glyph-name="brokenbar" unicode="&#xa6;" horiz-adv-x="350" 
d="M260 838h-43l162 764h43zM53 -131h-43l162 764h43z" />
    <glyph glyph-name="section" unicode="&#xa7;" horiz-adv-x="962" 
d="M666 1516q109 0 187 -45t124 -107l-66 -211h-12q-1 164 -60 248t-165 84q-94 0 -159.5 -80t-65.5 -186q0 -67 30.5 -137t75.5 -128.5t98.5 -129.5t98.5 -137.5t75.5 -154t30.5 -178.5q0 -148 -69 -280.5t-189 -213.5t-260 -81q-192 0 -309 151l65 211h13q3 -165 61 -248
t164 -83q94 0 159.5 80t65.5 186q0 58 -22.5 117.5t-58.5 112.5t-80 108.5t-87.5 114.5t-79.5 120t-58.5 136t-22.5 153q0 147 67.5 279.5t187.5 215.5t261 83zM782 348q0 97 -41.5 190t-100 169t-117.5 151t-100.5 165.5t-41.5 182.5q0 96 47 185q-99 -81 -151 -196.5
t-52 -248.5q0 -71 22 -140t57.5 -126t78.5 -113t86 -111.5t78.5 -111.5t57.5 -122t22 -134q0 -95 -47 -184q99 81 150.5 196t51.5 248z" />
    <glyph glyph-name="dieresis" unicode="&#xa8;" horiz-adv-x="1228" 
d="M436 1260q-46 0 -78 32t-32 78t32 78.5t78 32.5t78.5 -32.5t32.5 -78.5t-32.5 -78t-78.5 -32zM784 1260q-47 0 -79.5 32t-32.5 78t32.5 78.5t79.5 32.5q44 0 76.5 -32.5t32.5 -78.5t-32.5 -78t-76.5 -32z" />
    <glyph glyph-name="copyright" unicode="&#xa9;" horiz-adv-x="1644" 
d="M866 -25q-203 0 -367 100.5t-256.5 277.5t-92.5 395q0 217 93 393t257 275.5t366 99.5q151 0 284.5 -58.5t228 -160t149.5 -244.5t55 -305q0 -163 -54.5 -306.5t-149 -246t-228 -161.5t-285.5 -59zM866 12q191 0 346 95.5t242.5 264t87.5 376.5q0 155 -51.5 291
t-141 232.5t-215 152t-268.5 55.5t-268.5 -55.5t-215 -152t-141 -232.5t-51.5 -291q0 -208 87.5 -376.5t242.5 -264t346 -95.5zM893 276q-187 0 -304.5 129.5t-117.5 337.5t117.5 339.5t304.5 131.5q146 0 278 -67l7 -160h-13q-91 199 -276 199q-121 0 -200 -124.5
t-79 -316.5q0 -190 79.5 -315t199.5 -125q209 0 282 221h13l-21 -186q-126 -64 -270 -64z" />
    <glyph glyph-name="ordfeminine" unicode="&#xaa;" horiz-adv-x="741" 
d="M805 1012l8 -6q-105 -199 -203 -199q-75 0 -47 135l31 139q-56 -130 -135 -202t-158 -72q-64 0 -99.5 49.5t-35.5 140.5q0 88 31.5 179.5t85 167t132.5 124t165 48.5q90 0 135 -54l71 45h9l-119 -551q-14 -61 8 -61q34 0 121 117zM360 870q73 0 158 126.5t121 301.5
q8 46 8 70q0 129 -88 129q-69 0 -134.5 -75t-104.5 -185.5t-39 -214.5q0 -152 79 -152z" />
    <glyph glyph-name="guillemotleft" unicode="&#xab;" horiz-adv-x="778" 
d="M520 1073h12l-305 -528l84 -504h-12l-229 516zM803 1073h12l-268 -530l47 -502h-12l-193 516z" />
    <glyph glyph-name="logicalnot" unicode="&#xac;" horiz-adv-x="1040" 
d="M100 725v41h836v-451h-45v410h-791z" />
    <glyph glyph-name="uni00AD" unicode="&#xad;" horiz-adv-x="481" 
d="M451 563h-412l22 92h410z" />
    <glyph glyph-name="registered" unicode="&#xae;" horiz-adv-x="1222" 
d="M702 1516q217 0 362.5 -157.5t145.5 -393.5q0 -237 -145.5 -395t-362.5 -158q-218 0 -363.5 157.5t-145.5 395.5q0 236 145.5 393.5t363.5 157.5zM702 449q200 0 333.5 147t133.5 369q0 221 -133.5 367.5t-333.5 146.5t-334.5 -146.5t-134.5 -367.5q0 -222 134.5 -369
t334.5 -147zM850 860q65 -127 93 -166t58 -45v-12q-37 -4 -77 -4q-24 0 -40 6.5t-31 18.5t-35 48t-40.5 76.5t-58.5 122.5q-10 22 -20 28.5t-31 6.5h-39v-184q0 -61 10.5 -84t50.5 -23v-12h-221v12q38 0 47.5 22.5t9.5 84.5v415q0 42 -2.5 61t-15 32.5t-39.5 13.5v12h231
q106 0 167 -44.5t61 -123.5q0 -61 -40 -106t-108 -66q35 -21 70 -90zM629 1239v-276h63q135 0 135 149q0 75 -37.5 115.5t-103.5 40.5h-33q-24 0 -24 -29z" />
    <glyph glyph-name="macron" unicode="&#xaf;" horiz-adv-x="1228" 
d="M870 1290h-548l20 78h549z" />
    <glyph glyph-name="degree" unicode="&#xb0;" horiz-adv-x="657" 
d="M434 950q-112 0 -178 65.5t-66 168.5q0 135 92.5 233.5t227.5 98.5q111 0 179.5 -66t68.5 -170q0 -134 -94.5 -232t-229.5 -98zM428 975q94 0 161.5 104t67.5 224q0 85 -37 136.5t-102 51.5q-64 0 -118 -51t-82.5 -126.5t-28.5 -152.5q0 -85 36.5 -135.5t102.5 -50.5z
" />
    <glyph glyph-name="plusminus" unicode="&#xb1;" horiz-adv-x="1040" 
d="M573 1176v-410h396v-41h-396v-410h-45v410h-395v41h395v410h45zM969 0h-836v41h836v-41z" />
    <glyph glyph-name="uni00B2" unicode="&#xb2;" horiz-adv-x="616" 
d="M180 750h236q88 0 130.5 17.5t82.5 76.5h12l-92 -189h-494l2 9l162 145q59 52 98 89t90.5 93t82.5 101.5t53 99.5t22 102q0 65 -35 102.5t-94 37.5q-69 0 -127 -49.5t-94 -147.5h-12q27 127 105 196.5t181 69.5q89 0 143 -50.5t54 -129.5q0 -35 -13 -72.5t-29.5 -69
t-53 -73t-62 -68t-80 -73t-82.5 -69.5t-94 -75t-92 -73z" />
    <glyph glyph-name="uni00B3" unicode="&#xb3;" horiz-adv-x="579" 
d="M449 1133l-9 -5q77 -28 119.5 -82t42.5 -126q0 -111 -90.5 -196t-216.5 -85q-60 0 -120.5 21t-96.5 49l45 143h12q2 -88 43.5 -138t116.5 -50q89 0 150 64.5t61 152.5q0 72 -44 121t-130 67l-21 4v12l39 21q31 16 48 26t51 34t53 46t35 55.5t16 69.5q0 107 -115 107
q-64 0 -117 -41.5t-75 -97.5h-13q28 88 93.5 143t156.5 55q77 0 119.5 -37t42.5 -100q0 -133 -196 -233z" />
    <glyph glyph-name="acute" unicode="&#xb4;" horiz-adv-x="1228" 
d="M563 1200l-8 6q28 42 89.5 144t110.5 180.5t62 91.5q29 25 55 25q30 0 51 -19.5t21 -48.5q0 -30 -31 -61q-62 -62 -350 -318z" />
    <glyph glyph-name="uni00B5" unicode="&#xb5;" horiz-adv-x="1052" 
d="M1030 297l10 -8q-79 -150 -161 -232t-156 -82q-121 0 -72 220l107 487q-116 -316 -271.5 -511.5t-306.5 -195.5q-16 0 -24 2l-86 -401l-168 -43h-8l178 834l151 710l162 17h8l-157 -742q-29 -142 -24 -190q8 -66 67 -66q60 0 138 75.5t155.5 203t150 313.5t117.5 389
l159 17h9l-187 -883q-26 -105 13 -105q52 0 196 191z" />
    <glyph glyph-name="paragraph" unicode="&#xb6;" horiz-adv-x="993" 
d="M696 1556h453l-2 -12q-41 0 -71.5 -13t-50.5 -32t-35.5 -55t-24.5 -68.5t-21 -85.5l-266 -1263q-19 -91 -63.5 -168t-102.5 -131.5t-129.5 -96t-143 -65t-145.5 -33.5v12q108 29 175.5 123t103.5 260l159 750q-175 20 -269.5 121t-94.5 258q0 240 144 369.5t384 129.5z
M641 31l315 1493h-206l-340 -1600q-27 -125 -69.5 -205t-109.5 -127q154 51 264 160.5t146 278.5z" />
    <glyph glyph-name="periodcentered" unicode="&#xb7;" horiz-adv-x="370" 
d="M193 453q-49 0 -84 34.5t-35 81.5q0 49 35 84t84 35q47 0 81.5 -35t34.5 -84q0 -47 -34.5 -81.5t-81.5 -34.5z" />
    <glyph glyph-name="cedilla" unicode="&#xb8;" horiz-adv-x="1228" 
d="M549 0l-64 -98q85 -3 140 -40t55 -108q0 -79 -66 -133.5t-170 -54.5q-53 0 -87.5 16t-71.5 47l8 11q24 -18 65 -30.5t80 -12.5q55 0 92 33.5t37 80.5q0 24 -11 41.5t-26.5 26.5t-41.5 14.5t-47 6.5t-52 1l127 199h33z" />
    <glyph glyph-name="uni00B9" unicode="&#xb9;" horiz-adv-x="409" 
d="M475 1505l-153 -723q-14 -68 2.5 -93t78.5 -25l-2 -13h-323l2 13q63 0 93.5 26t45.5 92l115 537q-84 -35 -148 -43l2 12q94 30 156.5 83t118.5 134h12z" />
    <glyph glyph-name="ordmasculine" unicode="&#xba;" horiz-adv-x="677" 
d="M414 807q-108 0 -173 71t-65 193q0 108 45.5 210.5t128 169.5t178.5 67q107 0 171.5 -71.5t64.5 -193.5q0 -108 -45.5 -210.5t-127.5 -169t-177 -66.5zM412 831q68 0 126 82.5t87.5 192t29.5 207.5q0 180 -127 180q-67 0 -124.5 -82t-87 -191.5t-29.5 -207.5
q0 -181 125 -181z" />
    <glyph glyph-name="guillemotright" unicode="&#xbb;" horiz-adv-x="772" 
d="M190 1073h13l190 -516l-411 -516h-13l269 530zM471 1073h12l230 -516l-451 -516h-12l305 528z" />
    <glyph glyph-name="onequarter" unicode="&#xbc;" horiz-adv-x="1310" 
d="M498 664l-2 -13h-322l2 13q62 0 93 26t44 92l115 537q-90 -36 -147 -43l4 12q92 30 154 83t118 134h12l-151 -723q-15 -68 2 -93t78 -25zM16 0l1217 1491h47l-1217 -1491h-47zM1032 317h88q52 0 70 21h12l-49 -105h-139l-21 -96q-15 -72 -4 -98.5t58 -26.5l-3 -12h-260
l2 12q46 0 68 26t37 99l20 96h-323l-15 37l560 582h12zM655 317h273l78 367z" />
    <glyph glyph-name="onehalf" unicode="&#xbd;" horiz-adv-x="1382" 
d="M492 664l-3 -13h-321l2 13q62 0 93 26t44 92l115 537q-90 -36 -148 -43l5 12q92 30 154 83t118 134h12l-151 -723q-15 -68 2 -93t78 -25zM10 0l1217 1491h47l-1217 -1491h-47zM1229 672q0 -32 -8 -63.5t-28 -64.5t-39 -61t-55 -64.5t-61.5 -61.5t-73.5 -64.5t-75.5 -62
t-83 -67t-82.5 -65.5h238q86 0 128 18t82 77h13l-92 -189h-494l2 8l162 146q59 52 98 89t90.5 93t82.5 101.5t53 99.5t22 102q0 65 -35 102t-94 37q-69 0 -127.5 -49t-93.5 -147h-13q29 127 107 196.5t182 69.5q88 0 141.5 -50.5t53.5 -129.5z" />
    <glyph glyph-name="threequarters" unicode="&#xbe;" horiz-adv-x="1443" 
d="M621 920q0 -110 -91 -195.5t-217 -85.5q-60 0 -120.5 21t-96.5 49l45 143h13q2 -88 43.5 -138t115.5 -50q89 0 150 64.5t61 152.5q0 72 -44 121t-130 67l-20 4v12l39 21q30 16 47.5 26t51 34t52.5 46t35 55.5t16 69.5q0 107 -114 107q-64 0 -117.5 -41.5t-75.5 -97.5h-12
q28 88 93.5 143t156.5 55q77 0 119.5 -37t42.5 -100q0 -133 -197 -233l-8 -5q77 -28 119.5 -82t42.5 -126zM147 0l1217 1491h47l-1216 -1491h-48zM1165 317h86q54 0 70 21h12l-49 -105h-137l-21 -96q-15 -72 -4.5 -98.5t56.5 -26.5l-2 -12h-261l3 12q46 0 67.5 26t36.5 99
l20 96h-321l-14 37l559 582h12zM786 317h275l78 367z" />
    <glyph glyph-name="questiondown" unicode="&#xbf;" horiz-adv-x="854" 
d="M584 1116q50 0 85.5 -36t35.5 -85t-35.5 -85t-85.5 -36t-85.5 36t-35.5 85t35.5 85t85.5 36zM500 700q42 0 63 -22t21 -55q0 -34 -29.5 -80t-76.5 -96.5t-103.5 -108t-113.5 -124t-104 -136t-76.5 -152t-29.5 -164.5q0 -104 54 -163.5t155 -59.5q119 0 219 97.5
t176 275.5h13l-68 -328q-204 -76 -348 -76q-161 0 -261 77.5t-100 205.5q0 76 35 153.5t91 144t123.5 130.5t135.5 120.5t124 107t91 97t35 83.5q0 25 -13 40t-40 15q-23 0 -47 -8l-2 10q37 16 76 16z" />
    <glyph glyph-name="Agrave" unicode="&#xc0;" horiz-adv-x="1214" 
d="M864 1606l-10 -4q-29 57 -109.5 181.5t-93.5 149.5q-12 24 -12 43q0 31 23 51.5t51 20.5q52 0 69 -51q5 -15 35 -170.5t47 -220.5zM825 1516l172 -1254q20 -138 46 -191t87 -59l-2 -12h-466l2 12q92 6 131 54.5t26 148.5l-41 307h-483l-78 -139q-37 -66 -60 -111
t-40.5 -89t-20.5 -71.5t5 -50t31 -34.5t61 -15l-2 -12h-338l2 12q69 11 138 96.5t183 284.5l631 1123h16zM688 1223l-364 -652h450z" />
    <glyph glyph-name="Aacute" unicode="&#xc1;" horiz-adv-x="1214" 
d="M1063 1919q-40 -41 -350 -317l-8 6q28 42 89.5 143.5t110.5 180t62 91.5q29 25 55 25q30 0 51 -19.5t21 -48.5q0 -25 -31 -61zM825 1516l172 -1254q20 -138 46 -191t87 -59l-2 -12h-466l2 12q92 6 131 54.5t26 148.5l-41 307h-483l-78 -139q-37 -66 -60 -111t-40.5 -89
t-20.5 -71.5t5 -50t31 -34.5t61 -15l-2 -12h-338l2 12q69 11 138 96.5t183 284.5l631 1123h16zM688 1223l-364 -652h450z" />
    <glyph glyph-name="Acircumflex" unicode="&#xc2;" horiz-adv-x="1214" 
d="M1087 1602l-251 233l-359 -233l-4 10l391 405h13l219 -405zM825 1516l172 -1254q20 -138 46 -191t87 -59l-2 -12h-466l2 12q92 6 131 54.5t26 148.5l-41 307h-483l-78 -139q-37 -66 -60 -111t-40.5 -89t-20.5 -71.5t5 -50t31 -34.5t61 -15l-2 -12h-338l2 12
q69 11 138 96.5t183 284.5l631 1123h16zM688 1223l-364 -652h450z" />
    <glyph glyph-name="Atilde" unicode="&#xc3;" horiz-adv-x="1214" 
d="M635 1767q-44 0 -75.5 -29t-63.5 -100l-13 2q34 118 79.5 178t111.5 60q33 0 78.5 -19t83 -41.5t81 -41.5t74.5 -19q44 0 75.5 29.5t63.5 101.5l13 -2q-34 -119 -79 -179t-112 -60q-42 0 -102 30t-118.5 60t-96.5 30zM825 1516l172 -1254q20 -138 46 -191t87 -59l-2 -12
h-466l2 12q92 6 131 54.5t26 148.5l-41 307h-483l-78 -139q-37 -66 -60 -111t-40.5 -89t-20.5 -71.5t5 -50t31 -34.5t61 -15l-2 -12h-338l2 12q69 11 138 96.5t183 284.5l631 1123h16zM688 1223l-364 -652h450z" />
    <glyph glyph-name="Adieresis" unicode="&#xc4;" horiz-adv-x="1214" 
d="M631 1661q-46 0 -78.5 32.5t-32.5 78.5t32.5 78t78.5 32t78 -32t32 -78t-32 -78.5t-78 -32.5zM1006 1661q-47 0 -80 32.5t-33 78.5t33 78t80 32q44 0 76 -32t32 -78t-32 -78.5t-76 -32.5zM825 1516l172 -1254q20 -138 46 -191t87 -59l-2 -12h-466l2 12q92 6 131 54.5
t26 148.5l-41 307h-483l-78 -139q-37 -66 -60 -111t-40.5 -89t-20.5 -71.5t5 -50t31 -34.5t61 -15l-2 -12h-338l2 12q69 11 138 96.5t183 284.5l631 1123h16zM688 1223l-364 -652h450z" />
    <glyph glyph-name="Aring" unicode="&#xc5;" horiz-adv-x="1214" 
d="M829 1483l168 -1221q18 -136 44.5 -190t88.5 -60l-2 -12h-466l2 12q92 6 131 54.5t26 148.5l-41 307h-483l-78 -139q-37 -66 -60 -111t-40.5 -89t-20.5 -71.5t5 -50t31 -34.5t61 -15l-2 -12h-338l2 12q70 11 140 97.5t181 283.5l613 1092q-71 9 -112.5 54t-41.5 112
q0 99 69 168t168 69q87 0 138 -46.5t51 -123.5q0 -98 -67 -166t-167 -69zM719 1624q0 -113 104 -113q74 0 116 73.5t42 162.5q0 113 -104 113q-74 0 -116 -73.5t-42 -162.5zM688 1223l-364 -652h450z" />
    <glyph glyph-name="AE" unicode="&#xc6;" horiz-adv-x="1830" 
d="M1929 1491l-37 -307h-12q-28 120 -64.5 176.5t-96.5 77t-177 20.5h-276l-142 -665h213q92 0 147 19.5t88.5 59.5t69.5 121h13l-96 -448h-13q-2 60 -10.5 95.5t-31 65t-65 42t-110.5 12.5h-213l-133 -631q-11 -48 2.5 -72t58.5 -24h226q88 0 142.5 10t112 43.5t108.5 93
t120 164.5h12l-120 -344h-1018l2 12q41 0 71 11t49 27.5t34 50t23.5 64t20.5 83.5l68 323h-461l-143 -192q-175 -235 -164 -315q6 -46 68 -52l-2 -12h-338l2 12q132 25 399 383l518 701q87 114 127.5 182.5t40.5 112.5q0 79 -158 88l2 12h1143zM471 621h434l174 817z" />
    <glyph glyph-name="Ccedilla" unicode="&#xc7;" horiz-adv-x="1241" 
d="M932 1516q237 0 428 -123l-39 -236h-12q-46 160 -139.5 245t-231.5 85q-100 0 -192.5 -44t-163.5 -118.5t-130 -173.5t-97 -210t-58.5 -226t-20.5 -223q0 -222 93 -355t272 -133q283 0 512 367h12l-94 -291q-67 -30 -117.5 -49.5t-135 -37.5t-167.5 -18h-2l-47 -73
q84 -3 138.5 -40t54.5 -108q0 -80 -65 -134t-169 -54q-53 0 -88 16t-72 47l9 11q24 -18 65 -30.5t80 -12.5q55 0 92 33.5t37 80.5q0 24 -11 41.5t-26.5 26.5t-41.5 14.5t-47 6.5t-52 1l112 174q-255 10 -393.5 166.5t-138.5 419.5q0 138 36 274.5t108.5 259t172 216.5
t237 149.5t292.5 55.5z" />
    <glyph glyph-name="Egrave" unicode="&#xc8;" horiz-adv-x="1142" 
d="M842 1606l-8 -4q-30 56 -109.5 180t-93.5 151q-13 26 -13 43q0 31 22.5 51.5t51.5 20.5q51 0 68 -51q5 -15 35 -170.5t47 -220.5zM240 1479l2 12h1001l-37 -307h-12q-28 120 -64.5 176.5t-96.5 77t-177 20.5h-293l-141 -665h229q92 0 146.5 19.5t87.5 59.5t69 121h13
l-95 -448h-12q-2 60 -10.5 95.5t-31 65t-65 42t-110.5 12.5h-229l-133 -631q-10 -49 3 -72.5t58 -23.5h242q88 0 142.5 10t112 43.5t108.5 93t120 164.5h12l-121 -344h-1032l2 12q34 0 60.5 7t46 23t33.5 34.5t25 49.5t18 59t16 71l209 979q9 45 13.5 71.5t6.5 58.5t-4 49.5
t-18.5 34t-36 23.5t-57.5 7z" />
    <glyph glyph-name="Eacute" unicode="&#xc9;" horiz-adv-x="1142" 
d="M1040 1919q-40 -41 -350 -317l-6 6q25 38 88.5 142.5t111.5 181.5t62 91q29 25 55 25q29 0 49.5 -19.5t20.5 -48.5q0 -30 -31 -61zM240 1479l2 12h1001l-37 -307h-12q-28 120 -64.5 176.5t-96.5 77t-177 20.5h-293l-141 -665h229q92 0 146.5 19.5t87.5 59.5t69 121h13
l-95 -448h-12q-2 60 -10.5 95.5t-31 65t-65 42t-110.5 12.5h-229l-133 -631q-10 -49 3 -72.5t58 -23.5h242q88 0 142.5 10t112 43.5t108.5 93t120 164.5h12l-121 -344h-1032l2 12q34 0 60.5 7t46 23t33.5 34.5t25 49.5t18 59t16 71l209 979q9 45 13.5 71.5t6.5 58.5t-4 49.5
t-18.5 34t-36 23.5t-57.5 7z" />
    <glyph glyph-name="Ecircumflex" unicode="&#xca;" horiz-adv-x="1142" 
d="M1065 1602l-250 233l-358 -233l-4 10l391 405h12l217 -405zM240 1479l2 12h1001l-37 -307h-12q-28 120 -64.5 176.5t-96.5 77t-177 20.5h-293l-141 -665h229q92 0 146.5 19.5t87.5 59.5t69 121h13l-95 -448h-12q-2 60 -10.5 95.5t-31 65t-65 42t-110.5 12.5h-229
l-133 -631q-10 -49 3 -72.5t58 -23.5h242q88 0 142.5 10t112 43.5t108.5 93t120 164.5h12l-121 -344h-1032l2 12q34 0 60.5 7t46 23t33.5 34.5t25 49.5t18 59t16 71l209 979q9 45 13.5 71.5t6.5 58.5t-4 49.5t-18.5 34t-36 23.5t-57.5 7z" />
    <glyph glyph-name="Edieresis" unicode="&#xcb;" horiz-adv-x="1142" 
d="M608 1661q-46 0 -78 32.5t-32 78.5t32 78t78 32t78.5 -32t32.5 -78t-32.5 -78.5t-78.5 -32.5zM983 1661q-46 0 -78.5 32.5t-32.5 78.5t32.5 78t78.5 32t78.5 -32t32.5 -78t-32.5 -78.5t-78.5 -32.5zM240 1479l2 12h1001l-37 -307h-12q-28 120 -64.5 176.5t-96.5 77
t-177 20.5h-293l-141 -665h229q92 0 146.5 19.5t87.5 59.5t69 121h13l-95 -448h-12q-2 60 -10.5 95.5t-31 65t-65 42t-110.5 12.5h-229l-133 -631q-10 -49 3 -72.5t58 -23.5h242q88 0 142.5 10t112 43.5t108.5 93t120 164.5h12l-121 -344h-1032l2 12q34 0 60.5 7t46 23
t33.5 34.5t25 49.5t18 59t16 71l209 979q9 45 13.5 71.5t6.5 58.5t-4 49.5t-18.5 34t-36 23.5t-57.5 7z" />
    <glyph glyph-name="Igrave" unicode="&#xcc;" horiz-adv-x="555" 
d="M567 1606l-8 -4q-31 58 -111.5 182.5t-93.5 148.5q-12 24 -12 43q0 31 23.5 51.5t52.5 20.5q50 0 67 -51q5 -15 35 -170.5t47 -220.5zM401 0h-475l2 12q34 0 60.5 7t46 23t33.5 34.5t25 49.5t18 59t16 71l209 979q9 45 13.5 71.5t6.5 58.5t-4 49.5t-18.5 34t-36 23.5
t-57.5 7l2 12h475l-2 -12q-34 0 -60.5 -7t-46 -23t-33.5 -34.5t-25 -49.5t-18 -59t-16 -71l-209 -979q-9 -45 -13.5 -71.5t-6.5 -58.5t4 -49.5t18.5 -34t36 -23.5t57.5 -7z" />
    <glyph glyph-name="Iacute" unicode="&#xcd;" horiz-adv-x="555" 
d="M383 1602l-8 6q28 42 89.5 143.5t110.5 180t62 91.5q32 25 57 25q28 0 49 -19.5t21 -48.5q0 -30 -31 -61q-40 -41 -350 -317zM401 0h-475l2 12q34 0 60.5 7t46 23t33.5 34.5t25 49.5t18 59t16 71l209 979q9 45 13.5 71.5t6.5 58.5t-4 49.5t-18.5 34t-36 23.5t-57.5 7
l2 12h475l-2 -12q-34 0 -60.5 -7t-46 -23t-33.5 -34.5t-25 -49.5t-18 -59t-16 -71l-209 -979q-9 -45 -13.5 -71.5t-6.5 -58.5t4 -49.5t18.5 -34t36 -23.5t57.5 -7z" />
    <glyph glyph-name="Icircumflex" unicode="&#xce;" horiz-adv-x="555" 
d="M586 2017h12l219 -405l-8 -10l-252 233l-358 -233l-4 10zM240 1479l2 12h475l-2 -12q-34 0 -60.5 -7t-46 -23t-33.5 -34.5t-25 -49.5t-18 -59t-16 -71l-209 -979q-9 -45 -13.5 -71.5t-6.5 -58.5t4 -49.5t18.5 -34t36 -23.5t57.5 -7l-2 -12h-475l2 12q34 0 60.5 7t46 23
t33.5 34.5t25 49.5t18 59t16 71l209 979q9 45 13.5 71.5t6.5 58.5t-4 49.5t-18.5 34t-36 23.5t-57.5 7z" />
    <glyph glyph-name="Idieresis" unicode="&#xcf;" horiz-adv-x="555" 
d="M352 1661q-46 0 -78 32.5t-32 78.5t32 78t78 32t78.5 -32t32.5 -78t-32.5 -78.5t-78.5 -32.5zM727 1661q-47 0 -80 32.5t-33 78.5t33 78t80 32q46 0 78.5 -32t32.5 -78t-32.5 -78.5t-78.5 -32.5zM401 0h-475l2 12q34 0 60.5 7t46 23t33.5 34.5t25 49.5t18 59t16 71
l209 979q9 45 13.5 71.5t6.5 58.5t-4 49.5t-18.5 34t-36 23.5t-57.5 7l2 12h475l-2 -12q-34 0 -60.5 -7t-46 -23t-33.5 -34.5t-25 -49.5t-18 -59t-16 -71l-209 -979q-9 -45 -13.5 -71.5t-6.5 -58.5t4 -49.5t18.5 -34t36 -23.5t57.5 -7z" />
    <glyph glyph-name="Eth" unicode="&#xd0;" horiz-adv-x="1439" 
d="M250 1491h571q296 0 456.5 -151t160.5 -418q0 -150 -41.5 -288.5t-121 -253t-188.5 -200t-252 -133t-303 -47.5h-598l3 12q41 0 71 11t49 27.5t34 50t23.5 64t20.5 83.5l107 500h-162l8 40h162l96 455q11 53 15.5 85.5t3 64.5t-14 48.5t-37.5 27t-65 10.5zM516 33
q142 0 263 53.5t205.5 143.5t144 209t88 250.5t28.5 266.5q0 244 -113 373t-321 129h-162q-36 0 -61.5 -19t-32.5 -55l-127 -596h313l-8 -40h-313l-123 -584q-8 -30 -1.5 -54t27.5 -41.5t69 -26.5t124 -9z" />
    <glyph glyph-name="Ntilde" unicode="&#xd1;" horiz-adv-x="1320" 
d="M688 1767q-44 0 -75.5 -29t-63.5 -100l-12 2q34 118 79 178t111 60q33 0 78.5 -19t83 -41.5t81 -41.5t74.5 -19q44 0 76 29.5t64 101.5l12 -2q-32 -119 -77 -179t-113 -60q-42 0 -102 30t-119 60t-97 30zM1114 1479l2 12h381l-2 -12q-40 0 -72.5 -17t-56 -46t-43.5 -77
t-34 -98t-29 -121l-242 -1145h-12l-596 1368l-211 -993q-13 -63 -19 -111t-3 -92.5t16.5 -73t42.5 -45t73 -16.5l-4 -12h-399l4 12q100 0 158 87.5t92 250.5l194 910q23 105 -8 156t-125 63l2 12h316l514 -1182l170 811q19 87 24.5 148.5t-3.5 111.5t-41.5 74.5t-88.5 24.5z
" />
    <glyph glyph-name="Ograve" unicode="&#xd2;" horiz-adv-x="1452" 
d="M989 1606l-10 -4q-29 57 -109.5 181.5t-93.5 149.5q-12 24 -12 43q0 31 22.5 51.5t51.5 20.5q52 0 67 -51q7 -18 37.5 -174t46.5 -217zM655 -25q-267 0 -416 158t-149 428q0 146 36.5 287t107.5 261t166 211.5t220 143.5t263 52q268 0 418.5 -157.5t150.5 -428.5
q0 -183 -59 -355.5t-161.5 -305.5t-253.5 -213.5t-323 -80.5zM647 4q108 0 206.5 62t171.5 165t127.5 233t82 268.5t27.5 268.5q0 220 -94 353t-273 133q-135 0 -253.5 -95t-196 -242.5t-122 -322t-44.5 -338.5q0 -220 94.5 -352.5t273.5 -132.5z" />
    <glyph glyph-name="Oacute" unicode="&#xd3;" horiz-adv-x="1452" 
d="M836 1602l-7 6q24 37 88 142.5t112.5 182t62.5 90.5q29 25 55 25q29 0 49.5 -19.5t20.5 -48.5q0 -27 -29 -61q-24 -25 -82 -77.5t-163.5 -145.5t-106.5 -94zM655 -25q-267 0 -416 158t-149 428q0 146 36.5 287t107.5 261t166 211.5t220 143.5t263 52q268 0 418.5 -157.5
t150.5 -428.5q0 -183 -59 -355.5t-161.5 -305.5t-253.5 -213.5t-323 -80.5zM647 4q108 0 206.5 62t171.5 165t127.5 233t82 268.5t27.5 268.5q0 220 -94 353t-273 133q-135 0 -253.5 -95t-196 -242.5t-122 -322t-44.5 -338.5q0 -220 94.5 -352.5t273.5 -132.5z" />
    <glyph glyph-name="Ocircumflex" unicode="&#xd4;" horiz-adv-x="1452" 
d="M1212 1602l-251 233l-359 -233l-4 10l391 405h12l220 -405zM883 1516q268 0 418.5 -157.5t150.5 -428.5q0 -183 -59 -355.5t-161.5 -305.5t-253.5 -213.5t-323 -80.5q-267 0 -416 158t-149 428q0 146 36.5 287t107.5 261t166 211.5t220 143.5t263 52zM647 4
q108 0 206.5 62t171.5 165t127.5 233t82 268.5t27.5 268.5q0 220 -94 353t-273 133q-135 0 -253.5 -95t-196 -242.5t-122 -322t-44.5 -338.5q0 -220 94.5 -352.5t273.5 -132.5z" />
    <glyph glyph-name="Otilde" unicode="&#xd5;" horiz-adv-x="1452" 
d="M618 1638l-12 2q34 118 79.5 178t113.5 60q51 0 161 -60.5t154 -60.5q46 0 77.5 29.5t63.5 101.5l13 -2q-34 -119 -79 -179t-112 -60q-42 0 -102 30t-118.5 60t-96.5 30q-45 0 -77.5 -29.5t-64.5 -99.5zM655 -25q-267 0 -416 158t-149 428q0 146 36.5 287t107.5 261
t166 211.5t220 143.5t263 52q268 0 418.5 -157.5t150.5 -428.5q0 -183 -59 -355.5t-161.5 -305.5t-253.5 -213.5t-323 -80.5zM647 4q108 0 206.5 62t171.5 165t127.5 233t82 268.5t27.5 268.5q0 220 -94 353t-273 133q-135 0 -253.5 -95t-196 -242.5t-122 -322t-44.5 -338.5
q0 -220 94.5 -352.5t273.5 -132.5z" />
    <glyph glyph-name="Odieresis" unicode="&#xd6;" horiz-adv-x="1452" 
d="M756 1661q-47 0 -80 32.5t-33 78.5t33 78t80 32q44 0 76 -32t32 -78t-32 -78.5t-76 -32.5zM1128 1661q-46 0 -78 32.5t-32 78.5t32 78t78 32t78.5 -32t32.5 -78t-32.5 -78.5t-78.5 -32.5zM655 -25q-267 0 -416 158t-149 428q0 146 36.5 287t107.5 261t166 211.5
t220 143.5t263 52q268 0 418.5 -157.5t150.5 -428.5q0 -183 -59 -355.5t-161.5 -305.5t-253.5 -213.5t-323 -80.5zM647 4q108 0 206.5 62t171.5 165t127.5 233t82 268.5t27.5 268.5q0 220 -94 353t-273 133q-135 0 -253.5 -95t-196 -242.5t-122 -322t-44.5 -338.5
q0 -220 94.5 -352.5t273.5 -132.5z" />
    <glyph glyph-name="multiply" unicode="&#xd7;" horiz-adv-x="1040" 
d="M909 1122l31 -30l-348 -349l346 -346l-31 -30l-346 346l-346 -346l-31 30l346 346l-348 349l31 30l348 -348z" />
    <glyph glyph-name="Oslash" unicode="&#xd8;" horiz-adv-x="1456" 
d="M1526 1593l28 -20l-225 -246q123 -151 123 -397q0 -146 -36.5 -287t-107.5 -261t-166.5 -211.5t-221 -143.5t-263.5 -52q-268 0 -421 162l-220 -239l-28 20l225 246q-123 154 -123 397q0 146 37 287t108 261t166.5 211.5t220.5 143.5t263 52q272 0 422 -162zM281 489
q0 -125 30 -219l910 990q-42 107 -124.5 167t-199.5 60q-135 0 -253.5 -95t-196 -242.5t-122 -322t-44.5 -338.5zM1264 1001q0 120 -31 222l-909 -992q43 -108 124 -167.5t199 -59.5q91 0 175.5 44t151 119t122 174.5t92 210t56.5 226t20 223.5z" />
    <glyph glyph-name="Ugrave" unicode="&#xd9;" horiz-adv-x="1318" 
d="M989 1606l-8 -4q-30 56 -110.5 180t-94.5 151q-12 24 -12 43q0 31 23 51.5t51 20.5q52 0 69 -51q5 -15 35 -170.5t47 -220.5zM594 -25q-265 0 -374 138t-52 401l154 721q9 43 14 71.5t6.5 59t-4.5 49t-19 34.5t-36.5 23t-57.5 7l4 12h476l-5 -12q-41 0 -71 -12t-49 -29
t-34.5 -52.5t-23.5 -66t-20 -84.5l-152 -715q-54 -246 13.5 -370.5t267.5 -124.5q180 0 297 109.5t164 330.5l139 655q17 81 22.5 142t-2 112t-37 78t-79.5 27l4 12h368l-4 -12q-50 0 -88.5 -26.5t-65.5 -79.5t-45 -110.5t-36 -142.5l-140 -655q-105 -490 -534 -490z" />
    <glyph glyph-name="Uacute" unicode="&#xda;" horiz-adv-x="1318" 
d="M838 1602l-9 6q27 42 89.5 143.5t111 179.5t62.5 92q32 25 57 25q28 0 49 -19.5t21 -48.5q0 -30 -31 -61q-40 -41 -350 -317zM594 -25q-265 0 -374 138t-52 401l154 721q9 43 14 71.5t6.5 59t-4.5 49t-19 34.5t-36.5 23t-57.5 7l4 12h476l-5 -12q-41 0 -71 -12t-49 -29
t-34.5 -52.5t-23.5 -66t-20 -84.5l-152 -715q-54 -246 13.5 -370.5t267.5 -124.5q180 0 297 109.5t164 330.5l139 655q17 81 22.5 142t-2 112t-37 78t-79.5 27l4 12h368l-4 -12q-50 0 -88.5 -26.5t-65.5 -79.5t-45 -110.5t-36 -142.5l-140 -655q-105 -490 -534 -490z" />
    <glyph glyph-name="Ucircumflex" unicode="&#xdb;" horiz-adv-x="1318" 
d="M1212 1602l-249 233l-359 -233l-4 10l391 405h10l220 -405zM1135 1479l4 12h368l-4 -12q-50 0 -88.5 -26.5t-65.5 -79.5t-45 -110.5t-36 -142.5l-140 -655q-105 -490 -534 -490q-265 0 -374 138t-52 401l154 721q9 43 14 71.5t6.5 59t-4.5 49t-19 34.5t-36.5 23t-57.5 7
l4 12h476l-5 -12q-41 0 -71 -12t-49 -29t-34.5 -52.5t-23.5 -66t-20 -84.5l-152 -715q-54 -246 13.5 -370.5t267.5 -124.5q180 0 297 109.5t164 330.5l139 655q17 81 22.5 142t-2 112t-37 78t-79.5 27z" />
    <glyph glyph-name="Udieresis" unicode="&#xdc;" horiz-adv-x="1318" 
d="M756 1661q-46 0 -78.5 32.5t-32.5 78.5t32.5 78t78.5 32t78 -32t32 -78t-32 -78.5t-78 -32.5zM1130 1661q-46 0 -78 32.5t-32 78.5t32 78t78 32t78.5 -32t32.5 -78t-32.5 -78.5t-78.5 -32.5zM594 -25q-265 0 -374 138t-52 401l154 721q9 43 14 71.5t6.5 59t-4.5 49
t-19 34.5t-36.5 23t-57.5 7l4 12h476l-5 -12q-41 0 -71 -12t-49 -29t-34.5 -52.5t-23.5 -66t-20 -84.5l-152 -715q-54 -246 13.5 -370.5t267.5 -124.5q180 0 297 109.5t164 330.5l139 655q17 81 22.5 142t-2 112t-37 78t-79.5 27l4 12h368l-4 -12q-50 0 -88.5 -26.5
t-65.5 -79.5t-45 -110.5t-36 -142.5l-140 -655q-105 -490 -534 -490z" />
    <glyph glyph-name="Yacute" unicode="&#xdd;" horiz-adv-x="1165" 
d="M1057 1919q-40 -41 -350 -317l-9 6q27 42 89.5 143.5t111 179.5t62.5 92q32 25 57 25q28 0 48.5 -19.5t20.5 -48.5q0 -31 -30 -61zM1067 1479l2 12h338l-2 -12q-81 -11 -174 -104.5t-230 -282.5l-296 -416l-91 -420q-9 -43 -14 -71.5t-6.5 -59t4.5 -49t19 -34.5t36.5 -23
t57.5 -7l-2 -12h-478l2 12q41 0 71.5 11.5t50 29.5t35 52.5t24 66t20.5 84.5l84 393l-164 580q-42 142 -72.5 192.5t-82.5 57.5l2 12h458l-2 -12q-189 -12 -135 -195l166 -569l279 393q49 68 79 113t54.5 88t32 69.5t5 48.5t-20.5 34t-50 18z" />
    <glyph glyph-name="Thorn" unicode="&#xde;" horiz-adv-x="1095" 
d="M516 1243h164q200 0 315 -96t115 -264q0 -214 -154.5 -354t-396.5 -140q-116 0 -215 37l-37 -178q-17 -78 -19 -130.5t27 -79t97 -26.5l-2 -12h-484l2 12q34 0 60 6t45.5 21.5t32.5 32t24 47.5t18 57.5t17 71.5l211 995q12 53 16.5 86t3.5 64.5t-13.5 48.5t-37.5 27
t-65 10l2 12h475l-2 -12q-51 0 -84.5 -14t-55 -48.5t-33.5 -71t-26 -102.5zM506 432q99 0 180.5 40.5t133 108t79 153t27.5 179.5q0 143 -69.5 220t-199.5 77h-67q-79 0 -94 -73l-131 -609q0 -12 -1.5 -25t6.5 -25.5t22 -23t43 -16.5t71 -6z" />
    <glyph glyph-name="germandbls" unicode="&#xdf;" horiz-adv-x="1048" 
d="M-313 -467v12q125 28 193.5 123.5t103.5 259.5l247 1166q55 256 197 384t342 128q136 0 217.5 -58.5t81.5 -163.5q0 -57 -23.5 -109t-61.5 -92t-83.5 -77t-91 -70t-83.5 -65t-61.5 -68.5t-23.5 -73.5q0 -86 115 -190l57 -55q41 -39 61 -60t48.5 -58.5t40.5 -76.5t12 -84
q0 -144 -107 -237t-268 -93q-83 0 -163 28t-115 65l40 180h13q33 -108 100.5 -171t159.5 -63q98 0 155.5 59.5t57.5 143.5q0 59 -32.5 107.5t-106.5 121.5l-60 56q-139 132 -139 248q0 52 33 102.5t82 90t107 88t107 95.5t82 113.5t33 140.5q0 101 -56 149t-136 48
q-46 0 -94.5 -18t-95.5 -53.5t-84 -98.5t-54 -143l-274 -1291q-85 -390 -473 -440z" />
    <glyph glyph-name="agrave" unicode="&#xe0;" horiz-adv-x="1046" 
d="M788 1204l-10 -4q-29 57 -109.5 182t-93.5 150q-12 24 -12 43q0 31 22.5 51.5t51.5 20.5q53 0 68 -52q7 -17 37 -173.5t46 -217.5zM1024 297l10 -8q-77 -149 -158.5 -231.5t-154.5 -82.5q-121 0 -74 218l51 237q-87 -215 -214 -335t-255 -120q-100 0 -155.5 78.5
t-55.5 225.5q0 110 31 226.5t90.5 221.5t138 188.5t181.5 133t213 49.5q148 0 211 -84l110 71h11l-185 -874q-21 -96 12 -96q28 0 81 51.5t112 130.5zM324 76q75 0 162.5 88.5t164.5 247t115 342.5q10 58 10 110q0 205 -137 205q-82 0 -165 -71.5t-143.5 -181t-99 -245
t-38.5 -258.5q0 -114 34.5 -175.5t96.5 -61.5z" />
    <glyph glyph-name="aacute" unicode="&#xe1;" horiz-adv-x="1046" 
d="M981 1518q-62 -62 -350 -318l-6 6q25 39 88 143.5t111.5 181.5t62.5 91q29 25 55 25q29 0 49.5 -19.5t20.5 -48.5q0 -30 -31 -61zM1024 297l10 -8q-77 -149 -158.5 -231.5t-154.5 -82.5q-121 0 -74 218l51 237q-87 -215 -214 -335t-255 -120q-100 0 -155.5 78.5
t-55.5 225.5q0 110 31 226.5t90.5 221.5t138 188.5t181.5 133t213 49.5q148 0 211 -84l110 71h11l-185 -874q-21 -96 12 -96q28 0 81 51.5t112 130.5zM324 76q75 0 162.5 88.5t164.5 247t115 342.5q10 58 10 110q0 205 -137 205q-82 0 -165 -71.5t-143.5 -181t-99 -245
t-38.5 -258.5q0 -114 34.5 -175.5t96.5 -61.5z" />
    <glyph glyph-name="acircumflex" unicode="&#xe2;" horiz-adv-x="1046" 
d="M989 1200l-231 232l-336 -232l-4 10l368 406h13l198 -406zM1024 297l10 -8q-77 -149 -158.5 -231.5t-154.5 -82.5q-121 0 -74 218l51 237q-87 -215 -214 -335t-255 -120q-100 0 -155.5 78.5t-55.5 225.5q0 110 31 226.5t90.5 221.5t138 188.5t181.5 133t213 49.5
q148 0 211 -84l110 71h11l-185 -874q-21 -96 12 -96q28 0 81 51.5t112 130.5zM324 76q75 0 162.5 88.5t164.5 247t115 342.5q10 58 10 110q0 205 -137 205q-82 0 -165 -71.5t-143.5 -181t-99 -245t-38.5 -258.5q0 -114 34.5 -175.5t96.5 -61.5z" />
    <glyph glyph-name="atilde" unicode="&#xe3;" horiz-adv-x="1046" 
d="M580 1358q-46 0 -77 -28.5t-63 -100.5l-12 2q30 117 75.5 177t112.5 60q33 0 72.5 -18.5t69.5 -40.5t67 -40.5t66 -18.5q46 0 77.5 28.5t63.5 100.5l12 -2q-32 -117 -77.5 -177.5t-112.5 -60.5q-33 0 -71.5 18.5t-68.5 41t-67 41t-67 18.5zM831 115q28 0 81 51.5
t112 130.5l10 -8q-77 -149 -158.5 -231.5t-154.5 -82.5q-121 0 -74 218l51 237q-87 -215 -214 -335t-255 -120q-100 0 -155.5 78.5t-55.5 225.5q0 110 31 226.5t90.5 221.5t138 188.5t181.5 133t213 49.5q148 0 211 -84l110 71h11l-185 -874q-21 -96 12 -96zM324 76
q75 0 162.5 88.5t164.5 247t115 342.5q10 58 10 110q0 205 -137 205q-82 0 -165 -71.5t-143.5 -181t-99 -245t-38.5 -258.5q0 -114 34.5 -175.5t96.5 -61.5z" />
    <glyph glyph-name="adieresis" unicode="&#xe4;" horiz-adv-x="1046" 
d="M569 1260q-46 0 -78 32t-32 78t32 78.5t78 32.5t78.5 -32.5t32.5 -78.5t-32.5 -78t-78.5 -32zM915 1260q-46 0 -78 32t-32 78t32 78.5t78 32.5t78.5 -32.5t32.5 -78.5t-32.5 -78t-78.5 -32zM1024 297l10 -8q-77 -149 -158.5 -231.5t-154.5 -82.5q-121 0 -74 218l51 237
q-87 -215 -214 -335t-255 -120q-100 0 -155.5 78.5t-55.5 225.5q0 110 31 226.5t90.5 221.5t138 188.5t181.5 133t213 49.5q148 0 211 -84l110 71h11l-185 -874q-21 -96 12 -96q28 0 81 51.5t112 130.5zM324 76q75 0 162.5 88.5t164.5 247t115 342.5q10 58 10 110
q0 205 -137 205q-82 0 -165 -71.5t-143.5 -181t-99 -245t-38.5 -258.5q0 -114 34.5 -175.5t96.5 -61.5z" />
    <glyph glyph-name="aring" unicode="&#xe5;" horiz-adv-x="1046" 
d="M725 1204q-86 0 -137 46.5t-51 123.5q0 98 69.5 167t169.5 69q85 0 136 -46.5t51 -123.5q0 -99 -69.5 -167.5t-168.5 -68.5zM776 1581q-50 0 -87.5 -37.5t-54 -89t-16.5 -106.5q0 -115 107 -115q49 0 86 37t53.5 88.5t16.5 107.5q0 115 -105 115zM1024 297l10 -8
q-77 -149 -158.5 -231.5t-154.5 -82.5q-121 0 -74 218l51 237q-87 -215 -214 -335t-255 -120q-100 0 -155.5 78.5t-55.5 225.5q0 110 31 226.5t90.5 221.5t138 188.5t181.5 133t213 49.5q148 0 211 -84l110 71h11l-185 -874q-21 -96 12 -96q28 0 81 51.5t112 130.5zM324 76
q75 0 162.5 88.5t164.5 247t115 342.5q10 58 10 110q0 205 -137 205q-82 0 -165 -71.5t-143.5 -181t-99 -245t-38.5 -258.5q0 -114 34.5 -175.5t96.5 -61.5z" />
    <glyph glyph-name="ae" unicode="&#xe6;" horiz-adv-x="1452" 
d="M1487 940q0 -55 -32 -103.5t-85.5 -88t-142 -80t-183 -73.5t-227.5 -73q-18 -83 -18 -172q0 -274 184 -274q91 0 188.5 64t188.5 175l12 -8q-217 -334 -465 -334q-123 0 -199 78t-83 230q-83 -147 -188 -226.5t-208 -79.5q-100 0 -155.5 78.5t-55.5 225.5q0 110 31 226.5
t90.5 221.5t138 188.5t181.5 133t213 49.5q189 0 237 -137q157 137 353 137q113 0 169 -42.5t56 -115.5zM324 76q69 0 150.5 77.5t152.5 208.5q8 109 45 224.5t100 212.5q4 40 4 65q0 205 -137 205q-82 0 -165 -71.5t-143.5 -181t-99 -245t-38.5 -258.5q0 -114 34.5 -175.5
t96.5 -61.5zM1229 1067q-118 0 -236 -151.5t-168 -358.5q267 94 386.5 181.5t119.5 209.5q0 119 -102 119z" />
    <glyph glyph-name="ccedilla" unicode="&#xe7;" horiz-adv-x="829" 
d="M641 1098q114 0 176 -56t62 -147l-111 -111h-12q17 138 -17.5 211.5t-111.5 73.5q-75 0 -153.5 -64.5t-137.5 -166t-97 -232t-38 -254.5q0 -274 182 -274q90 0 177 61t181 176l13 -8q-93 -147 -183.5 -225t-189.5 -98l-53 -82q85 -3 139.5 -40t54.5 -108
q0 -79 -65 -133.5t-168 -54.5q-55 0 -90 16t-70 47l8 11q24 -18 64.5 -30.5t79.5 -12.5q55 0 93 34t38 80q0 24 -11 41.5t-27 26.5t-42 14.5t-47.5 6.5t-51.5 1l111 176q-12 -2 -37 -2q-129 0 -204.5 85t-75.5 257q0 136 49 276t130.5 251.5t197 182.5t237.5 71z" />
    <glyph glyph-name="egrave" unicode="&#xe8;" horiz-adv-x="849" 
d="M752 1204l-11 -4q-29 57 -109 182t-93 150q-13 26 -13 43q0 31 22.5 51.5t51.5 20.5q53 0 68 -52q7 -18 37.5 -174t46.5 -217zM885 940q0 -55 -31.5 -103.5t-85 -88t-141.5 -80t-182.5 -73.5t-227.5 -73q-18 -82 -18 -172q0 -274 182 -274q91 0 188.5 63.5t190.5 175.5
l12 -8q-217 -334 -467 -334q-128 0 -204 86t-76 252q0 99 26.5 207t81.5 211t129 185.5t178.5 133t221.5 50.5q112 0 167.5 -42.5t55.5 -115.5zM629 1067q-118 0 -236 -151.5t-168 -358.5q267 94 386.5 181.5t119.5 209.5q0 119 -102 119z" />
    <glyph glyph-name="eacute" unicode="&#xe9;" horiz-adv-x="849" 
d="M905 1647q29 0 49.5 -19.5t20.5 -48.5q0 -30 -31 -61q-62 -62 -350 -318l-6 6q25 39 88 143.5t111.5 181.5t62.5 91q29 25 55 25zM662 1098q112 0 167.5 -42.5t55.5 -115.5q0 -55 -31.5 -103.5t-85 -88t-141.5 -80t-182.5 -73.5t-227.5 -73q-18 -82 -18 -172
q0 -274 182 -274q91 0 188.5 63.5t190.5 175.5l12 -8q-217 -334 -467 -334q-128 0 -204 86t-76 252q0 99 26.5 207t81.5 211t129 185.5t178.5 133t221.5 50.5zM225 557q267 94 386.5 181.5t119.5 209.5q0 119 -102 119q-118 0 -236 -151.5t-168 -358.5z" />
    <glyph glyph-name="ecircumflex" unicode="&#xea;" horiz-adv-x="849" 
d="M741 1616h13l196 -406l-8 -10l-229 232l-338 -232l-4 10zM662 1098q112 0 167.5 -42.5t55.5 -115.5q0 -55 -31.5 -103.5t-85 -88t-141.5 -80t-182.5 -73.5t-227.5 -73q-18 -82 -18 -172q0 -274 182 -274q91 0 188.5 63.5t190.5 175.5l12 -8q-217 -334 -467 -334
q-128 0 -204 86t-76 252q0 99 26.5 207t81.5 211t129 185.5t178.5 133t221.5 50.5zM225 557q267 94 386.5 181.5t119.5 209.5q0 119 -102 119q-118 0 -236 -151.5t-168 -358.5z" />
    <glyph glyph-name="edieresis" unicode="&#xeb;" horiz-adv-x="849" 
d="M532 1260q-46 0 -78 32t-32 78t32 78.5t78 32.5t78.5 -32.5t32.5 -78.5t-32.5 -78t-78.5 -32zM879 1481q46 0 78 -32.5t32 -78.5t-32 -78t-78 -32t-78.5 32t-32.5 78t32.5 78.5t78.5 32.5zM662 1098q112 0 167.5 -42.5t55.5 -115.5q0 -55 -31.5 -103.5t-85 -88
t-141.5 -80t-182.5 -73.5t-227.5 -73q-18 -82 -18 -172q0 -274 182 -274q91 0 188.5 63.5t190.5 175.5l12 -8q-217 -334 -467 -334q-128 0 -204 86t-76 252q0 99 26.5 207t81.5 211t129 185.5t178.5 133t221.5 50.5zM225 557q267 94 386.5 181.5t119.5 209.5q0 119 -102 119
q-118 0 -236 -151.5t-168 -358.5z" />
    <glyph glyph-name="igrave" unicode="&#xec;" horiz-adv-x="487" 
d="M455 1204l-9 -4q-31 58 -111 183t-93 149q-13 26 -13 43q0 31 23 51.5t51 20.5q52 0 70 -52q5 -15 35 -170.5t47 -220.5zM160 -25q-121 0 -74 218l143 669q6 28 7.5 38.5t3 30.5t-4.5 28t-18 8q-40 0 -156 -150l-10 8q66 130 140.5 201.5t138.5 71.5q45 0 65 -30.5
t19 -75t-15 -111.5l-141 -670q-15 -72 -4 -88q6 -8 16 -8q28 0 81 51t114 131l10 -8q-79 -149 -160.5 -231.5t-154.5 -82.5z" />
    <glyph glyph-name="iacute" unicode="&#xed;" horiz-adv-x="487" 
d="M299 1200l-8 6q28 42 89.5 144t110.5 180.5t62 91.5q29 25 55 25q30 0 51 -19.5t21 -48.5q0 -25 -31 -61q-62 -62 -350 -318zM160 -25q-121 0 -74 218l143 669q6 28 7.5 38.5t3 30.5t-4.5 28t-18 8q-40 0 -156 -150l-10 8q66 130 140.5 201.5t138.5 71.5q45 0 65 -30.5
t19 -75t-15 -111.5l-141 -670q-15 -72 -4 -88q6 -8 16 -8q28 0 81 51t114 131l10 -8q-79 -149 -160.5 -231.5t-154.5 -82.5z" />
    <glyph glyph-name="icircumflex" unicode="&#xee;" horiz-adv-x="487" 
d="M457 1616h12l197 -406l-9 -10l-229 232l-338 -232l-4 10zM270 115q28 0 81 51t114 131l10 -8q-79 -149 -160.5 -231.5t-154.5 -82.5q-121 0 -74 218l143 669q6 28 7.5 38.5t3 30.5t-4.5 28t-18 8q-40 0 -156 -150l-10 8q66 130 140.5 201.5t138.5 71.5q45 0 65 -30.5
t19 -75t-15 -111.5l-141 -670q-15 -72 -4 -88q6 -8 16 -8z" />
    <glyph glyph-name="idieresis" unicode="&#xef;" horiz-adv-x="487" 
d="M240 1260q-47 0 -80 32t-33 78t33 78.5t80 32.5q44 0 76 -32.5t32 -78.5t-32 -78t-76 -32zM586 1260q-46 0 -78.5 32t-32.5 78t32.5 78.5t78.5 32.5t78 -32.5t32 -78.5t-32 -78t-78 -32zM160 -25q-121 0 -74 218l143 669q6 28 7.5 38.5t3 30.5t-4.5 28t-18 8
q-40 0 -156 -150l-10 8q66 130 140.5 201.5t138.5 71.5q45 0 65 -30.5t19 -75t-15 -111.5l-141 -670q-15 -72 -4 -88q6 -8 16 -8q28 0 81 51t114 131l10 -8q-79 -149 -160.5 -231.5t-154.5 -82.5z" />
    <glyph glyph-name="eth" unicode="&#xf0;" horiz-adv-x="995" 
d="M969 1473l6 -31l-197 -80q89 -106 139 -252.5t50 -321.5q0 -148 -42.5 -293t-116 -260.5t-184 -186.5t-235.5 -71q-160 0 -256 109.5t-96 298.5q0 121 41.5 238.5t112.5 209.5t174 148.5t217 56.5q147 0 219 -102q-15 213 -111 391l-297 -121l-6 31l287 117
q-110 177 -268 215l4 12q198 -28 348 -195zM397 33q73 0 139 49t112 126.5t80.5 171.5t51.5 185t17 166q0 135 -58 207t-147 72q-82 0 -157 -68.5t-124.5 -172.5t-78.5 -224.5t-29 -227.5q0 -137 49.5 -210.5t144.5 -73.5z" />
    <glyph glyph-name="ntilde" unicode="&#xf1;" horiz-adv-x="1091" 
d="M537 1358q-46 0 -78 -29t-64 -100l-12 2q32 117 77.5 177t112.5 60q41 0 91.5 -29.5t99 -59t84.5 -29.5q46 0 77.5 28.5t63.5 100.5l12 -2q-32 -117 -77.5 -177.5t-112.5 -60.5q-33 0 -72.5 18.5t-69 41t-66.5 41t-66 18.5zM1071 297l10 -8q-77 -148 -159 -231t-154 -83
q-127 0 -76 218l121 528q9 39 14.5 66t9.5 59t2 53.5t-8.5 40.5t-22 28t-38.5 9q-87 0 -196.5 -134.5t-208.5 -362t-154 -480.5h-164l182 862q6 28 7.5 38.5t3 30.5t-4.5 28t-18 8q-40 0 -156 -150l-10 8q66 130 140.5 201.5t138.5 71.5q45 0 65 -30.5t19 -75t-15 -111.5
l-106 -490q116 318 270.5 512.5t306.5 194.5q50 0 81.5 -21t45 -55t14 -87t-7.5 -106.5t-24 -123.5l-115 -494q-15 -73 -10 -90q4 -15 20 -15q24 0 75 48t122 143z" />
    <glyph glyph-name="ograve" unicode="&#xf2;" horiz-adv-x="1007" 
d="M717 1204l-8 -4q-31 58 -111.5 183t-93.5 149q-12 24 -12 43q0 31 22.5 51.5t50.5 20.5q52 0 70 -52q5 -15 35 -170.5t47 -220.5zM412 -25q-169 0 -271 113.5t-102 306.5q0 126 43 252.5t115 226t177 162t220 62.5q169 0 270 -114t101 -308q0 -128 -42.5 -254.5
t-115 -225t-177 -160t-218.5 -61.5zM408 4q86 0 162 75.5t124 190t75.5 244t27.5 244.5q0 144 -50 227.5t-149 83.5q-86 0 -161.5 -75.5t-123.5 -190t-76 -244t-28 -244.5q0 -143 50 -227t149 -84z" />
    <glyph glyph-name="oacute" unicode="&#xf3;" horiz-adv-x="1007" 
d="M561 1200l-8 6q28 42 89.5 144t110.5 180.5t62 91.5q29 25 55 25q30 0 51 -19.5t21 -48.5q0 -25 -31 -61q-62 -62 -350 -318zM412 -25q-169 0 -271 113.5t-102 306.5q0 126 43 252.5t115 226t177 162t220 62.5q169 0 270 -114t101 -308q0 -128 -42.5 -254.5t-115 -225
t-177 -160t-218.5 -61.5zM408 4q86 0 162 75.5t124 190t75.5 244t27.5 244.5q0 144 -50 227.5t-149 83.5q-86 0 -161.5 -75.5t-123.5 -190t-76 -244t-28 -244.5q0 -143 50 -227t149 -84z" />
    <glyph glyph-name="ocircumflex" unicode="&#xf4;" horiz-adv-x="1007" 
d="M918 1200l-230 230l-338 -230l-4 10l371 406h12l197 -406zM594 1098q169 0 270 -114t101 -308q0 -128 -42.5 -254.5t-115 -225t-177 -160t-218.5 -61.5q-169 0 -271 113.5t-102 306.5q0 126 43 252.5t115 226t177 162t220 62.5zM408 4q86 0 162 75.5t124 190t75.5 244
t27.5 244.5q0 144 -50 227.5t-149 83.5q-86 0 -161.5 -75.5t-123.5 -190t-76 -244t-28 -244.5q0 -143 50 -227t149 -84z" />
    <glyph glyph-name="otilde" unicode="&#xf5;" horiz-adv-x="1007" 
d="M369 1229l-13 2q32 117 78 177t113 60q41 0 90.5 -29.5t98 -59t85.5 -29.5q46 0 78 29t64 100l12 -2q-32 -117 -78 -177.5t-113 -60.5q-33 0 -72.5 18.5t-69 41t-66.5 41t-66 18.5q-46 0 -77.5 -28.5t-63.5 -100.5zM412 -25q-169 0 -271 113.5t-102 306.5q0 126 43 252.5
t115 226t177 162t220 62.5q169 0 270 -114t101 -308q0 -128 -42.5 -254.5t-115 -225t-177 -160t-218.5 -61.5zM408 4q86 0 162 75.5t124 190t75.5 244t27.5 244.5q0 144 -50 227.5t-149 83.5q-86 0 -161.5 -75.5t-123.5 -190t-76 -244t-28 -244.5q0 -143 50 -227t149 -84z
" />
    <glyph glyph-name="odieresis" unicode="&#xf6;" horiz-adv-x="1007" 
d="M498 1260q-46 0 -78.5 32t-32.5 78t32.5 78.5t78.5 32.5t78 -32.5t32 -78.5t-32 -78t-78 -32zM846 1260q-47 0 -80 32t-33 78t33 78.5t80 32.5q44 0 76 -32.5t32 -78.5t-32 -78t-76 -32zM412 -25q-169 0 -271 113.5t-102 306.5q0 126 43 252.5t115 226t177 162t220 62.5
q169 0 270 -114t101 -308q0 -128 -42.5 -254.5t-115 -225t-177 -160t-218.5 -61.5zM408 4q86 0 162 75.5t124 190t75.5 244t27.5 244.5q0 144 -50 227.5t-149 83.5q-86 0 -161.5 -75.5t-123.5 -190t-76 -244t-28 -244.5q0 -143 50 -227t149 -84z" />
    <glyph glyph-name="divide" unicode="&#xf7;" horiz-adv-x="1040" 
d="M563 1047q-31 0 -52.5 21t-21.5 52t21.5 52.5t52.5 21.5t52.5 -21.5t21.5 -52.5t-21.5 -52t-52.5 -21zM981 725h-836v41h836v-41zM563 297q-31 0 -52.5 21.5t-21.5 52.5t21.5 52t52.5 21t52.5 -21t21.5 -52t-21.5 -52.5t-52.5 -21.5z" />
    <glyph glyph-name="oslash" unicode="&#xf8;" horiz-adv-x="1003" 
d="M1012 1176l26 -19l-159 -192q82 -108 82 -283q0 -127 -42.5 -254.5t-115 -227.5t-176 -162.5t-217.5 -62.5q-163 0 -267 107l-153 -184l-25 18l158 190q-84 114 -84 285q0 127 43 254.5t115.5 227.5t176.5 162.5t218 62.5q163 0 266 -109zM205 299q0 -45 6 -88l571 690
q-19 79 -66.5 123.5t-121.5 44.5q-82 0 -157 -78.5t-124 -196t-78.5 -250.5t-29.5 -245zM797 774q0 46 -6 86l-572 -688q19 -79 67 -123.5t122 -44.5q82 0 157 78.5t124 196t78.5 250.5t29.5 245z" />
    <glyph glyph-name="ugrave" unicode="&#xf9;" horiz-adv-x="1091" 
d="M756 1204l-11 -4q-30 59 -110.5 185t-91.5 147q-13 26 -13 43q0 31 23 51.5t51 20.5q52 0 70 -52q5 -15 35 -170.5t47 -220.5zM1069 297l10 -8q-77 -149 -159.5 -231.5t-155.5 -82.5q-46 0 -67.5 29.5t-20 78t13.5 110.5l105 481q-118 -315 -271.5 -507t-304.5 -192
q-41 0 -70 14t-44 41.5t-21.5 61.5t-3 81t11.5 92.5t21 103.5l112 493q15 73 11 90q-4 15 -19 15q-42 0 -158 -150l-10 8q66 130 139 201.5t134 71.5q126 0 75 -217l-121 -529q-9 -39 -14.5 -66t-9.5 -59t-2 -53.5t8.5 -40.5t22 -28t38.5 -9q60 0 138 74.5t154.5 199.5
t147.5 305.5t113 375.5l162 26h10l-184 -866q-6 -28 -7.5 -38.5t-3 -30.5t4.5 -28t18 -8q25 0 75.5 47.5t121.5 143.5z" />
    <glyph glyph-name="uacute" unicode="&#xfa;" horiz-adv-x="1091" 
d="M950 1518q-46 -46 -352 -318l-6 6q28 42 89.5 144t110.5 180.5t62 91.5q29 25 55 25q29 0 49.5 -19.5t20.5 -48.5q0 -27 -29 -61zM1069 297l10 -8q-77 -149 -159.5 -231.5t-155.5 -82.5q-46 0 -67.5 29.5t-20 78t13.5 110.5l105 481q-118 -315 -271.5 -507t-304.5 -192
q-41 0 -70 14t-44 41.5t-21.5 61.5t-3 81t11.5 92.5t21 103.5l112 493q15 73 11 90q-4 15 -19 15q-42 0 -158 -150l-10 8q66 130 139 201.5t134 71.5q126 0 75 -217l-121 -529q-9 -39 -14.5 -66t-9.5 -59t-2 -53.5t8.5 -40.5t22 -28t38.5 -9q60 0 138 74.5t154.5 199.5
t147.5 305.5t113 375.5l162 26h10l-184 -866q-6 -28 -7.5 -38.5t-3 -30.5t4.5 -28t18 -8q25 0 75.5 47.5t121.5 143.5z" />
    <glyph glyph-name="ucircumflex" unicode="&#xfb;" horiz-adv-x="1091" 
d="M956 1200l-231 232l-336 -232l-4 10l371 406h12l197 -406zM1069 297l10 -8q-77 -149 -159.5 -231.5t-155.5 -82.5q-46 0 -67.5 29.5t-20 78t13.5 110.5l105 481q-118 -315 -271.5 -507t-304.5 -192q-41 0 -70 14t-44 41.5t-21.5 61.5t-3 81t11.5 92.5t21 103.5l112 493
q15 73 11 90q-4 15 -19 15q-42 0 -158 -150l-10 8q66 130 139 201.5t134 71.5q126 0 75 -217l-121 -529q-9 -39 -14.5 -66t-9.5 -59t-2 -53.5t8.5 -40.5t22 -28t38.5 -9q60 0 138 74.5t154.5 199.5t147.5 305.5t113 375.5l162 26h10l-184 -866q-6 -28 -7.5 -38.5t-3 -30.5
t4.5 -28t18 -8q25 0 75.5 47.5t121.5 143.5z" />
    <glyph glyph-name="udieresis" unicode="&#xfc;" horiz-adv-x="1091" 
d="M537 1260q-46 0 -78.5 32t-32.5 78t32.5 78.5t78.5 32.5t78 -32.5t32 -78.5t-32 -78t-78 -32zM883 1260q-46 0 -78.5 32t-32.5 78t32.5 78.5t78.5 32.5t78 -32.5t32 -78.5t-32 -78t-78 -32zM1069 297l10 -8q-77 -149 -159.5 -231.5t-155.5 -82.5q-46 0 -67.5 29.5t-20 78
t13.5 110.5l105 481q-118 -315 -271.5 -507t-304.5 -192q-41 0 -70 14t-44 41.5t-21.5 61.5t-3 81t11.5 92.5t21 103.5l112 493q15 73 11 90q-4 15 -19 15q-42 0 -158 -150l-10 8q66 130 139 201.5t134 71.5q126 0 75 -217l-121 -529q-9 -39 -14.5 -66t-9.5 -59t-2 -53.5
t8.5 -40.5t22 -28t38.5 -9q60 0 138 74.5t154.5 199.5t147.5 305.5t113 375.5l162 26h10l-184 -866q-6 -28 -7.5 -38.5t-3 -30.5t4.5 -28t18 -8q25 0 75.5 47.5t121.5 143.5z" />
    <glyph glyph-name="yacute" unicode="&#xfd;" horiz-adv-x="944" 
d="M844 1518q-62 -62 -350 -318l-9 6q27 41 90 143.5t112 180.5t63 92q29 25 55 25q28 0 48.5 -19.5t20.5 -48.5q0 -31 -30 -61zM684 1073l147 25q87 -70 87 -226q0 -117 -43.5 -266t-115.5 -297.5t-170.5 -291.5t-202.5 -252.5t-217 -176.5t-210 -67q-104 0 -172 65l63 135
h13q38 -54 89.5 -86t104.5 -32q45 0 87.5 16t85 54t74.5 94.5t51.5 146t19.5 199.5q0 167 -32 363t-85.5 336t-107.5 140q-51 0 -95 -159l-10 4q17 147 60 224t108 77q87 0 159 -140.5t110 -347t38 -420.5q0 -139 -22 -243q137 189 215 397t78 418q0 219 -107 299v12z" />
    <glyph glyph-name="thorn" unicode="&#xfe;" horiz-adv-x="1067" 
d="M680 1098q173 0 261.5 -110.5t88.5 -291.5q0 -131 -46.5 -260t-127 -231.5t-200 -166t-253.5 -63.5q-104 0 -170 35l-55 -264q-12 -56 -16.5 -88t-2 -60.5t18.5 -40.5t47 -12l-2 -12h-346l2 12q58 0 83 44.5t50 156.5l248 1163q-89 -42 -199 -108l-8 12q121 103 219 160
l78 366q19 99 4 139.5t-67 53.5l4 12l272 58h8l-114 -545q115 41 223 41zM436 4q110 0 208.5 97.5t156 251t57.5 315.5t-62.5 254t-191.5 92q-69 0 -164 -29l-139 -659h2q-14 -68 -14 -131q0 -91 32.5 -141t114.5 -50z" />
    <glyph glyph-name="ydieresis" unicode="&#xff;" horiz-adv-x="944" 
d="M432 1260q-46 0 -78 32t-32 78t32 78.5t78 32.5t78.5 -32.5t32.5 -78.5t-32.5 -78t-78.5 -32zM778 1260q-46 0 -78 32t-32 78t32 78.5t78 32.5t78.5 -32.5t32.5 -78.5t-32.5 -78t-78.5 -32zM684 1073l147 25q87 -70 87 -226q0 -117 -43.5 -266t-115.5 -297.5
t-170.5 -291.5t-202.5 -252.5t-217 -176.5t-210 -67q-104 0 -172 65l63 135h13q38 -54 89.5 -86t104.5 -32q45 0 87.5 16t85 54t74.5 94.5t51.5 146t19.5 199.5q0 167 -32 363t-85.5 336t-107.5 140q-51 0 -95 -159l-10 4q17 147 60 224t108 77q87 0 159 -140.5t110 -347
t38 -420.5q0 -139 -22 -243q137 189 215 397t78 418q0 219 -107 299v12z" />
    <glyph glyph-name="Amacron" unicode="&#x100;" horiz-adv-x="1214" 
d="M561 1769h567l-30 -77h-568zM825 1516l172 -1254q20 -138 46 -191t87 -59l-2 -12h-466l2 12q92 6 131 54.5t26 148.5l-41 307h-483l-78 -139q-37 -66 -60 -111t-40.5 -89t-20.5 -71.5t5 -50t31 -34.5t61 -15l-2 -12h-338l2 12q69 11 138 96.5t183 284.5l631 1123h16z
M688 1223l-364 -652h450z" />
    <glyph glyph-name="amacron" unicode="&#x101;" horiz-adv-x="1046" 
d="M475 1368h547l-31 -78h-547zM1024 297l10 -8q-77 -149 -158.5 -231.5t-154.5 -82.5q-121 0 -74 218l51 237q-87 -215 -214 -335t-255 -120q-100 0 -155.5 78.5t-55.5 225.5q0 110 31 226.5t90.5 221.5t138 188.5t181.5 133t213 49.5q148 0 211 -84l110 71h11l-185 -874
q-21 -96 12 -96q28 0 81 51.5t112 130.5zM324 76q75 0 162.5 88.5t164.5 247t115 342.5q10 58 10 110q0 205 -137 205q-82 0 -165 -71.5t-143.5 -181t-99 -245t-38.5 -258.5q0 -114 34.5 -175.5t96.5 -61.5z" />
    <glyph glyph-name="Abreve" unicode="&#x102;" horiz-adv-x="1214" 
d="M809 1640q-63 0 -108.5 29.5t-68.5 79.5t-33.5 104.5t-10.5 116.5l12 2q11 -91 71.5 -153t164.5 -62q103 0 188 61.5t137 153.5l10 -4q-27 -62 -60.5 -116t-78.5 -104t-102.5 -79t-120.5 -29zM825 1516l172 -1254q20 -138 46 -191t87 -59l-2 -12h-466l2 12q92 6 131 54.5
t26 148.5l-41 307h-483l-78 -139q-37 -66 -60 -111t-40.5 -89t-20.5 -71.5t5 -50t31 -34.5t61 -15l-2 -12h-338l2 12q69 11 138 96.5t183 284.5l631 1123h16zM688 1223l-364 -652h450z" />
    <glyph glyph-name="abreve" unicode="&#x103;" horiz-adv-x="1046" 
d="M713 1239q-51 0 -88.5 20.5t-58.5 51.5t-33.5 77t-16.5 87.5t-4 93.5l12 2q27 -215 213 -215q179 0 307 215l11 -4q-29 -66 -58 -117t-70.5 -102.5t-96 -80t-117.5 -28.5zM831 115q28 0 81 51.5t112 130.5l10 -8q-77 -149 -158.5 -231.5t-154.5 -82.5q-121 0 -74 218
l51 237q-87 -215 -214 -335t-255 -120q-100 0 -155.5 78.5t-55.5 225.5q0 110 31 226.5t90.5 221.5t138 188.5t181.5 133t213 49.5q148 0 211 -84l110 71h11l-185 -874q-21 -96 12 -96zM324 76q75 0 162.5 88.5t164.5 247t115 342.5q10 58 10 110q0 205 -137 205
q-82 0 -165 -71.5t-143.5 -181t-99 -245t-38.5 -258.5q0 -114 34.5 -175.5t96.5 -61.5z" />
    <glyph glyph-name="Aogonek" unicode="&#x104;" horiz-adv-x="1214" 
d="M1128 0h-178q-91 -82 -133.5 -157.5t-42.5 -121.5q0 -35 21.5 -55t58.5 -20q63 0 150 63l6 -10q-138 -121 -244 -121q-58 0 -90.5 31t-32.5 80q0 138 277 311h-258l2 12q92 6 131 54.5t26 148.5l-41 307h-483l-78 -139q-37 -66 -60 -111t-40.5 -89t-20.5 -71.5t5 -50
t31 -34.5t61 -15l-2 -12h-338l2 12q69 11 138 96.5t183 284.5l631 1123h16l172 -1254q20 -138 46 -191t87 -59zM688 1223l-364 -652h450z" />
    <glyph glyph-name="aogonek" unicode="&#x105;" horiz-adv-x="1046" 
d="M791 -6q-87 -81 -128.5 -155t-41.5 -118q0 -35 21 -55t58 -20q63 0 150 63l6 -10q-132 -121 -244 -121q-57 0 -90 31t-33 80q0 72 64 142.5t176 143.5h-8q-121 0 -74 218l51 237q-87 -215 -214 -335t-255 -120q-100 0 -155.5 78.5t-55.5 225.5q0 110 31 226.5t90.5 221.5
t138 188.5t181.5 133t213 49.5q148 0 211 -84l110 71h11l-185 -874q-21 -96 12 -96q28 0 81 51.5t112 130.5l10 -8q-119 -231 -243 -295zM324 76q75 0 162.5 88.5t164.5 247t115 342.5q10 58 10 110q0 205 -137 205q-82 0 -165 -71.5t-143.5 -181t-99 -245t-38.5 -258.5
q0 -114 34.5 -175.5t96.5 -61.5z" />
    <glyph glyph-name="Cacute" unicode="&#x106;" horiz-adv-x="1241" 
d="M862 1602l-6 6q28 42 89.5 143.5t110.5 180t62 91.5q29 25 56 25q29 0 49 -19.5t20 -48.5q0 -27 -29 -61q-24 -25 -82 -77.5t-163.5 -145.5t-106.5 -94zM651 -25q-270 0 -417.5 157.5t-147.5 428.5q0 138 36 274.5t108.5 259t172 216.5t237 149.5t292.5 55.5
q237 0 428 -123l-39 -236h-12q-46 160 -139.5 245t-231.5 85q-100 0 -192.5 -44t-163.5 -118.5t-130 -173.5t-97 -210t-58.5 -226t-20.5 -223q0 -222 93 -355t272 -133q283 0 512 367h12l-94 -291q-67 -30 -117.5 -49.5t-135 -37.5t-167.5 -18z" />
    <glyph glyph-name="cacute" unicode="&#x107;" horiz-adv-x="829" 
d="M586 1200l-8 6q28 42 89.5 144t110.5 180.5t62 91.5q29 25 55 25q30 0 51 -19.5t21 -48.5q0 -25 -31 -61q-62 -62 -350 -318zM307 -25q-129 0 -204.5 85t-75.5 257q0 136 49 276t130.5 251.5t197 182.5t237.5 71q114 0 176 -56t62 -147l-111 -111h-12q17 138 -17.5 211.5
t-111.5 73.5q-75 0 -153.5 -64.5t-137.5 -166t-97 -232t-38 -254.5q0 -274 182 -274q90 0 177 61t181 176l13 -8q-110 -173 -217.5 -252.5t-229.5 -79.5z" />
    <glyph glyph-name="Ccircumflex" unicode="&#x108;" horiz-adv-x="1241" 
d="M1239 1602l-252 233l-358 -233l-4 10l391 405h12l219 -405zM932 1516q237 0 428 -123l-39 -236h-12q-46 160 -139.5 245t-231.5 85q-100 0 -192.5 -44t-163.5 -118.5t-130 -173.5t-97 -210t-58.5 -226t-20.5 -223q0 -222 93 -355t272 -133q283 0 512 367h12l-94 -291
q-67 -30 -117.5 -49.5t-135 -37.5t-167.5 -18q-270 0 -417.5 157.5t-147.5 428.5q0 138 36 274.5t108.5 259t172 216.5t237 149.5t292.5 55.5z" />
    <glyph glyph-name="ccircumflex" unicode="&#x109;" horiz-adv-x="833" 
d="M741 1616h13l196 -406l-8 -10l-229 230l-338 -230l-4 10zM641 1098q114 0 176 -56t62 -147l-111 -111h-12q17 138 -17.5 211.5t-111.5 73.5q-75 0 -153.5 -64.5t-137.5 -166t-97 -232t-38 -254.5q0 -274 182 -274q90 0 177 61t181 176l13 -8q-110 -173 -217.5 -252.5
t-229.5 -79.5q-129 0 -204.5 85t-75.5 257q0 136 49 276t130.5 251.5t197 182.5t237.5 71z" />
    <glyph glyph-name="Cdotaccent" unicode="&#x10a;" horiz-adv-x="1241" 
d="M969 1661q-47 0 -81 35t-34 82t34 80.5t81 33.5t80.5 -33.5t33.5 -80.5q0 -48 -33.5 -82.5t-80.5 -34.5zM651 -25q-270 0 -417.5 157.5t-147.5 428.5q0 138 36 274.5t108.5 259t172 216.5t237 149.5t292.5 55.5q237 0 428 -123l-39 -236h-12q-46 160 -139.5 245
t-231.5 85q-100 0 -192.5 -44t-163.5 -118.5t-130 -173.5t-97 -210t-58.5 -226t-20.5 -223q0 -222 93 -355t272 -133q283 0 512 367h12l-94 -291q-67 -30 -117.5 -49.5t-135 -37.5t-167.5 -18z" />
    <glyph glyph-name="cdotaccent" unicode="&#x10b;" horiz-adv-x="829" 
d="M696 1260q-48 0 -81 33.5t-33 82.5q0 46 33.5 80.5t80.5 34.5t81 -34.5t34 -80.5q0 -49 -33.5 -82.5t-81.5 -33.5zM307 -25q-129 0 -204.5 85t-75.5 257q0 136 49 276t130.5 251.5t197 182.5t237.5 71q114 0 176 -56t62 -147l-111 -111h-12q17 138 -17.5 211.5
t-111.5 73.5q-75 0 -153.5 -64.5t-137.5 -166t-97 -232t-38 -254.5q0 -274 182 -274q90 0 177 61t181 176l13 -8q-110 -173 -217.5 -252.5t-229.5 -79.5z" />
    <glyph glyph-name="Ccaron" unicode="&#x10c;" horiz-adv-x="1241" 
d="M1331 2007l-391 -405h-12l-219 405l8 10l252 -233l358 233zM932 1516q237 0 428 -123l-39 -236h-12q-46 160 -139.5 245t-231.5 85q-100 0 -192.5 -44t-163.5 -118.5t-130 -173.5t-97 -210t-58.5 -226t-20.5 -223q0 -222 93 -355t272 -133q283 0 512 367h12l-94 -291
q-67 -30 -117.5 -49.5t-135 -37.5t-167.5 -18q-270 0 -417.5 157.5t-147.5 428.5q0 138 36 274.5t108.5 259t172 216.5t237 149.5t292.5 55.5z" />
    <glyph glyph-name="ccaron" unicode="&#x10d;" horiz-adv-x="833" 
d="M1036 1606l-370 -406h-13l-198 406l8 10l231 -232l338 232zM641 1098q114 0 176 -56t62 -147l-111 -111h-12q17 138 -17.5 211.5t-111.5 73.5q-75 0 -153.5 -64.5t-137.5 -166t-97 -232t-38 -254.5q0 -274 182 -274q90 0 177 61t181 176l13 -8q-110 -173 -217.5 -252.5
t-229.5 -79.5q-129 0 -204.5 85t-75.5 257q0 136 49 276t130.5 251.5t197 182.5t237.5 71z" />
    <glyph glyph-name="Dcaron" unicode="&#x10e;" horiz-adv-x="1429" 
d="M1202 2007l-391 -405h-12l-219 405l8 10l252 -233l358 233zM242 1491h569q296 0 457.5 -151t161.5 -418q0 -187 -66 -355.5t-182.5 -294t-288 -199t-371.5 -73.5h-596l2 12q41 0 71 11t49 27.5t34 50t23 63.5t20 84l211 995q10 43 14.5 72t6 58t-4.5 47t-19.5 32.5
t-36.5 20.5t-56 6zM508 33q142 0 263 53.5t205.5 143.5t144 209t88 250.5t28.5 266.5q0 245 -113 373.5t-323 128.5h-160q-36 0 -61.5 -19t-32.5 -55l-258 -1220q-9 -30 -2.5 -54t28 -41.5t69.5 -26.5t124 -9z" />
    <glyph glyph-name="dcaron" unicode="&#x10f;" horiz-adv-x="1183" 
d="M1104 1602h8l-295 -1391q-21 -96 14 -96q27 0 81 52t112 130l10 -8q-79 -150 -160 -232t-153 -82q-121 0 -74 218l51 239q-89 -217 -215.5 -337t-253.5 -120q-100 0 -155.5 78.5t-55.5 225.5q0 110 31 226.5t90.5 221.5t137.5 188.5t181 133t212 49.5q99 0 161 -39
l60 280q20 97 5 138.5t-67 54.5l2 12zM1333 1602q57 0 98.5 -43.5t41.5 -114.5q0 -107 -69 -175t-169 -89l-2 12q68 25 117 65.5t49 88.5q0 56 -84 71q-41 8 -60.5 33t-19.5 55q0 41 27.5 69t70.5 28zM322 76q76 0 164 88.5t165 247t115 342.5q10 58 10 110q0 205 -137 205
q-83 0 -166 -71.5t-143.5 -181t-98.5 -245t-38 -258.5q0 -115 33.5 -176t95.5 -61z" />
    <glyph glyph-name="Dcroat" unicode="&#x110;" horiz-adv-x="1439" 
d="M250 1491h571q296 0 456.5 -151t160.5 -418q0 -150 -41.5 -288.5t-121 -253t-188.5 -200t-252 -133t-303 -47.5h-598l3 12q41 0 71 11t49 27.5t34 50t23.5 64t20.5 83.5l107 500h-162l8 40h162l96 455q11 53 15.5 85.5t3 64.5t-14 48.5t-37.5 27t-65 10.5zM516 33
q142 0 263 53.5t205.5 143.5t144 209t88 250.5t28.5 266.5q0 244 -113 373t-321 129h-162q-36 0 -61.5 -19t-32.5 -55l-127 -596h313l-8 -40h-313l-123 -584q-8 -30 -1.5 -54t27.5 -41.5t69 -26.5t124 -9z" />
    <glyph glyph-name="dcroat" unicode="&#x111;" horiz-adv-x="1046" 
d="M1221 1343h-164l-240 -1132q-21 -96 14 -96q27 0 81 52t112 130l10 -8q-79 -150 -160 -232t-153 -82q-121 0 -74 218l51 239q-89 -217 -215.5 -337t-253.5 -120q-100 0 -155.5 78.5t-55.5 225.5q0 110 31 226.5t90.5 221.5t137.5 188.5t181 133t212 49.5q99 0 161 -39
l60 280v4h-268l8 41h268q10 69 -7.5 103t-62.5 45l2 12l273 58h8l-45 -218h162zM322 76q76 0 164 88.5t165 247t115 342.5q10 58 10 110q0 205 -137 205q-83 0 -166 -71.5t-143.5 -181t-98.5 -245t-38 -258.5q0 -115 33.5 -176t95.5 -61z" />
    <glyph glyph-name="Emacron" unicode="&#x112;" horiz-adv-x="1142" 
d="M518 1769h567l-30 -77h-568zM240 1479l2 12h1001l-37 -307h-12q-28 120 -64.5 176.5t-96.5 77t-177 20.5h-293l-141 -665h229q92 0 146.5 19.5t87.5 59.5t69 121h13l-95 -448h-12q-2 60 -10.5 95.5t-31 65t-65 42t-110.5 12.5h-229l-133 -631q-10 -49 3 -72.5t58 -23.5
h242q88 0 142.5 10t112 43.5t108.5 93t120 164.5h12l-121 -344h-1032l2 12q34 0 60.5 7t46 23t33.5 34.5t25 49.5t18 59t16 71l209 979q9 45 13.5 71.5t6.5 58.5t-4 49.5t-18.5 34t-36 23.5t-57.5 7z" />
    <glyph glyph-name="emacron" unicode="&#x113;" horiz-adv-x="849" 
d="M408 1290l30 78h547l-31 -78h-546zM662 1098q112 0 167.5 -42.5t55.5 -115.5q0 -55 -31.5 -103.5t-85 -88t-141.5 -80t-182.5 -73.5t-227.5 -73q-18 -82 -18 -172q0 -274 182 -274q91 0 188.5 63.5t190.5 175.5l12 -8q-217 -334 -467 -334q-128 0 -204 86t-76 252
q0 99 26.5 207t81.5 211t129 185.5t178.5 133t221.5 50.5zM225 557q267 94 386.5 181.5t119.5 209.5q0 119 -102 119q-118 0 -236 -151.5t-168 -358.5z" />
    <glyph glyph-name="Ebreve" unicode="&#x114;" horiz-adv-x="1142" 
d="M768 1640q-63 0 -108.5 29.5t-69 79.5t-34 104t-11.5 117l14 2q12 -91 71.5 -153t162.5 -62t187.5 61t139.5 154l10 -4q-27 -62 -60.5 -116t-78.5 -104t-102.5 -79t-120.5 -29zM240 1479l2 12h1001l-37 -307h-12q-28 120 -64.5 176.5t-96.5 77t-177 20.5h-293l-141 -665
h229q92 0 146.5 19.5t87.5 59.5t69 121h13l-95 -448h-12q-2 60 -10.5 95.5t-31 65t-65 42t-110.5 12.5h-229l-133 -631q-10 -49 3 -72.5t58 -23.5h242q88 0 142.5 10t112 43.5t108.5 93t120 164.5h12l-121 -344h-1032l2 12q34 0 60.5 7t46 23t33.5 34.5t25 49.5t18 59t16 71
l209 979q9 45 13.5 71.5t6.5 58.5t-4 49.5t-18.5 34t-36 23.5t-57.5 7z" />
    <glyph glyph-name="ebreve" unicode="&#x115;" horiz-adv-x="849" 
d="M676 1239q-51 0 -88.5 20.5t-58.5 51.5t-33.5 77t-16.5 87.5t-4 93.5l12 2q27 -215 213 -215q180 0 308 215l10 -4q-29 -66 -58 -117t-70.5 -102.5t-96 -80t-117.5 -28.5zM662 1098q112 0 167.5 -42.5t55.5 -115.5q0 -55 -31.5 -103.5t-85 -88t-141.5 -80t-182.5 -73.5
t-227.5 -73q-18 -82 -18 -172q0 -274 182 -274q91 0 188.5 63.5t190.5 175.5l12 -8q-217 -334 -467 -334q-128 0 -204 86t-76 252q0 99 26.5 207t81.5 211t129 185.5t178.5 133t221.5 50.5zM225 557q267 94 386.5 181.5t119.5 209.5q0 119 -102 119q-118 0 -236 -151.5
t-168 -358.5z" />
    <glyph glyph-name="Edotaccent" unicode="&#x116;" horiz-adv-x="1142" 
d="M797 1661q-47 0 -81 35t-34 82t34 80.5t81 33.5t80.5 -33.5t33.5 -80.5q0 -48 -33.5 -82.5t-80.5 -34.5zM240 1479l2 12h1001l-37 -307h-12q-28 120 -64.5 176.5t-96.5 77t-177 20.5h-293l-141 -665h229q92 0 146.5 19.5t87.5 59.5t69 121h13l-95 -448h-12
q-2 60 -10.5 95.5t-31 65t-65 42t-110.5 12.5h-229l-133 -631q-10 -49 3 -72.5t58 -23.5h242q88 0 142.5 10t112 43.5t108.5 93t120 164.5h12l-121 -344h-1032l2 12q34 0 60.5 7t46 23t33.5 34.5t25 49.5t18 59t16 71l209 979q9 45 13.5 71.5t6.5 58.5t-4 49.5t-18.5 34
t-36 23.5t-57.5 7z" />
    <glyph glyph-name="edotaccent" unicode="&#x117;" horiz-adv-x="849" 
d="M707 1260q-50 0 -83.5 33.5t-33.5 82.5q0 46 34 80.5t83 34.5q47 0 80.5 -34.5t33.5 -80.5q0 -49 -33 -82.5t-81 -33.5zM885 940q0 -55 -31.5 -103.5t-85 -88t-141.5 -80t-182.5 -73.5t-227.5 -73q-18 -82 -18 -172q0 -274 182 -274q91 0 188.5 63.5t190.5 175.5l12 -8
q-217 -334 -467 -334q-128 0 -204 86t-76 252q0 99 26.5 207t81.5 211t129 185.5t178.5 133t221.5 50.5q112 0 167.5 -42.5t55.5 -115.5zM629 1067q-118 0 -236 -151.5t-168 -358.5q267 94 386.5 181.5t119.5 209.5q0 119 -102 119z" />
    <glyph glyph-name="Eogonek" unicode="&#x118;" horiz-adv-x="1142" 
d="M240 1479l2 12h1001l-37 -307h-12q-28 120 -64.5 176.5t-96.5 77t-177 20.5h-293l-141 -665h229q92 0 146.5 19.5t87.5 59.5t69 121h13l-95 -448h-12q-2 60 -10.5 95.5t-31 65t-65 42t-110.5 12.5h-229l-133 -631q-10 -49 3 -72.5t58 -23.5h242q88 0 142.5 10t112 43.5
t108.5 93t120 164.5h12l-121 -344h-153q-91 -82 -133.5 -157.5t-42.5 -121.5q0 -35 21.5 -55t58.5 -20q62 0 149 63l6 -10q-138 -121 -243 -121q-58 0 -90.5 31t-32.5 80q0 78 74.5 155t201.5 156h-848l2 12q34 0 60.5 7t46 23t33.5 34.5t25 49.5t18 59t16 71l209 979
q9 45 13.5 71.5t6.5 58.5t-4 49.5t-18.5 34t-36 23.5t-57.5 7z" />
    <glyph glyph-name="eogonek" unicode="&#x119;" horiz-adv-x="849" 
d="M885 940q0 -55 -31.5 -103.5t-85 -88t-141.5 -80t-182.5 -73.5t-227.5 -73q-18 -82 -18 -172q0 -274 182 -274q91 0 188.5 63.5t190.5 175.5l12 -8q-144 -224 -309 -299q-95 -85 -141 -163t-46 -124q0 -35 21.5 -55t58.5 -20q65 0 152 63l6 -10q-138 -121 -244 -121
q-58 0 -91.5 31t-33.5 80q0 133 256 297q-54 -13 -96 -13q-128 0 -204 86t-76 252q0 99 26.5 207t81.5 211t129 185.5t178.5 133t221.5 50.5q112 0 167.5 -42.5t55.5 -115.5zM629 1067q-118 0 -236 -151.5t-168 -358.5q267 94 386.5 181.5t119.5 209.5q0 119 -102 119z" />
    <glyph glyph-name="Ecaron" unicode="&#x11a;" horiz-adv-x="1142" 
d="M1159 2007l-393 -405h-10l-219 405l8 10l252 -233l358 233zM240 1479l2 12h1001l-37 -307h-12q-28 120 -64.5 176.5t-96.5 77t-177 20.5h-293l-141 -665h229q92 0 146.5 19.5t87.5 59.5t69 121h13l-95 -448h-12q-2 60 -10.5 95.5t-31 65t-65 42t-110.5 12.5h-229
l-133 -631q-10 -49 3 -72.5t58 -23.5h242q88 0 142.5 10t112 43.5t108.5 93t120 164.5h12l-121 -344h-1032l2 12q34 0 60.5 7t46 23t33.5 34.5t25 49.5t18 59t16 71l209 979q9 45 13.5 71.5t6.5 58.5t-4 49.5t-18.5 34t-36 23.5t-57.5 7z" />
    <glyph glyph-name="ecaron" unicode="&#x11b;" horiz-adv-x="849" 
d="M1044 1606l-370 -406h-10l-199 406l8 10l229 -232l338 232zM662 1098q112 0 167.5 -42.5t55.5 -115.5q0 -55 -31.5 -103.5t-85 -88t-141.5 -80t-182.5 -73.5t-227.5 -73q-18 -82 -18 -172q0 -274 182 -274q91 0 188.5 63.5t190.5 175.5l12 -8q-217 -334 -467 -334
q-128 0 -204 86t-76 252q0 99 26.5 207t81.5 211t129 185.5t178.5 133t221.5 50.5zM225 557q267 94 386.5 181.5t119.5 209.5q0 119 -102 119q-118 0 -236 -151.5t-168 -358.5z" />
    <glyph glyph-name="Gcircumflex" unicode="&#x11c;" horiz-adv-x="1345" 
d="M1214 1602l-251 233l-359 -233l-4 10l391 405h13l219 -405zM944 1516q143 0 264 -35.5t197 -79.5l-43 -236h-12q-92 322 -408 322q-120 0 -228 -62t-185.5 -164.5t-135 -232t-86 -267t-28.5 -267.5q0 -223 94 -356.5t272 -133.5q137 0 238 54.5t118 138.5l48 225
q10 42 14.5 68t7 55.5t-2.5 46t-16 32t-32 23.5t-51 10l2 13h375l-3 -13q-23 -3 -39 -17t-29.5 -48.5t-22 -68t-23.5 -101.5l-66 -299q-109 -66 -245 -107t-281 -41q-254 0 -400.5 159.5t-146.5 430.5q0 145 38 285t112.5 260t176.5 211t238.5 143t288.5 52z" />
    <glyph glyph-name="gcircumflex" unicode="&#x11d;" horiz-adv-x="929" 
d="M831 1200l-229 232l-338 -232l-4 10l371 406h12l197 -406zM709 1042l317 45l-49 -104l-225 21q75 -78 75 -205q0 -114 -53.5 -211.5t-149.5 -156.5t-212 -60q-88 -25 -120 -45t-32 -50q0 -39 62 -57l213 -57q53 -15 88.5 -26.5t77 -28t68 -34.5t50 -41.5t34.5 -53
t11 -64.5q0 -110 -89.5 -204.5t-233 -148t-301.5 -53.5q-172 0 -259 66.5t-87 177.5q0 101 74.5 182t207.5 119l33 6l8 -2q-96 -48 -143 -115t-47 -141q0 -100 83 -162.5t242 -62.5q169 0 285.5 70.5t116.5 171.5q0 34 -15.5 62t-37.5 46t-60 34.5t-67.5 26t-75.5 21.5
l-252 68q-125 35 -125 129q0 122 217 172q-115 19 -181.5 97.5t-66.5 197.5q0 173 121.5 299.5t298.5 126.5q117 0 199 -56zM399 399q63 0 117 46t87 116.5t52 149.5t19 151q0 97 -38.5 152t-113.5 55q-64 0 -118 -45.5t-88 -115.5t-53 -149t-19 -151q0 -99 39.5 -154
t115.5 -55z" />
    <glyph glyph-name="Gbreve" unicode="&#x11e;" horiz-adv-x="1345" 
d="M915 1640q-63 0 -108.5 29.5t-68.5 79.5t-33.5 104.5t-10.5 116.5l13 2q12 -91 71.5 -153t163.5 -62q103 0 188.5 61.5t137.5 153.5l10 -4q-27 -62 -60.5 -116t-78.5 -104t-103 -79t-121 -29zM637 -25q-254 0 -400.5 159.5t-146.5 430.5q0 145 38 285t112.5 260
t176.5 211t238.5 143t288.5 52q143 0 264 -35.5t197 -79.5l-43 -236h-12q-92 322 -408 322q-120 0 -228 -62t-185.5 -164.5t-135 -232t-86 -267t-28.5 -267.5q0 -223 94 -356.5t272 -133.5q137 0 238 54.5t118 138.5l48 225q10 42 14.5 68t7 55.5t-2.5 46t-16 32t-32 23.5
t-51 10l2 13h375l-3 -13q-23 -3 -39 -17t-29.5 -48.5t-22 -68t-23.5 -101.5l-66 -299q-109 -66 -245 -107t-281 -41z" />
    <glyph glyph-name="gbreve" unicode="&#x11f;" horiz-adv-x="929" 
d="M557 1239q-51 0 -88.5 20.5t-58.5 51t-34 77t-17 88t-5 93.5l15 2q27 -215 213 -215q179 0 307 215l10 -4q-29 -66 -58 -117t-70.5 -102.5t-96 -80t-117.5 -28.5zM709 1042l317 45l-49 -104l-225 21q75 -78 75 -205q0 -114 -53.5 -211.5t-149.5 -156.5t-212 -60
q-88 -25 -120 -45t-32 -50q0 -39 62 -57l213 -57q53 -15 88.5 -26.5t77 -28t68 -34.5t50 -41.5t34.5 -53t11 -64.5q0 -110 -89.5 -204.5t-233 -148t-301.5 -53.5q-172 0 -259 66.5t-87 177.5q0 101 74.5 182t207.5 119l33 6l8 -2q-96 -48 -143 -115t-47 -141
q0 -100 83 -162.5t242 -62.5q169 0 285.5 70.5t116.5 171.5q0 34 -15.5 62t-37.5 46t-60 34.5t-67.5 26t-75.5 21.5l-252 68q-125 35 -125 129q0 122 217 172q-115 19 -181.5 97.5t-66.5 197.5q0 173 121.5 299.5t298.5 126.5q117 0 199 -56zM399 399q63 0 117 46t87 116.5
t52 149.5t19 151q0 97 -38.5 152t-113.5 55q-64 0 -118 -45.5t-88 -115.5t-53 -149t-19 -151q0 -99 39.5 -154t115.5 -55z" />
    <glyph glyph-name="Gdotaccent" unicode="&#x120;" horiz-adv-x="1345" 
d="M946 1661q-49 0 -83 34.5t-34 82.5q0 47 34 80.5t83 33.5q46 0 80.5 -33.5t34.5 -80.5t-34.5 -82t-80.5 -35zM637 -25q-254 0 -400.5 159.5t-146.5 430.5q0 145 38 285t112.5 260t176.5 211t238.5 143t288.5 52q143 0 264 -35.5t197 -79.5l-43 -236h-12q-92 322 -408 322
q-120 0 -228 -62t-185.5 -164.5t-135 -232t-86 -267t-28.5 -267.5q0 -223 94 -356.5t272 -133.5q137 0 238 54.5t118 138.5l48 225q10 42 14.5 68t7 55.5t-2.5 46t-16 32t-32 23.5t-51 10l2 13h375l-3 -13q-23 -3 -39 -17t-29.5 -48.5t-22 -68t-23.5 -101.5l-66 -299
q-109 -66 -245 -107t-281 -41z" />
    <glyph glyph-name="gdotaccent" unicode="&#x121;" horiz-adv-x="929" 
d="M588 1260q-50 0 -83.5 33.5t-33.5 82.5q0 46 34 80.5t83 34.5q46 0 80 -34.5t34 -80.5q0 -49 -34 -82.5t-80 -33.5zM709 1042l317 45l-49 -104l-225 21q75 -78 75 -205q0 -114 -53.5 -211.5t-149.5 -156.5t-212 -60q-88 -25 -120 -45t-32 -50q0 -39 62 -57l213 -57
q53 -15 88.5 -26.5t77 -28t68 -34.5t50 -41.5t34.5 -53t11 -64.5q0 -110 -89.5 -204.5t-233 -148t-301.5 -53.5q-172 0 -259 66.5t-87 177.5q0 101 74.5 182t207.5 119l33 6l8 -2q-96 -48 -143 -115t-47 -141q0 -100 83 -162.5t242 -62.5q169 0 285.5 70.5t116.5 171.5
q0 34 -15.5 62t-37.5 46t-60 34.5t-67.5 26t-75.5 21.5l-252 68q-125 35 -125 129q0 122 217 172q-115 19 -181.5 97.5t-66.5 197.5q0 173 121.5 299.5t298.5 126.5q117 0 199 -56zM399 399q63 0 117 46t87 116.5t52 149.5t19 151q0 97 -38.5 152t-113.5 55
q-64 0 -118 -45.5t-88 -115.5t-53 -149t-19 -151q0 -99 39.5 -154t115.5 -55z" />
    <glyph glyph-name="uni0122" unicode="&#x122;" horiz-adv-x="1345" 
d="M637 -25q-254 0 -400.5 159.5t-146.5 430.5q0 145 38 285t112.5 260t176.5 211t238.5 143t288.5 52q143 0 264 -35.5t197 -79.5l-43 -236h-12q-92 322 -408 322q-120 0 -228 -62t-185.5 -164.5t-135 -232t-86 -267t-28.5 -267.5q0 -223 94 -356.5t272 -133.5
q137 0 238 54.5t118 138.5l48 225q10 42 14.5 68t7 55.5t-2.5 46t-16 32t-32 23.5t-51 10l2 13h375l-3 -13q-23 -3 -39 -17t-29.5 -48.5t-22 -68t-23.5 -101.5l-66 -299q-109 -66 -245 -107t-281 -41zM430 -520l-2 12q68 25 118 66.5t50 89.5q0 53 -86 71q-41 8 -59.5 32
t-18.5 54q0 41 28 69t70 28q56 0 97 -43t41 -113q0 -108 -69 -176.5t-169 -89.5z" />
    <glyph glyph-name="uni0123" unicode="&#x123;" horiz-adv-x="929" 
d="M586 1239q-57 0 -99.5 43.5t-42.5 114.5q0 107 69.5 175t170.5 89l2 -12q-69 -25 -118.5 -65.5t-49.5 -88.5q0 -55 84 -74q42 -7 61 -31.5t19 -54.5q0 -42 -27 -69t-69 -27zM709 1042l317 45l-49 -104l-225 21q75 -78 75 -205q0 -114 -53.5 -211.5t-149.5 -156.5
t-212 -60q-88 -25 -120 -45t-32 -50q0 -39 62 -57l213 -57q53 -15 88.5 -26.5t77 -28t68 -34.5t50 -41.5t34.5 -53t11 -64.5q0 -110 -89.5 -204.5t-233 -148t-301.5 -53.5q-172 0 -259 66.5t-87 177.5q0 101 74.5 182t207.5 119l33 6l8 -2q-96 -48 -143 -115t-47 -141
q0 -100 83 -162.5t242 -62.5q169 0 285.5 70.5t116.5 171.5q0 34 -15.5 62t-37.5 46t-60 34.5t-67.5 26t-75.5 21.5l-252 68q-125 35 -125 129q0 122 217 172q-115 19 -181.5 97.5t-66.5 197.5q0 173 121.5 299.5t298.5 126.5q117 0 199 -56zM399 399q63 0 117 46t87 116.5
t52 149.5t19 151q0 97 -38.5 152t-113.5 55q-64 0 -118 -45.5t-88 -115.5t-53 -149t-19 -151q0 -99 39.5 -154t115.5 -55z" />
    <glyph glyph-name="Hcircumflex" unicode="&#x124;" horiz-adv-x="1363" 
d="M1163 1602l-252 233l-358 -233l-4 10l391 405h12l219 -405zM1049 1479l2 12h475l-2 -12q-41 0 -71 -12t-49.5 -29.5t-34.5 -52t-23.5 -65.5t-20.5 -85l-207 -979q-10 -44 -14.5 -71.5t-6.5 -59t3.5 -49.5t18 -34t36 -23t57.5 -7l-2 -12h-475l2 12q34 0 60.5 7t46 23
t33.5 34.5t25 49.5t18 59t16 71l106 498h-628l-107 -498q-9 -45 -13.5 -71.5t-6.5 -58.5t4 -49.5t18.5 -34t36 -23.5t57.5 -7l-2 -12h-475l2 12q34 0 60.5 7t46 23t33.5 34.5t25 49.5t18 59t16 71l209 979q9 45 13.5 71.5t6.5 58.5t-4 49.5t-18.5 34t-36 23.5t-57.5 7l2 12
h475l-2 -12q-34 0 -60.5 -7t-46 -23t-33.5 -34.5t-25 -49.5t-18 -59t-16 -71l-94 -444h629l94 444q11 53 16 85t4 66t-12.5 52t-37 29.5t-66.5 11.5z" />
    <glyph glyph-name="hcircumflex" unicode="&#x125;" horiz-adv-x="1044" 
d="M723 1602l-252 233l-358 -233l-4 10l391 405h12l219 -405zM1026 297l10 -8q-78 -149 -160.5 -231.5t-154.5 -82.5q-125 0 -74 218l119 528q14 58 20.5 97.5t6 79t-18 59.5t-51.5 20q-87 0 -196 -134t-208 -362t-153 -481h-166l283 1339q19 97 4 139t-68 54l4 12l273 58h8
l-254 -1203q116 314 270 506.5t305 192.5q49 0 80 -21t44.5 -55.5t14 -87t-7.5 -106t-24 -123.5l-113 -494q-6 -24 -8.5 -38t-4 -32t3.5 -26.5t17 -8.5q55 0 199 191z" />
    <glyph glyph-name="Hbar" unicode="&#x126;" horiz-adv-x="1368" 
d="M1528 1491l-2 -12q-41 0 -71 -12t-49.5 -29.5t-34.5 -52t-23.5 -65.5t-20.5 -85l-10 -51h143l-8 -41h-145l-189 -887q-9 -45 -13.5 -71.5t-6.5 -58.5t4 -49.5t18.5 -34t36 -23.5t57.5 -7l-2 -12h-475l2 12q34 0 60.5 7t46 23t33.5 34.5t25 49.5t18 59t16 71l106 498h-628
l-107 -498q-11 -54 -15.5 -85t-3.5 -65.5t12.5 -52t37 -29.5t66.5 -12l-3 -12h-475l2 12q41 0 71 12t49.5 29.5t34.5 52t23.5 65.5t20.5 85l188 887h-149l8 41h152l10 51q9 45 13.5 71.5t6.5 58.5t-4 49.5t-18.5 34t-36 23.5t-57.5 7l2 12h475l-2 -12q-34 0 -60.5 -7
t-46 -23t-33.5 -34.5t-25 -49.5t-18 -59t-16 -71l-10 -51h629l10 51q9 45 13.5 71.5t6.5 58.5t-4 49.5t-18.5 34t-36 23.5t-57.5 7l2 12h475zM424 791h629l73 352h-628z" />
    <glyph glyph-name="hbar" unicode="&#x127;" horiz-adv-x="1021" 
d="M1004 297l10 -8q-78 -148 -161 -231t-155 -83q-47 0 -68.5 30t-21 76t16.5 112l118 528q14 58 20.5 97.5t6 79t-18 59.5t-51.5 20q-87 0 -196 -134t-208 -362t-153 -481h-166l283 1339v4h-86l8 41h86q9 70 -8 103.5t-63 44.5l4 12l272 58h8l-45 -218h344l-8 -41h-346
l-199 -944q116 314 270.5 506.5t305.5 192.5q49 0 80 -21t44.5 -55t13.5 -87t-8 -106.5t-24 -123.5l-112 -494q-6 -24 -8.5 -38t-4 -32t3.5 -26.5t17 -8.5q55 0 199 191z" />
    <glyph glyph-name="Itilde" unicode="&#x128;" horiz-adv-x="555" 
d="M217 1638l-12 2q34 118 79 178t111 60q42 0 102 -30t119 -60.5t97 -30.5q44 0 75.5 29.5t63.5 101.5l12 -2q-32 -119 -77 -179t-113 -60q-42 0 -102 30t-119 60t-97 30q-44 0 -75.5 -29t-63.5 -100zM401 0h-475l2 12q34 0 60.5 7t46 23t33.5 34.5t25 49.5t18 59t16 71
l209 979q9 45 13.5 71.5t6.5 58.5t-4 49.5t-18.5 34t-36 23.5t-57.5 7l2 12h475l-2 -12q-34 0 -60.5 -7t-46 -23t-33.5 -34.5t-25 -49.5t-18 -59t-16 -71l-209 -979q-9 -45 -13.5 -71.5t-6.5 -58.5t4 -49.5t18.5 -34t36 -23.5t57.5 -7z" />
    <glyph glyph-name="itilde" unicode="&#x129;" horiz-adv-x="487" 
d="M109 1229l-13 2q32 117 78 177t113 60q42 0 92 -29.5t98 -59t84 -29.5q46 0 77.5 28.5t63.5 100.5l13 -2q-32 -117 -78 -177.5t-113 -60.5q-33 0 -72.5 18.5t-69 41t-66.5 41t-66 18.5q-46 0 -77.5 -28.5t-63.5 -100.5zM160 -25q-121 0 -74 218l143 669q6 28 7.5 38.5
t3 30.5t-4.5 28t-18 8q-40 0 -156 -150l-10 8q66 130 140.5 201.5t138.5 71.5q45 0 65 -30.5t19 -75t-15 -111.5l-141 -670q-15 -72 -4 -88q6 -8 16 -8q28 0 81 51t114 131l10 -8q-79 -149 -160.5 -231.5t-154.5 -82.5z" />
    <glyph glyph-name="Imacron" unicode="&#x12a;" horiz-adv-x="555" 
d="M799 1692h-568l31 77h567zM401 0h-475l2 12q34 0 60.5 7t46 23t33.5 34.5t25 49.5t18 59t16 71l209 979q9 45 13.5 71.5t6.5 58.5t-4 49.5t-18.5 34t-36 23.5t-57.5 7l2 12h475l-2 -12q-34 0 -60.5 -7t-46 -23t-33.5 -34.5t-25 -49.5t-18 -59t-16 -71l-209 -979
q-9 -45 -13.5 -71.5t-6.5 -58.5t4 -49.5t18.5 -34t36 -23.5t57.5 -7z" />
    <glyph glyph-name="imacron" unicode="&#x12b;" horiz-adv-x="487" 
d="M662 1290h-549l30 78h549zM160 -25q-121 0 -74 218l143 669q6 28 7.5 38.5t3 30.5t-4.5 28t-18 8q-40 0 -156 -150l-10 8q66 130 140.5 201.5t138.5 71.5q45 0 65 -30.5t19 -75t-15 -111.5l-141 -670q-15 -72 -4 -88q6 -8 16 -8q28 0 81 51t114 131l10 -8
q-79 -149 -160.5 -231.5t-154.5 -82.5z" />
    <glyph glyph-name="Ibreve" unicode="&#x12c;" horiz-adv-x="555" 
d="M510 1640q-63 0 -108.5 29.5t-68.5 79.5t-33.5 104.5t-10.5 116.5l12 2q11 -91 71.5 -153t164.5 -62q103 0 188 61.5t137 153.5l10 -4q-27 -62 -60.5 -116t-78.5 -104t-102.5 -79t-120.5 -29zM401 0h-475l2 12q34 0 60.5 7t46 23t33.5 34.5t25 49.5t18 59t16 71l209 979
q9 45 13.5 71.5t6.5 58.5t-4 49.5t-18.5 34t-36 23.5t-57.5 7l2 12h475l-2 -12q-34 0 -60.5 -7t-46 -23t-33.5 -34.5t-25 -49.5t-18 -59t-16 -71l-209 -979q-9 -45 -13.5 -71.5t-6.5 -58.5t4 -49.5t18.5 -34t36 -23.5t57.5 -7z" />
    <glyph glyph-name="ibreve" unicode="&#x12d;" horiz-adv-x="487" 
d="M383 1239q-51 0 -88.5 20.5t-58.5 51t-34 77t-17 88t-5 93.5l15 2q27 -215 213 -215q179 0 307 215l10 -4q-29 -66 -58 -117t-70.5 -102.5t-96 -80t-117.5 -28.5zM160 -25q-121 0 -74 218l143 669q6 28 7.5 38.5t3 30.5t-4.5 28t-18 8q-40 0 -156 -150l-10 8
q66 130 140.5 201.5t138.5 71.5q45 0 65 -30.5t19 -75t-15 -111.5l-141 -670q-15 -72 -4 -88q6 -8 16 -8q28 0 81 51t114 131l10 -8q-79 -149 -160.5 -231.5t-154.5 -82.5z" />
    <glyph glyph-name="Iogonek" unicode="&#x12e;" horiz-adv-x="555" 
d="M240 1479l2 12h475l-2 -12q-34 0 -60.5 -7t-46 -23t-33.5 -34.5t-25 -49.5t-18 -59t-16 -71l-209 -979q-9 -45 -13.5 -71.5t-6.5 -58.5t4 -49.5t18.5 -34t36 -23.5t57.5 -7l-2 -12h-215q-91 -83 -134.5 -158t-43.5 -121q0 -35 21.5 -55t58.5 -20q63 0 150 63l6 -10
q-132 -121 -244 -121q-57 0 -90 31t-33 80q0 140 279 311h-230l2 12q34 0 60.5 7t46 23t33.5 34.5t25 49.5t18 59t16 71l209 979q9 45 13.5 71.5t6.5 58.5t-4 49.5t-18.5 34t-36 23.5t-57.5 7z" />
    <glyph glyph-name="iogonek" unicode="&#x12f;" horiz-adv-x="487" 
d="M399 1497q47 0 81 -34t34 -81t-34 -80.5t-81 -33.5q-49 0 -82.5 33t-33.5 81t33.5 81.5t82.5 33.5zM270 115q28 0 81 51t114 131l10 -8q-131 -244 -254 -299q-84 -80 -125 -153t-41 -116q0 -35 21.5 -55t58.5 -20q63 0 150 63l6 -10q-132 -121 -244 -121q-57 0 -90 31
t-33 80q0 131 240 286h-4q-121 0 -74 218l143 669q6 28 7.5 38.5t3 30.5t-4.5 28t-18 8q-40 0 -156 -150l-10 8q66 130 140.5 201.5t138.5 71.5q45 0 65 -30.5t19 -75t-15 -111.5l-141 -670q-15 -72 -4 -88q6 -8 16 -8z" />
    <glyph glyph-name="Idotaccent" unicode="&#x130;" horiz-adv-x="555" 
d="M514 1661q-49 0 -83 34.5t-34 82.5q0 47 34 80.5t83 33.5q47 0 81 -33.5t34 -80.5t-34 -82t-81 -35zM401 0h-475l2 12q34 0 60.5 7t46 23t33.5 34.5t25 49.5t18 59t16 71l209 979q9 45 13.5 71.5t6.5 58.5t-4 49.5t-18.5 34t-36 23.5t-57.5 7l2 12h475l-2 -12
q-34 0 -60.5 -7t-46 -23t-33.5 -34.5t-25 -49.5t-18 -59t-16 -71l-209 -979q-9 -45 -13.5 -71.5t-6.5 -58.5t4 -49.5t18.5 -34t36 -23.5t57.5 -7z" />
    <glyph glyph-name="dotlessi" unicode="&#x131;" horiz-adv-x="487" 
d="M160 -25q-121 0 -74 218l143 669q6 28 7.5 38.5t3 30.5t-4.5 28t-18 8q-40 0 -156 -150l-10 8q66 130 140.5 201.5t138.5 71.5q45 0 65 -30.5t19 -75t-15 -111.5l-141 -670q-15 -72 -4 -88q6 -8 16 -8q28 0 81 51t114 131l10 -8q-79 -149 -160.5 -231.5t-154.5 -82.5z
" />
    <glyph glyph-name="IJ" unicode="&#x132;" horiz-adv-x="1079" 
d="M401 0h-475l2 12q34 0 60.5 7t46 23t33.5 34.5t25 49.5t18 59t16 71l209 979q9 45 13.5 71.5t6.5 58.5t-4 49.5t-18.5 34t-36 23.5t-57.5 7l2 12h475l-2 -12q-34 0 -60.5 -7t-46 -23t-33.5 -34.5t-25 -49.5t-18 -59t-16 -71l-209 -979q-9 -45 -13.5 -71.5t-6.5 -58.5
t4 -49.5t18.5 -34t36 -23.5t57.5 -7zM365 -328l-7 11q136 104 191 198.5t94 282.5l227 1071q11 53 16 85t4 66t-12.5 52t-37 29.5t-66.5 11.5l2 12h475l-2 -12q-41 0 -71 -12t-49 -29t-34.5 -52.5t-23.5 -66t-20 -84.5l-195 -920q-29 -137 -63 -229.5t-90.5 -171.5
t-137 -135.5t-200.5 -106.5z" />
    <glyph glyph-name="ij" unicode="&#x133;" horiz-adv-x="954" 
d="M399 1268q-49 0 -82.5 33t-33.5 81t33.5 81.5t82.5 33.5q47 0 81 -34t34 -81t-34 -80.5t-81 -33.5zM918 1268q-47 0 -82 34t-35 80q0 47 35 81t82 34q46 0 80 -34t34 -81q0 -46 -34 -80t-80 -34zM160 -25q-121 0 -74 218l143 669q6 28 7.5 38.5t3 30.5t-4.5 28t-18 8
q-40 0 -156 -150l-10 8q66 130 140.5 201.5t138.5 71.5q45 0 65 -30.5t19 -75t-15 -111.5l-141 -670q-15 -72 -4 -88q6 -8 16 -8q28 0 81 51t114 131l10 -8q-79 -149 -160.5 -231.5t-154.5 -82.5zM250 -467v12q123 28 193.5 122.5t105.5 260.5l199 934q11 37 10.5 71
t-23.5 34q-39 0 -155 -150l-11 8q66 130 140.5 201.5t138.5 71.5q35 0 55.5 -16.5t26 -47.5t2.5 -67.5t-14 -85.5l-193 -908q-84 -390 -475 -440z" />
    <glyph glyph-name="Jcircumflex" unicode="&#x134;" horiz-adv-x="540" 
d="M582 2017h10l219 -405l-8 -10l-250 233l-358 -233l-5 10zM236 1479l2 12h477l-2 -12q-41 0 -71.5 -11.5t-50 -29.5t-35 -52.5t-24 -66t-20.5 -84.5l-195 -920q-29 -137 -63 -229.5t-90.5 -171.5t-137 -135.5t-200.5 -106.5l-6 11q136 104 190.5 198.5t93.5 282.5
l228 1071q11 53 16 85t4 66t-12.5 52t-37 29.5t-66.5 11.5z" />
    <glyph glyph-name="jcircumflex" unicode="&#x135;" horiz-adv-x="446" 
d="M475 1616l197 -406l-8 -10l-230 230l-338 -230l-4 10l371 406h12zM338 1098q35 0 55 -16t25.5 -47.5t2.5 -67.5t-13 -86l-193 -908q-84 -389 -473 -440v12q122 28 192 122.5t105 260.5l199 934q26 105 -13 105q-21 0 -57.5 -36.5t-97.5 -113.5l-11 8q66 130 140.5 201.5
t138.5 71.5z" />
    <glyph glyph-name="uni0136" unicode="&#x136;" horiz-adv-x="1257" 
d="M403 12l-2 -12h-475l2 12q41 0 71 11t49 27.5t34 50t23 63.5t20 84l211 995q11 52 15.5 84t3.5 64t-13 49.5t-37 28t-65 10.5l2 12h475l-2 -12q-51 0 -84.5 -14t-55 -48.5t-33.5 -71t-26 -102.5l-209 -995q-11 -52 -16 -83.5t-4 -64.5t13 -49.5t37.5 -27.5t65.5 -11z
M1438 1491l-2 -12q-57 -13 -173.5 -90.5t-285.5 -233.5l-350 -321q165 -391 318.5 -600.5t242.5 -221.5l-2 -12q-68 -8 -168 -8q-51 0 -93 17.5t-90.5 63.5t-101 130t-117 214.5t-145.5 319.5l477 445q58 54 84.5 80t55.5 58.5t39.5 54.5t11.5 44q3 53 -78 60l2 12h375z
M438 -98q56 0 98 -43t42 -113q0 -108 -70 -176.5t-170 -89.5l-2 12q69 25 118.5 66.5t49.5 89.5q0 53 -84 71q-80 16 -80 86q0 41 28 69t70 28z" />
    <glyph glyph-name="uni0137" unicode="&#x137;" horiz-adv-x="976" 
d="M741 123q73 0 193 182l10 -8q-83 -165 -155 -243.5t-138 -78.5q-88 0 -151.5 131t-130.5 424q228 126 295 172q125 87 143 170q4 17 4 35q0 43 -23.5 63.5t-58.5 20.5q-94 0 -199 -100.5t-181 -242t-103 -271.5l-80 -377h-166l283 1339q19 97 4 139t-68 54l4 12l273 58h8
l-211 -1010q43 102 102 192.5t129 161t151 111.5t161 41q67 0 110 -35.5t43 -104.5q0 -100 -110.5 -185t-350.5 -193q58 -246 105 -351.5t108 -105.5zM365 -98q56 0 97.5 -43t41.5 -113q0 -108 -70 -176.5t-170 -89.5l-2 12q69 25 118.5 66.5t49.5 89.5q0 53 -84 71
q-80 16 -80 86q0 41 28 69t71 28z" />
    <glyph glyph-name="kgreenlandic" unicode="&#x138;" horiz-adv-x="1024" 
d="M788 123q73 0 193 182l10 -8q-83 -165 -155 -243.5t-138 -78.5q-89 0 -152.5 131t-129.5 424q229 126 299 174q123 87 140 171q3 16 3 32q0 43 -23.5 63.5t-58.5 20.5q-68 0 -146 -57.5t-143 -145.5t-116.5 -193.5t-75.5 -201.5l-84 -393h-164l182 862q6 28 7.5 38.5
t3 30.5t-4.5 28t-18 8q-40 0 -156 -150l-10 8q66 130 140.5 201.5t138.5 71.5q45 0 65 -30.5t19 -75t-15 -111.5l-59 -287q58 136 141.5 248.5t190 184t209.5 71.5q68 0 111.5 -35.5t43.5 -104.5q0 -100 -110.5 -185t-350.5 -193q58 -246 105 -351.5t108 -105.5z" />
    <glyph glyph-name="Lacute" unicode="&#x139;" horiz-adv-x="1056" 
d="M383 1602l-8 6q28 42 89.5 143.5t110.5 180t62 91.5q32 25 57 25q28 0 49 -19.5t21 -48.5q0 -30 -31 -61q-40 -41 -350 -317zM870 0h-944l2 12q34 0 60.5 7t46 23t33.5 34.5t25 49.5t18 59t16 71l209 979q9 45 13.5 71.5t6.5 58.5t-4 49.5t-18.5 34t-36 23.5t-57.5 7
l2 12h475l-2 -12q-34 0 -60.5 -7t-46 -23t-33.5 -34.5t-25 -49.5t-18 -59t-16 -71l-235 -1106q-11 -49 2 -72.5t57 -23.5h143q117 0 190 24t145.5 93.5t166.5 211.5h12z" />
    <glyph glyph-name="lacute" unicode="&#x13a;" horiz-adv-x="446" 
d="M377 1602l-6 6q25 38 88.5 142.5t111.5 181.5t62 91q29 25 55 25q29 0 49.5 -19.5t20.5 -48.5q0 -30 -31 -61q-40 -41 -350 -317zM119 -25q-121 0 -74 218l244 1146q20 97 5 138.5t-67 54.5l2 12l273 58h8l-295 -1391q-21 -96 14 -96q28 0 83.5 53.5t113.5 130.5l10 -8
q-79 -149 -160.5 -232.5t-156.5 -83.5z" />
    <glyph glyph-name="uni013B" unicode="&#x13b;" horiz-adv-x="1056" 
d="M870 0h-944l2 12q34 0 60.5 7t46 23t33.5 34.5t25 49.5t18 59t16 71l209 979q9 45 13.5 71.5t6.5 58.5t-4 49.5t-18.5 34t-36 23.5t-57.5 7l2 12h475l-2 -12q-34 0 -60.5 -7t-46 -23t-33.5 -34.5t-25 -49.5t-18 -59t-16 -71l-235 -1106q-11 -49 2 -72.5t57 -23.5h143
q117 0 190 24t145.5 93.5t166.5 211.5h12zM213 -520l-2 12q69 25 118.5 66.5t49.5 89.5q0 53 -84 71q-41 8 -60.5 32t-19.5 54q0 41 27.5 69t70.5 28q56 0 98 -43t42 -113q0 -108 -69.5 -176.5t-170.5 -89.5z" />
    <glyph glyph-name="uni013C" unicode="&#x13c;" horiz-adv-x="446" 
d="M119 -25q-121 0 -74 218l244 1146q20 97 5 138.5t-67 54.5l2 12l273 58h8l-295 -1391q-21 -96 14 -96q28 0 83.5 53.5t113.5 130.5l10 -8q-79 -149 -160.5 -232.5t-156.5 -83.5zM-31 -520l-2 12q69 25 118.5 66.5t49.5 89.5q0 53 -84 71q-80 16 -80 86q0 41 28 69t71 28
q56 0 97.5 -43t41.5 -113q0 -108 -70 -176.5t-170 -89.5z" />
    <glyph glyph-name="Lcaron" unicode="&#x13d;" horiz-adv-x="1067" 
d="M887 1094l-2 12q69 25 117.5 65.5t48.5 88.5q0 56 -84 71q-41 8 -59.5 33t-18.5 55q0 42 27 69.5t69 27.5q57 0 98 -43.5t41 -114.5q0 -107 -68 -175.5t-169 -88.5zM870 0h-944l2 12q34 0 60.5 7t46 23t33.5 34.5t25 49.5t18 59t16 71l209 979q9 45 13.5 71.5t6.5 58.5
t-4 49.5t-18.5 34t-36 23.5t-57.5 7l2 12h475l-2 -12q-34 0 -60.5 -7t-46 -23t-33.5 -34.5t-25 -49.5t-18 -59t-16 -71l-235 -1106q-11 -49 2 -72.5t57 -23.5h143q117 0 190 24t145.5 93.5t166.5 211.5h12z" />
    <glyph glyph-name="lcaron" unicode="&#x13e;" horiz-adv-x="466" 
d="M119 -25q-121 0 -74 218l244 1146q20 97 5 138.5t-67 54.5l2 12l273 58h8l-295 -1391q-21 -96 14 -96q28 0 83.5 53.5t113.5 130.5l10 -8q-79 -149 -160.5 -232.5t-156.5 -83.5zM596 1180l-2 12q69 25 117.5 65.5t48.5 88.5q0 56 -84 71q-41 8 -59.5 33t-18.5 55
q0 42 27 69.5t69 27.5q57 0 98.5 -43.5t41.5 -114.5q0 -107 -69 -175t-169 -89z" />
    <glyph glyph-name="Ldot" unicode="&#x13f;" horiz-adv-x="1056" 
d="M870 0h-944l2 12q34 0 60.5 7t46 23t33.5 34.5t25 49.5t18 59t16 71l209 979q9 45 13.5 71.5t6.5 58.5t-4 49.5t-18.5 34t-36 23.5t-57.5 7l2 12h475l-2 -12q-34 0 -60.5 -7t-46 -23t-33.5 -34.5t-25 -49.5t-18 -59t-16 -71l-235 -1106q-11 -49 2 -72.5t57 -23.5h143
q117 0 190 24t145.5 93.5t166.5 211.5h12zM831 623q-49 0 -83.5 34t-34.5 82q0 50 34.5 84.5t83.5 34.5q48 0 82.5 -35t34.5 -84q0 -47 -35 -81.5t-82 -34.5z" />
    <glyph glyph-name="ldot" unicode="&#x140;" horiz-adv-x="600" 
d="M119 -25q-121 0 -74 218l244 1146q20 97 5 138.5t-67 54.5l2 12l273 58h8l-295 -1391q-21 -96 14 -96q28 0 83.5 53.5t113.5 130.5l10 -8q-79 -149 -160.5 -232.5t-156.5 -83.5zM541 561q-47 0 -82 35t-35 82q0 49 34.5 84t82.5 35q49 0 83.5 -34.5t34.5 -84.5
q0 -48 -34.5 -82.5t-83.5 -34.5z" />
    <glyph glyph-name="Lslash" unicode="&#x141;" horiz-adv-x="1091" 
d="M1020 362h12l-127 -362h-944l2 12q34 0 60.5 7t46 23t33.5 34.5t25 49.5t18 59t16 71l82 385l-183 -82l-8 37l201 90l117 549q11 54 15.5 85t3.5 65.5t-12.5 52t-37 29.5t-66.5 12l2 12h476l-2 -12q-34 0 -60.5 -7t-46 -23t-33.5 -34.5t-25 -49.5t-18 -59t-16 -71
l-98 -459l290 131l9 -37l-308 -139l-129 -602q-11 -49 2.5 -72.5t57.5 -23.5h143q117 0 190 24t145.5 93.5t166.5 211.5z" />
    <glyph glyph-name="lslash" unicode="&#x142;" horiz-adv-x="534" 
d="M537 805l-183 -92l-106 -502q-21 -96 12 -96q28 0 83.5 53.5t113.5 130.5l10 -8q-79 -149 -160.5 -232.5t-156.5 -83.5q-121 0 -74 218l90 423l-121 -61l-12 37l143 74l146 673q19 97 4 139t-68 54l2 12l275 58h8l-178 -842l159 82z" />
    <glyph glyph-name="Nacute" unicode="&#x143;" horiz-adv-x="1320" 
d="M1116 1919q-40 -41 -350 -317l-8 6q28 42 89.5 143.5t110.5 180t62 91.5q32 25 57 25q28 0 49 -19.5t21 -48.5q0 -30 -31 -61zM1114 1479l2 12h381l-2 -12q-40 0 -72.5 -17t-56 -46t-43.5 -77t-34 -98t-29 -121l-242 -1145h-12l-596 1368l-211 -993q-13 -63 -19 -111
t-3 -92.5t16.5 -73t42.5 -45t73 -16.5l-4 -12h-399l4 12q100 0 158 87.5t92 250.5l194 910q23 105 -8 156t-125 63l2 12h316l514 -1182l170 811q19 87 24.5 148.5t-3.5 111.5t-41.5 74.5t-88.5 24.5z" />
    <glyph glyph-name="nacute" unicode="&#x144;" horiz-adv-x="1091" 
d="M938 1518q-62 -62 -350 -318l-8 6q28 42 89.5 144t110.5 180.5t62 91.5q32 25 57 25q28 0 49 -19.5t21 -48.5q0 -30 -31 -61zM1071 297l10 -8q-77 -148 -159 -231t-154 -83q-127 0 -76 218l121 528q9 39 14.5 66t9.5 59t2 53.5t-8.5 40.5t-22 28t-38.5 9
q-87 0 -196.5 -134.5t-208.5 -362t-154 -480.5h-164l182 862q6 28 7.5 38.5t3 30.5t-4.5 28t-18 8q-40 0 -156 -150l-10 8q66 130 140.5 201.5t138.5 71.5q45 0 65 -30.5t19 -75t-15 -111.5l-106 -490q116 318 270.5 512.5t306.5 194.5q50 0 81.5 -21t45 -55t14 -87
t-7.5 -106.5t-24 -123.5l-115 -494q-15 -73 -10 -90q4 -15 20 -15q24 0 75 48t122 143z" />
    <glyph glyph-name="uni0145" unicode="&#x145;" horiz-adv-x="1320" 
d="M1114 1479l2 12h381l-2 -12q-40 0 -72.5 -17t-56 -46t-43.5 -77t-34 -98t-29 -121l-242 -1145h-12l-596 1368l-211 -993q-13 -63 -19 -111t-3 -92.5t16.5 -73t42.5 -45t73 -16.5l-4 -12h-399l4 12q100 0 158 87.5t92 250.5l194 910q23 105 -8 156t-125 63l2 12h316
l514 -1182l170 811q19 87 24.5 148.5t-3.5 111.5t-41.5 74.5t-88.5 24.5zM487 -98q56 0 97 -43t41 -113q0 -108 -69 -176.5t-169 -89.5l-2 12q68 25 118 66.5t50 89.5q0 53 -86 71q-41 8 -59.5 32t-18.5 54q0 41 27.5 69t70.5 28z" />
    <glyph glyph-name="uni0146" unicode="&#x146;" horiz-adv-x="1091" 
d="M1071 297l10 -8q-77 -148 -159 -231t-154 -83q-127 0 -76 218l121 528q9 39 14.5 66t9.5 59t2 53.5t-8.5 40.5t-22 28t-38.5 9q-87 0 -196.5 -134.5t-208.5 -362t-154 -480.5h-164l182 862q6 28 7.5 38.5t3 30.5t-4.5 28t-18 8q-40 0 -156 -150l-10 8q66 130 140.5 201.5
t138.5 71.5q45 0 65 -30.5t19 -75t-15 -111.5l-106 -490q116 318 270.5 512.5t306.5 194.5q50 0 81.5 -21t45 -55t14 -87t-7.5 -106.5t-24 -123.5l-115 -494q-15 -73 -10 -90q4 -15 20 -15q24 0 75 48t122 143zM397 -98q57 0 98.5 -42.5t41.5 -113.5q0 -108 -69 -176.5
t-169 -89.5l-2 12q67 25 116.5 66.5t49.5 89.5q0 53 -84 71q-41 8 -59.5 32t-18.5 54q0 42 27 69.5t69 27.5z" />
    <glyph glyph-name="Ncaron" unicode="&#x147;" horiz-adv-x="1320" 
d="M1233 2007l-391 -405h-13l-217 405l9 10l249 -233l359 233zM1114 1479l2 12h381l-2 -12q-40 0 -72.5 -17t-56 -46t-43.5 -77t-34 -98t-29 -121l-242 -1145h-12l-596 1368l-211 -993q-13 -63 -19 -111t-3 -92.5t16.5 -73t42.5 -45t73 -16.5l-4 -12h-399l4 12
q100 0 158 87.5t92 250.5l194 910q23 105 -8 156t-125 63l2 12h316l514 -1182l170 811q19 87 24.5 148.5t-3.5 111.5t-41.5 74.5t-88.5 24.5z" />
    <glyph glyph-name="ncaron" unicode="&#x148;" horiz-adv-x="1091" 
d="M1038 1606l-370 -406h-13l-198 406l8 10l231 -232l338 232zM1071 297l10 -8q-77 -148 -159 -231t-154 -83q-127 0 -76 218l121 528q9 39 14.5 66t9.5 59t2 53.5t-8.5 40.5t-22 28t-38.5 9q-87 0 -196.5 -134.5t-208.5 -362t-154 -480.5h-164l182 862q6 28 7.5 38.5
t3 30.5t-4.5 28t-18 8q-40 0 -156 -150l-10 8q66 130 140.5 201.5t138.5 71.5q45 0 65 -30.5t19 -75t-15 -111.5l-106 -490q116 318 270.5 512.5t306.5 194.5q50 0 81.5 -21t45 -55t14 -87t-7.5 -106.5t-24 -123.5l-115 -494q-15 -73 -10 -90q4 -15 20 -15q24 0 75 48
t122 143z" />
    <glyph glyph-name="napostrophe" unicode="&#x149;" horiz-adv-x="1239" 
d="M477 1339q0 -121 -85.5 -208.5t-209.5 -106.5l-2 12q46 10 93.5 38.5t83 72.5t36.5 88q1 20 -7 35t-25.5 24.5t-29 14t-34.5 10.5q-46 11 -67 40t-21 64q0 46 30.5 75.5t79.5 29.5q63 0 110.5 -52.5t47.5 -136.5zM1221 297l10 -8q-78 -148 -160.5 -231t-152.5 -83
q-126 0 -78 218l123 528q14 59 20 97.5t5.5 78.5t-18.5 60t-52 20q-86 0 -195.5 -134t-209 -362t-153.5 -481h-165l182 862q6 28 7.5 38.5t3 30.5t-4.5 28t-18 8q-37 0 -156 -150l-10 8q67 130 140.5 201.5t137.5 71.5q35 0 55 -16t25.5 -47.5t2.5 -67.5t-13 -86l-107 -490
q76 207 169.5 365t200 250t208.5 92q41 0 70 -14t44.5 -41t22 -61t3 -81t-11 -92.5t-20.5 -103.5l-112 -494q-7 -27 -9 -38.5t-4 -31t3.5 -27.5t17.5 -8q55 0 199 191z" />
    <glyph glyph-name="Eng" unicode="&#x14a;" horiz-adv-x="1320" 
d="M1114 1479l2 12h381l-2 -12q-50 -1 -87.5 -24.5t-64 -72t-44 -106t-35.5 -143.5l-201 -943l-43 -200q-41 -197 -137 -314.5t-238 -142.5v12q123 33 191 126.5t102 256.5l29 138l-557 1277l-213 -1003q-17 -79 -21 -134t5.5 -101t41 -69t86.5 -24l-4 -12h-399l4 12
q102 3 159.5 86t90.5 242l194 920q23 105 -8 156t-125 63l2 12h318l512 -1182l174 824q17 85 22 142t-4.5 104.5t-42 71.5t-88.5 28z" />
    <glyph glyph-name="eng" unicode="&#x14b;" horiz-adv-x="1046" 
d="M870 1098q41 0 70 -14t44 -41.5t21.5 -60.5t3 -81t-10.5 -92.5t-19 -103.5l-158 -732q-84 -390 -475 -440v12q123 28 193.5 122.5t105.5 260.5l168 793q9 41 13.5 66t9.5 59t2.5 54t-8.5 39.5t-21.5 28.5t-38.5 9q-87 0 -196.5 -134.5t-208.5 -362t-154 -480.5h-164
l182 862q6 28 7.5 38.5t3 30.5t-4.5 28t-18 8q-40 0 -156 -150l-10 8q66 130 140.5 201.5t138.5 71.5q45 0 65 -30.5t19 -75t-15 -111.5l-106 -490q116 318 270.5 512.5t306.5 194.5z" />
    <glyph glyph-name="Omacron" unicode="&#x14c;" horiz-adv-x="1452" 
d="M1202 1692h-569l31 77h569zM655 -25q-267 0 -416 158t-149 428q0 146 36.5 287t107.5 261t166 211.5t220 143.5t263 52q268 0 418.5 -157.5t150.5 -428.5q0 -183 -59 -355.5t-161.5 -305.5t-253.5 -213.5t-323 -80.5zM647 4q108 0 206.5 62t171.5 165t127.5 233t82 268.5
t27.5 268.5q0 220 -94 353t-273 133q-135 0 -253.5 -95t-196 -242.5t-122 -322t-44.5 -338.5q0 -220 94.5 -352.5t273.5 -132.5z" />
    <glyph glyph-name="omacron" unicode="&#x14d;" horiz-adv-x="1007" 
d="M922 1290h-549l30 78h549zM412 -25q-169 0 -271 113.5t-102 306.5q0 126 43 252.5t115 226t177 162t220 62.5q169 0 270 -114t101 -308q0 -128 -42.5 -254.5t-115 -225t-177 -160t-218.5 -61.5zM408 4q86 0 162 75.5t124 190t75.5 244t27.5 244.5q0 144 -50 227.5
t-149 83.5q-86 0 -161.5 -75.5t-123.5 -190t-76 -244t-28 -244.5q0 -143 50 -227t149 -84z" />
    <glyph glyph-name="Obreve" unicode="&#x14e;" horiz-adv-x="1452" 
d="M913 1640q-63 0 -108.5 29.5t-69 79.5t-34 104t-11.5 117l15 2q12 -92 71 -153.5t162 -61.5t188 61t140 154l10 -4q-27 -62 -60.5 -116t-78.5 -104t-103 -79t-121 -29zM655 -25q-267 0 -416 158t-149 428q0 146 36.5 287t107.5 261t166 211.5t220 143.5t263 52
q268 0 418.5 -157.5t150.5 -428.5q0 -183 -59 -355.5t-161.5 -305.5t-253.5 -213.5t-323 -80.5zM647 4q108 0 206.5 62t171.5 165t127.5 233t82 268.5t27.5 268.5q0 220 -94 353t-273 133q-135 0 -253.5 -95t-196 -242.5t-122 -322t-44.5 -338.5q0 -220 94.5 -352.5
t273.5 -132.5z" />
    <glyph glyph-name="obreve" unicode="&#x14f;" horiz-adv-x="1007" 
d="M643 1239q-63 0 -105.5 29t-62.5 80.5t-27.5 103.5t-7.5 117l15 2q27 -215 213 -215q179 0 307 215l10 -4q-24 -53 -45 -93.5t-54 -87t-66.5 -76.5t-79.5 -50.5t-97 -20.5zM412 -25q-169 0 -271 113.5t-102 306.5q0 126 43 252.5t115 226t177 162t220 62.5
q169 0 270 -114t101 -308q0 -128 -42.5 -254.5t-115 -225t-177 -160t-218.5 -61.5zM408 4q86 0 162 75.5t124 190t75.5 244t27.5 244.5q0 144 -50 227.5t-149 83.5q-86 0 -161.5 -75.5t-123.5 -190t-76 -244t-28 -244.5q0 -143 50 -227t149 -84z" />
    <glyph glyph-name="Ohungarumlaut" unicode="&#x150;" horiz-adv-x="1452" 
d="M745 1602l-6 6q23 35 88.5 141t113 179.5t63.5 90.5q29 29 63 29q27 0 45 -18t18 -45q0 -34 -24 -58q-17 -18 -166 -150t-195 -175zM1055 1602l-6 6q240 373 276 411q25 29 61 29q28 0 47 -18t19 -45q0 -28 -25 -58q-16 -17 -169 -147.5t-203 -177.5zM655 -25
q-267 0 -416 158t-149 428q0 146 36.5 287t107.5 261t166 211.5t220 143.5t263 52q268 0 418.5 -157.5t150.5 -428.5q0 -183 -59 -355.5t-161.5 -305.5t-253.5 -213.5t-323 -80.5zM647 4q108 0 206.5 62t171.5 165t127.5 233t82 268.5t27.5 268.5q0 220 -94 353t-273 133
q-135 0 -253.5 -95t-196 -242.5t-122 -322t-44.5 -338.5q0 -220 94.5 -352.5t273.5 -132.5z" />
    <glyph glyph-name="ohungarumlaut" unicode="&#x151;" horiz-adv-x="1011" 
d="M473 1200l-6 6q28 43 90 143.5t110 176t64 92.5q29 29 64 29q28 0 45.5 -18t17.5 -46q0 -33 -24 -57q-14 -15 -81.5 -75.5t-154.5 -138t-125 -112.5zM782 1200l-6 6q12 18 89.5 137.5t124 188t63.5 86.5q29 29 63 29q27 0 45.5 -18.5t18.5 -45.5q0 -32 -25 -57
q-17 -18 -171 -150t-202 -176zM412 -25q-169 0 -271 113.5t-102 306.5q0 126 43 252.5t115 226t177 162t220 62.5q169 0 270 -114t101 -308q0 -128 -42.5 -254.5t-115 -225t-177 -160t-218.5 -61.5zM408 4q86 0 162 75.5t124 190t75.5 244t27.5 244.5q0 144 -50 227.5
t-149 83.5q-86 0 -161.5 -75.5t-123.5 -190t-76 -244t-28 -244.5q0 -143 50 -227t149 -84z" />
    <glyph glyph-name="OE" unicode="&#x152;" horiz-adv-x="2017" 
d="M2118 1491l-37 -307h-13q-17 73 -35.5 118.5t-42 78t-61 48.5t-82.5 22.5t-116 6.5h-293l-142 -665h230q92 0 146.5 19.5t88 59.5t68.5 121h12l-94 -448h-12q-2 60 -10.5 95.5t-31 65t-65 42t-110.5 12.5h-230l-133 -631q-11 -48 3 -72t59 -24h241q88 0 143 10t112 43
t108.5 93.5t120.5 164.5h12l-121 -344h-1126q-296 0 -457.5 151t-161.5 418q0 187 65.5 355.5t182 294t287 199t370.5 73.5h1125zM971 106l258 1221q13 48 0 77t-63.5 41.5t-155.5 12.5q-142 0 -263 -53.5t-205.5 -143.5t-144 -209t-88 -250.5t-28.5 -266.5q0 -244 113 -373
t321 -129h162q79 0 94 73z" />
    <glyph glyph-name="oe" unicode="&#x153;" horiz-adv-x="1568" 
d="M1604 940q0 -55 -31.5 -103.5t-85 -88t-141.5 -80t-182.5 -73.5t-227.5 -73q-18 -83 -18 -172q0 -274 184 -274q91 0 188.5 64t188.5 175l12 -8q-216 -332 -465 -332q-204 0 -250 209q-70 -98 -163.5 -153.5t-202.5 -55.5q-169 0 -270 112.5t-101 303.5q0 127 43 254.5
t115.5 227.5t176.5 162.5t218 62.5q133 0 215.5 -71.5t110.5 -203.5q84 127 200 201t262 74q112 0 168 -42.5t56 -115.5zM408 4q82 0 157 78.5t124 196t78.5 250.5t29.5 245q0 136 -51 215.5t-152 79.5q-82 0 -157 -78.5t-124 -196t-78.5 -250.5t-29.5 -245
q0 -136 51 -215.5t152 -79.5zM1350 1067q-118 0 -237 -151.5t-169 -358.5q267 94 386.5 181.5t119.5 209.5q0 119 -100 119z" />
    <glyph glyph-name="Racute" unicode="&#x154;" horiz-adv-x="1167" 
d="M1001 1919q-65 -67 -352 -317l-6 6q28 42 89.5 143.5t110.5 180t62 91.5q29 25 56 25q30 0 50.5 -19.5t20.5 -48.5q0 -25 -31 -61zM733 711q98 -299 197 -488t172 -211l-2 -12q-54 -8 -148 -8q-114 0 -200 156t-195 548q-83 2 -151 19l-101 -467q-12 -56 -16.5 -86.5
t-4 -64t12.5 -49t36.5 -26t65.5 -10.5l-2 -12h-473l2 12q51 0 84.5 14t55 48.5t33.5 71t26 102.5l213 995q11 54 15 86t2.5 64.5t-13.5 48.5t-37 26.5t-65 10.5l2 12h491q207 0 320.5 -94t113.5 -244q0 -89 -35.5 -166.5t-96 -132.5t-138 -91.5t-164.5 -51.5zM547 1384
l-121 -573q-9 -37 22 -57.5t127 -20.5q197 0 301.5 124.5t104.5 326.5q0 122 -67.5 198t-206.5 76h-68q-77 0 -92 -74z" />
    <glyph glyph-name="racute" unicode="&#x155;" horiz-adv-x="735" 
d="M821 1518q-62 -62 -350 -318l-8 6q28 42 89.5 144t110.5 180.5t62 91.5q32 25 57 25q28 0 49 -19.5t21 -48.5q0 -30 -31 -61zM399 881l-86 -396q43 132 90.5 238.5t103 193t119.5 134t130 47.5q51 0 86 -17l-78 -176h-12q-35 17 -70 17q-61 0 -120.5 -52.5t-108.5 -139
t-94.5 -208t-81 -249.5t-66.5 -273h-164l182 862q15 74 8 92q-5 13 -20 13q-40 0 -156 -150l-10 8q66 130 140.5 201.5t138.5 71.5q45 0 65 -30.5t19 -75t-15 -111.5z" />
    <glyph glyph-name="uni0156" unicode="&#x156;" horiz-adv-x="1167" 
d="M733 711q98 -299 197 -488t172 -211l-2 -12q-54 -8 -148 -8q-114 0 -200 156t-195 548q-83 2 -151 19l-101 -467q-12 -56 -16.5 -86.5t-4 -64t12.5 -49t36.5 -26t65.5 -10.5l-2 -12h-473l2 12q51 0 84.5 14t55 48.5t33.5 71t26 102.5l213 995q11 54 15 86t2.5 64.5
t-13.5 48.5t-37 26.5t-65 10.5l2 12h491q207 0 320.5 -94t113.5 -244q0 -89 -35.5 -166.5t-96 -132.5t-138 -91.5t-164.5 -51.5zM547 1384l-121 -573q-9 -37 22 -57.5t127 -20.5q197 0 301.5 124.5t104.5 326.5q0 122 -67.5 198t-206.5 76h-68q-77 0 -92 -74zM418 -98
q56 0 97.5 -43t41.5 -113q0 -108 -70 -176.5t-170 -89.5l-2 12q68 25 118 66.5t50 89.5q0 53 -84 71q-80 16 -80 86q0 41 28 69t71 28z" />
    <glyph glyph-name="uni0157" unicode="&#x157;" horiz-adv-x="735" 
d="M756 1098q51 0 86 -17l-78 -176h-12q-35 17 -70 17q-61 0 -120.5 -52.5t-108.5 -139t-94.5 -208t-81 -249.5t-66.5 -273h-164l182 862q15 74 8 92q-5 13 -20 13q-40 0 -156 -150l-10 8q66 130 140.5 201.5t138.5 71.5q45 0 65 -30.5t19 -75t-15 -111.5l-86 -396
q43 132 90.5 238.5t103 193t119.5 134t130 47.5zM78 -98q57 0 98 -42.5t41 -113.5q0 -108 -68.5 -176.5t-168.5 -89.5l-3 12q67 25 116.5 66.5t49.5 89.5q0 53 -84 71q-77 16 -77 86q0 42 27 69.5t69 27.5z" />
    <glyph glyph-name="Rcaron" unicode="&#x158;" horiz-adv-x="1167" 
d="M1118 2007l-391 -405h-12l-219 405l8 10l252 -233l358 233zM733 711q98 -299 197 -488t172 -211l-2 -12q-54 -8 -148 -8q-114 0 -200 156t-195 548q-83 2 -151 19l-101 -467q-12 -56 -16.5 -86.5t-4 -64t12.5 -49t36.5 -26t65.5 -10.5l-2 -12h-473l2 12q51 0 84.5 14
t55 48.5t33.5 71t26 102.5l213 995q11 54 15 86t2.5 64.5t-13.5 48.5t-37 26.5t-65 10.5l2 12h491q207 0 320.5 -94t113.5 -244q0 -89 -35.5 -166.5t-96 -132.5t-138 -91.5t-164.5 -51.5zM547 1384l-121 -573q-9 -37 22 -57.5t127 -20.5q197 0 301.5 124.5t104.5 326.5
q0 122 -67.5 198t-206.5 76h-68q-77 0 -92 -74z" />
    <glyph glyph-name="rcaron" unicode="&#x159;" horiz-adv-x="735" 
d="M922 1606l-371 -406h-12l-199 406l8 10l232 -232l338 232zM399 881l-86 -396q43 132 90.5 238.5t103 193t119.5 134t130 47.5q51 0 86 -17l-78 -176h-12q-35 17 -70 17q-61 0 -120.5 -52.5t-108.5 -139t-94.5 -208t-81 -249.5t-66.5 -273h-164l182 862q15 74 8 92
q-5 13 -20 13q-40 0 -156 -150l-10 8q66 130 140.5 201.5t138.5 71.5q45 0 65 -30.5t19 -75t-15 -111.5z" />
    <glyph glyph-name="Sacute" unicode="&#x15a;" horiz-adv-x="966" 
d="M549 1602l-8 6q27 41 89.5 143.5t111.5 180t63 91.5q29 25 55 25q28 0 49 -19.5t21 -48.5q0 -30 -31 -61q-40 -41 -350 -317zM369 -25q-108 0 -213.5 33.5t-182.5 87.5l54 291h12q37 -185 136 -279t241 -94q146 0 239 84.5t93 220.5q0 57 -16.5 104t-58 94t-68 70.5
t-89.5 74.5q-18 15 -27 22l-73 57q-40 33 -68 61t-64 74.5t-55.5 105t-19.5 124.5q0 175 139.5 292.5t333.5 117.5q193 0 365 -117l-52 -242h-12q-32 143 -126 231.5t-226 88.5q-124 0 -203.5 -74.5t-79.5 -198.5q0 -56 18 -106.5t52.5 -91.5t60.5 -65t64 -54l73 -58
q51 -41 80 -65.5t70.5 -68t64 -81t39.5 -90t17 -108.5q0 -125 -72 -227t-190.5 -158t-255.5 -56z" />
    <glyph glyph-name="sacute" unicode="&#x15b;" horiz-adv-x="708" 
d="M410 1200l-7 6q24 38 88 143t112.5 182t62.5 91q29 25 55 25q29 0 49.5 -19.5t20.5 -48.5q0 -27 -29 -61q-46 -46 -352 -318zM242 -25q-88 0 -167 31t-122 78l53 162h12q27 -98 106 -165t175 -67q85 0 140 59.5t55 145.5q0 38 -11 69.5t-39 63.5t-50 52.5t-70 60.5
l-58 47q-34 27 -54.5 47t-43.5 51.5t-34 71.5t-11 90q0 137 95 231.5t239 94.5q128 0 262 -84l-39 -156h-12q-31 82 -98.5 141.5t-153.5 59.5q-78 0 -126 -58.5t-48 -132.5q0 -47 20.5 -88.5t44.5 -66.5t66 -60l57 -47q50 -40 77 -65.5t55 -62t40 -76.5t12 -91
q0 -145 -105.5 -240.5t-266.5 -95.5z" />
    <glyph glyph-name="Scircumflex" unicode="&#x15c;" horiz-adv-x="966" 
d="M924 1602l-250 233l-359 -233l-4 10l391 405h11l219 -405zM682 1516q193 0 365 -117l-52 -242h-12q-32 143 -126 231.5t-226 88.5q-124 0 -203.5 -74.5t-79.5 -198.5q0 -56 18 -106.5t52.5 -91.5t60.5 -65t64 -54l73 -58q51 -41 80 -65.5t70.5 -68t64 -81t39.5 -90
t17 -108.5q0 -125 -72 -227t-190.5 -158t-255.5 -56q-108 0 -213.5 33.5t-182.5 87.5l54 291h12q37 -185 136 -279t241 -94q146 0 239 84.5t93 220.5q0 57 -16.5 104t-58 94t-68 70.5t-89.5 74.5q-18 15 -27 22l-73 57q-40 33 -68 61t-64 74.5t-55.5 105t-19.5 124.5
q0 175 139.5 292.5t333.5 117.5z" />
    <glyph glyph-name="scircumflex" unicode="&#x15d;" horiz-adv-x="708" 
d="M565 1616h13l198 -406l-8 -10l-231 232l-336 -232l-4 10zM123 772q0 137 95 231.5t239 94.5q128 0 262 -84l-39 -156h-12q-31 82 -98.5 141.5t-153.5 59.5q-78 0 -126 -58.5t-48 -132.5q0 -47 20.5 -88.5t44.5 -66.5t66 -60l57 -47q50 -40 77 -65.5t55 -62t40 -76.5
t12 -91q0 -145 -105.5 -240.5t-266.5 -95.5q-88 0 -167 31t-122 78l53 162h12q27 -98 106 -165t175 -67q85 0 140 59.5t55 145.5q0 38 -11 69.5t-39 63.5t-50 52.5t-70 60.5l-58 47q-34 27 -54.5 47t-43.5 51.5t-34 71.5t-11 90z" />
    <glyph glyph-name="Scedilla" unicode="&#x15e;" horiz-adv-x="966" 
d="M682 1516q193 0 365 -117l-52 -242h-12q-32 143 -126 231.5t-226 88.5q-124 0 -203.5 -74.5t-79.5 -198.5q0 -56 18 -106.5t52.5 -91.5t60.5 -65t64 -54l73 -58q51 -41 80 -65.5t70.5 -68t64 -81t39.5 -90t17 -108.5q0 -124 -71.5 -225.5t-189 -158t-253.5 -57.5l-47 -73
q85 -5 138.5 -41t53.5 -107q0 -79 -65 -133.5t-168 -54.5q-54 0 -88.5 15.5t-71.5 47.5l8 11q24 -18 64.5 -30.5t78.5 -12.5q56 0 94 33.5t38 80.5q0 24 -11 41.5t-26.5 26.5t-41.5 14.5t-47.5 6.5t-52.5 1l111 174q-100 4 -197 37.5t-170 83.5l54 291h12q37 -185 136 -279
t241 -94q146 0 239 84.5t93 220.5q0 57 -16.5 104t-58 94t-68 70.5t-89.5 74.5q-18 15 -27 22l-73 57q-40 33 -68 61t-64 74.5t-55.5 105t-19.5 124.5q0 175 139.5 292.5t333.5 117.5z" />
    <glyph glyph-name="scedilla" unicode="&#x15f;" horiz-adv-x="708" 
d="M457 1098q128 0 262 -84l-39 -156h-12q-31 82 -98.5 141.5t-153.5 59.5q-78 0 -126 -58.5t-48 -132.5q0 -47 20.5 -88.5t44.5 -66.5t66 -60l57 -47q50 -40 77 -65.5t55 -62t40 -76.5t12 -91q0 -139 -99 -233.5t-251 -102.5l-49 -73q85 -5 139 -41t54 -107
q0 -79 -65.5 -133.5t-168.5 -54.5q-54 0 -88.5 15.5t-71.5 47.5l9 11q24 -18 64.5 -30.5t78.5 -12.5q56 0 93.5 33.5t37.5 80.5q0 24 -11 41.5t-26.5 26.5t-41.5 14.5t-47 6.5t-52 1l110 174q-86 3 -160.5 33.5t-115.5 75.5l53 162h12q27 -98 106 -165t175 -67
q85 0 140 59.5t55 145.5q0 38 -11 69.5t-39 63.5t-50 52.5t-70 60.5l-58 47q-34 27 -54.5 47t-43.5 51.5t-34 71.5t-11 90q0 137 95 231.5t239 94.5z" />
    <glyph glyph-name="Scaron" unicode="&#x160;" horiz-adv-x="966" 
d="M1016 2007l-391 -405h-11l-219 405l8 10l250 -233l359 233zM682 1516q193 0 365 -117l-52 -242h-12q-32 143 -126 231.5t-226 88.5q-124 0 -203.5 -74.5t-79.5 -198.5q0 -56 18 -106.5t52.5 -91.5t60.5 -65t64 -54l73 -58q51 -41 80 -65.5t70.5 -68t64 -81t39.5 -90
t17 -108.5q0 -125 -72 -227t-190.5 -158t-255.5 -56q-108 0 -213.5 33.5t-182.5 87.5l54 291h12q37 -185 136 -279t241 -94q146 0 239 84.5t93 220.5q0 57 -16.5 104t-58 94t-68 70.5t-89.5 74.5q-18 15 -27 22l-73 57q-40 33 -68 61t-64 74.5t-55.5 105t-19.5 124.5
q0 175 139.5 292.5t333.5 117.5z" />
    <glyph glyph-name="scaron" unicode="&#x161;" horiz-adv-x="708" 
d="M860 1606l-371 -406h-10l-198 406l8 10l231 -232l336 232zM123 772q0 137 95 231.5t239 94.5q128 0 262 -84l-39 -156h-12q-31 82 -98.5 141.5t-153.5 59.5q-78 0 -126 -58.5t-48 -132.5q0 -47 20.5 -88.5t44.5 -66.5t66 -60l57 -47q50 -40 77 -65.5t55 -62t40 -76.5
t12 -91q0 -145 -105.5 -240.5t-266.5 -95.5q-88 0 -167 31t-122 78l53 162h12q27 -98 106 -165t175 -67q85 0 140 59.5t55 145.5q0 38 -11 69.5t-39 63.5t-50 52.5t-70 60.5l-58 47q-34 27 -54.5 47t-43.5 51.5t-34 71.5t-11 90z" />
    <glyph glyph-name="uni0162" unicode="&#x162;" horiz-adv-x="1126" 
d="M1278 1491l-37 -307h-12q-21 91 -43 142t-60 82t-86 40.5t-131 9.5h-59l-256 -1202q-11 -53 -16 -85t-4 -66t12.5 -52t37 -29.5t66.5 -11.5l-2 -12h-235l-64 -98q85 -3 140 -40t55 -108q0 -79 -66 -133.5t-170 -54.5q-53 0 -88 16t-70 47l9 11q24 -18 64.5 -30.5
t78.5 -12.5q55 0 93 34t38 80q0 30 -15 49.5t-44 27.5t-54.5 10.5t-64.5 2.5l125 199h-209l2 12q41 0 71.5 11.5t50 29.5t35 52.5t24 66t20.5 84.5l254 1202h-62q-107 0 -171.5 -20.5t-123 -77t-137.5 -176.5h-12l90 307h1026z" />
    <glyph glyph-name="uni0163" unicode="&#x163;" horiz-adv-x="622" 
d="M717 999h-318l-157 -747q-29 -152 41 -152q47 0 126 67t175 195l10 -8q-70 -133 -159.5 -229t-176.5 -131l-59 -92q85 -5 138.5 -41t53.5 -107q0 -79 -65 -133.5t-168 -54.5q-54 0 -88.5 15.5t-71.5 47.5l8 11q24 -18 64.5 -30.5t79.5 -12.5q56 0 93.5 33.5t37.5 80.5
q0 24 -11 41.5t-26.5 26.5t-41.5 14.5t-47.5 6.5t-52.5 1l113 179q-35 -5 -39 -5q-79 0 -104.5 74.5t0.5 186.5l164 763h-109l6 21l31 12q83 36 154 106t143 203h12l-55 -268h344z" />
    <glyph glyph-name="Tcaron" unicode="&#x164;" horiz-adv-x="1126" 
d="M1165 2007l-393 -405h-10l-219 405l8 10l252 -233l358 233zM1278 1491l-37 -307h-12q-21 91 -43 142t-60 82t-86 40.5t-131 9.5h-59l-256 -1202q-11 -53 -16 -85t-4 -66t12.5 -52t37 -29.5t66.5 -11.5l-2 -12h-477l2 12q41 0 71.5 11.5t50 29.5t35 52.5t24 66t20.5 84.5
l254 1202h-62q-107 0 -171.5 -20.5t-123 -77t-137.5 -176.5h-12l90 307h1026z" />
    <glyph glyph-name="tcaron" unicode="&#x165;" horiz-adv-x="628" 
d="M735 1591q57 0 98 -43t41 -114q0 -108 -68.5 -177t-168.5 -90l-2 13q68 25 117 66t49 89q0 57 -84 72q-41 8 -60.5 32t-19.5 54q0 42 28 70t70 28zM461 1341h12l-55 -268h344l-45 -74h-318l-157 -747q-29 -152 41 -152q47 0 126 67t175 195l10 -8q-90 -168 -205.5 -273.5
t-212.5 -105.5q-79 0 -104.5 74.5t0.5 186.5l164 763h-109l6 21l31 12q83 36 154 106t143 203z" />
    <glyph glyph-name="Tbar" unicode="&#x166;" horiz-adv-x="1134" 
d="M1280 1491l-37 -307h-12q-21 91 -43 142t-59.5 82t-85.5 40.5t-130 9.5h-61l-143 -670h223l-8 -40h-224l-104 -492q-9 -45 -13.5 -71.5t-6.5 -58.5t4 -49.5t18.5 -34t36 -23.5t57.5 -7l-2 -12h-475l2 12q34 0 60.5 7t46 23t33.5 34.5t25 49.5t18 59t16 71l104 492h-227
l8 40h227l144 670h-62q-108 0 -173 -21t-123.5 -77t-137.5 -176h-12l92 307h1024z" />
    <glyph glyph-name="tbar" unicode="&#x167;" horiz-adv-x="622" 
d="M762 1073l-45 -74h-318l-65 -313h323l-8 -41h-323l-84 -393q-29 -152 41 -152q47 0 126 67t175 195l10 -8q-90 -168 -205.5 -273.5t-212.5 -105.5q-79 0 -104.5 74.5t0.5 186.5l88 409h-97l9 41h96l68 313h-109l6 21l31 12q83 36 154 106t143 203h12l-55 -268h344z" />
    <glyph glyph-name="Utilde" unicode="&#x168;" horiz-adv-x="1318" 
d="M621 1638l-13 2q34 118 79.5 178t111.5 60q51 0 162 -60.5t155 -60.5q46 0 77.5 29.5t63.5 101.5l13 -2q-34 -119 -79.5 -179t-113.5 -60q-51 0 -161 60t-154 60q-46 0 -77.5 -29t-63.5 -100zM594 -25q-265 0 -374 138t-52 401l154 721q9 43 14 71.5t6.5 59t-4.5 49
t-19 34.5t-36.5 23t-57.5 7l4 12h476l-5 -12q-41 0 -71 -12t-49 -29t-34.5 -52.5t-23.5 -66t-20 -84.5l-152 -715q-54 -246 13.5 -370.5t267.5 -124.5q180 0 297 109.5t164 330.5l139 655q17 81 22.5 142t-2 112t-37 78t-79.5 27l4 12h368l-4 -12q-50 0 -88.5 -26.5
t-65.5 -79.5t-45 -110.5t-36 -142.5l-140 -655q-105 -490 -534 -490z" />
    <glyph glyph-name="utilde" unicode="&#x169;" horiz-adv-x="1091" 
d="M547 1358q-46 0 -76.5 -28.5t-62.5 -100.5l-13 2q32 117 78 177t113 60q41 0 90.5 -29.5t98 -59t85.5 -29.5q46 0 76.5 28.5t62.5 100.5l13 -2q-62 -238 -189 -238q-33 0 -72.5 18.5t-69.5 41t-67 41t-67 18.5zM1069 297l10 -8q-77 -149 -159.5 -231.5t-155.5 -82.5
q-46 0 -67.5 29.5t-20 78t13.5 110.5l105 481q-118 -315 -271.5 -507t-304.5 -192q-41 0 -70 14t-44 41.5t-21.5 61.5t-3 81t11.5 92.5t21 103.5l112 493q15 73 11 90q-4 15 -19 15q-42 0 -158 -150l-10 8q66 130 139 201.5t134 71.5q126 0 75 -217l-121 -529
q-9 -39 -14.5 -66t-9.5 -59t-2 -53.5t8.5 -40.5t22 -28t38.5 -9q60 0 138 74.5t154.5 199.5t147.5 305.5t113 375.5l162 26h10l-184 -866q-6 -28 -7.5 -38.5t-3 -30.5t4.5 -28t18 -8q25 0 75.5 47.5t121.5 143.5z" />
    <glyph glyph-name="Umacron" unicode="&#x16a;" horiz-adv-x="1318" 
d="M1202 1692h-567l31 77h567zM594 -25q-265 0 -374 138t-52 401l154 721q9 43 14 71.5t6.5 59t-4.5 49t-19 34.5t-36.5 23t-57.5 7l4 12h476l-5 -12q-41 0 -71 -12t-49 -29t-34.5 -52.5t-23.5 -66t-20 -84.5l-152 -715q-54 -246 13.5 -370.5t267.5 -124.5q180 0 297 109.5
t164 330.5l139 655q17 81 22.5 142t-2 112t-37 78t-79.5 27l4 12h368l-4 -12q-50 0 -88.5 -26.5t-65.5 -79.5t-45 -110.5t-36 -142.5l-140 -655q-105 -490 -534 -490z" />
    <glyph glyph-name="umacron" unicode="&#x16b;" horiz-adv-x="1091" 
d="M442 1368h549l-30 -78h-549zM1069 297l10 -8q-77 -149 -159.5 -231.5t-155.5 -82.5q-46 0 -67.5 29.5t-20 78t13.5 110.5l105 481q-118 -315 -271.5 -507t-304.5 -192q-41 0 -70 14t-44 41.5t-21.5 61.5t-3 81t11.5 92.5t21 103.5l112 493q15 73 11 90q-4 15 -19 15
q-42 0 -158 -150l-10 8q66 130 139 201.5t134 71.5q126 0 75 -217l-121 -529q-9 -39 -14.5 -66t-9.5 -59t-2 -53.5t8.5 -40.5t22 -28t38.5 -9q60 0 138 74.5t154.5 199.5t147.5 305.5t113 375.5l162 26h10l-184 -866q-6 -28 -7.5 -38.5t-3 -30.5t4.5 -28t18 -8
q25 0 75.5 47.5t121.5 143.5z" />
    <glyph glyph-name="Ubreve" unicode="&#x16c;" horiz-adv-x="1318" 
d="M915 1640q-63 0 -108.5 29.5t-69.5 79.5t-34.5 104.5t-10.5 116.5l15 2q12 -92 71 -153.5t162 -61.5t188 61t140 154l10 -4q-27 -62 -60.5 -116t-78.5 -104t-103 -79t-121 -29zM594 -25q-265 0 -374 138t-52 401l154 721q9 43 14 71.5t6.5 59t-4.5 49t-19 34.5t-36.5 23
t-57.5 7l4 12h476l-5 -12q-41 0 -71 -12t-49 -29t-34.5 -52.5t-23.5 -66t-20 -84.5l-152 -715q-54 -246 13.5 -370.5t267.5 -124.5q180 0 297 109.5t164 330.5l139 655q17 81 22.5 142t-2 112t-37 78t-79.5 27l4 12h368l-4 -12q-50 0 -88.5 -26.5t-65.5 -79.5t-45 -110.5
t-36 -142.5l-140 -655q-105 -490 -534 -490z" />
    <glyph glyph-name="ubreve" unicode="&#x16d;" horiz-adv-x="1091" 
d="M680 1239q-51 0 -88.5 20.5t-58.5 51.5t-33.5 77t-16.5 87.5t-4 93.5l13 2q31 -215 215 -215q183 0 305 215l10 -4q-29 -66 -58 -117t-70.5 -102.5t-96 -80t-117.5 -28.5zM1069 297l10 -8q-77 -149 -159.5 -231.5t-155.5 -82.5q-46 0 -67.5 29.5t-20 78t13.5 110.5
l105 481q-118 -315 -271.5 -507t-304.5 -192q-41 0 -70 14t-44 41.5t-21.5 61.5t-3 81t11.5 92.5t21 103.5l112 493q15 73 11 90q-4 15 -19 15q-42 0 -158 -150l-10 8q66 130 139 201.5t134 71.5q126 0 75 -217l-121 -529q-9 -39 -14.5 -66t-9.5 -59t-2 -53.5t8.5 -40.5
t22 -28t38.5 -9q60 0 138 74.5t154.5 199.5t147.5 305.5t113 375.5l162 26h10l-184 -866q-6 -28 -7.5 -38.5t-3 -30.5t4.5 -28t18 -8q25 0 75.5 47.5t121.5 143.5z" />
    <glyph glyph-name="Uring" unicode="&#x16e;" horiz-adv-x="1318" 
d="M926 1606q-86 0 -137.5 46.5t-51.5 123.5q0 98 70 166.5t170 68.5q85 0 135.5 -46.5t50.5 -123.5q0 -99 -69 -167t-168 -68zM926 1634q49 0 85.5 37t53 89t16.5 108q0 114 -104 114q-50 0 -87.5 -37.5t-54 -89t-16.5 -106.5q0 -115 107 -115zM594 -25q-265 0 -374 138
t-52 401l154 721q9 43 14 71.5t6.5 59t-4.5 49t-19 34.5t-36.5 23t-57.5 7l4 12h476l-5 -12q-41 0 -71 -12t-49 -29t-34.5 -52.5t-23.5 -66t-20 -84.5l-152 -715q-54 -246 13.5 -370.5t267.5 -124.5q180 0 297 109.5t164 330.5l139 655q17 81 22.5 142t-2 112t-37 78
t-79.5 27l4 12h368l-4 -12q-50 0 -88.5 -26.5t-65.5 -79.5t-45 -110.5t-36 -142.5l-140 -655q-105 -490 -534 -490z" />
    <glyph glyph-name="uring" unicode="&#x16f;" horiz-adv-x="1091" 
d="M692 1204q-86 0 -136 46.5t-50 123.5q0 98 69 167t168 69q86 0 136.5 -46.5t50.5 -123.5q0 -99 -69.5 -167.5t-168.5 -68.5zM743 1581q-50 0 -87 -37.5t-53.5 -89t-16.5 -106.5q0 -115 106 -115q74 0 116 72t42 161q0 115 -107 115zM1069 297l10 -8
q-77 -149 -159.5 -231.5t-155.5 -82.5q-46 0 -67.5 29.5t-20 78t13.5 110.5l105 481q-118 -315 -271.5 -507t-304.5 -192q-41 0 -70 14t-44 41.5t-21.5 61.5t-3 81t11.5 92.5t21 103.5l112 493q15 73 11 90q-4 15 -19 15q-42 0 -158 -150l-10 8q66 130 139 201.5t134 71.5
q126 0 75 -217l-121 -529q-9 -39 -14.5 -66t-9.5 -59t-2 -53.5t8.5 -40.5t22 -28t38.5 -9q60 0 138 74.5t154.5 199.5t147.5 305.5t113 375.5l162 26h10l-184 -866q-6 -28 -7.5 -38.5t-3 -30.5t4.5 -28t18 -8q25 0 75.5 47.5t121.5 143.5z" />
    <glyph glyph-name="Uhungarumlaut" unicode="&#x170;" horiz-adv-x="1318" 
d="M748 1602l-7 6q24 38 88 142t111.5 178t63.5 91q29 29 63 29q28 0 45.5 -17.5t17.5 -45.5q0 -34 -24 -58q-14 -15 -81.5 -76t-152.5 -136.5t-124 -112.5zM1055 1602l-6 6q14 21 90 138t122.5 186.5t63.5 86.5q29 29 64 29q28 0 45.5 -17.5t17.5 -45.5q0 -33 -25 -58
q-17 -18 -170.5 -149.5t-201.5 -175.5zM594 -25q-265 0 -374 138t-52 401l154 721q9 43 14 71.5t6.5 59t-4.5 49t-19 34.5t-36.5 23t-57.5 7l4 12h476l-5 -12q-41 0 -71 -12t-49 -29t-34.5 -52.5t-23.5 -66t-20 -84.5l-152 -715q-54 -246 13.5 -370.5t267.5 -124.5
q180 0 297 109.5t164 330.5l139 655q17 81 22.5 142t-2 112t-37 78t-79.5 27l4 12h368l-4 -12q-50 0 -88.5 -26.5t-65.5 -79.5t-45 -110.5t-36 -142.5l-140 -655q-105 -490 -534 -490z" />
    <glyph glyph-name="uhungarumlaut" unicode="&#x171;" horiz-adv-x="1091" 
d="M872 1526q-14 -15 -81 -75.5t-154.5 -138.5t-124.5 -112l-6 6q28 43 90 143.5t110 176t64 92.5q29 29 64 29q26 0 44.5 -18.5t18.5 -45.5q0 -32 -25 -57zM1155 1647q27 0 45.5 -18.5t18.5 -45.5q0 -32 -25 -57q-17 -18 -171 -150t-202 -176l-6 6q240 373 277 412
q29 29 63 29zM872 106q25 0 75.5 47.5t121.5 143.5l10 -8q-77 -149 -159.5 -231.5t-155.5 -82.5q-46 0 -67.5 29.5t-20 78t13.5 110.5l105 481q-118 -315 -271.5 -507t-304.5 -192q-41 0 -70 14t-44 41.5t-21.5 61.5t-3 81t11.5 92.5t21 103.5l112 493q15 73 11 90
q-4 15 -19 15q-42 0 -158 -150l-10 8q66 130 139 201.5t134 71.5q126 0 75 -217l-121 -529q-9 -39 -14.5 -66t-9.5 -59t-2 -53.5t8.5 -40.5t22 -28t38.5 -9q60 0 138 74.5t154.5 199.5t147.5 305.5t113 375.5l162 26h10l-184 -866q-6 -28 -7.5 -38.5t-3 -30.5t4.5 -28t18 -8
z" />
    <glyph glyph-name="Uogonek" unicode="&#x172;" horiz-adv-x="1318" 
d="M1135 1479l4 12h368l-4 -12q-50 0 -88.5 -26.5t-65.5 -79.5t-45 -110.5t-36 -142.5l-140 -655q-103 -472 -503 -490q-78 -76 -115 -144.5t-37 -109.5q0 -35 21.5 -55t58.5 -20q65 0 152 63l6 -10q-138 -121 -244 -121q-58 0 -91.5 31t-33.5 80q0 72 64 142.5t176 143.5
q-259 3 -365 141t-49 398l154 721q9 43 14 71.5t6.5 59t-4.5 49t-19 34.5t-36.5 23t-57.5 7l4 12h476l-5 -12q-41 0 -71 -12t-49 -29t-34.5 -52.5t-23.5 -66t-20 -84.5l-152 -715q-54 -246 13.5 -370.5t267.5 -124.5q180 0 297 109.5t164 330.5l139 655q17 81 22.5 142
t-2 112t-37 78t-79.5 27z" />
    <glyph glyph-name="uogonek" unicode="&#x173;" horiz-adv-x="1091" 
d="M825 -10q-84 -80 -125 -153t-41 -116q0 -35 21.5 -55t58.5 -20q65 0 152 63l6 -10q-138 -121 -244 -121q-58 0 -91.5 31t-33.5 80q0 72 64 142.5t176 143.5h-4q-46 0 -67.5 29.5t-20 78t13.5 110.5l105 481q-118 -315 -271.5 -507t-304.5 -192q-41 0 -70 14t-44 41.5
t-21.5 61.5t-3 81t11.5 92.5t21 103.5l112 493q15 73 11 90q-4 15 -19 15q-42 0 -158 -150l-10 8q66 130 139 201.5t134 71.5q126 0 75 -217l-121 -529q-9 -39 -14.5 -66t-9.5 -59t-2 -53.5t8.5 -40.5t22 -28t38.5 -9q60 0 138 74.5t154.5 199.5t147.5 305.5t113 375.5
l162 26h10l-184 -866q-6 -28 -7.5 -38.5t-3 -30.5t4.5 -28t18 -8q25 0 75.5 47.5t121.5 143.5l10 -8q-128 -243 -254 -299z" />
    <glyph glyph-name="Wcircumflex" unicode="&#x174;" horiz-adv-x="1843" 
d="M1372 1602l-250 233l-358 -233l-4 10l391 405h10l219 -405zM1731 1479l2 12h338l-3 -12q-71 -12 -141 -99.5t-172 -283.5l-581 -1121h-17l-119 1031l-583 -1031h-17l-135 1254q-14 132 -42 188t-91 62l2 12h477l-2 -12q-98 -6 -137.5 -53t-30.5 -142l105 -1001l448 788
l-18 158q-14 135 -41.5 189.5t-93.5 60.5l2 12h477l-2 -12q-100 -6 -138.5 -52.5t-27.5 -142.5l110 -979l414 803q27 53 44.5 87t35 73t24.5 63t11.5 49.5t-0.5 40.5t-16 28.5t-31.5 20t-50.5 9.5z" />
    <glyph glyph-name="wcircumflex" unicode="&#x175;" horiz-adv-x="1437" 
d="M1180 1200l-230 230l-338 -230l-4 10l371 406h12l197 -406zM1208 1073l144 25q82 -65 82 -203q0 -117 -60 -277t-150.5 -302t-208.5 -241.5t-222 -99.5q-55 0 -91 35t-49.5 94.5t-13 129.5t13.5 149q-71 -173 -175.5 -290.5t-217.5 -117.5q-61 0 -99.5 32.5t-51.5 89.5
t-10 124.5t20 147.5l108 493q10 41 9.5 73t-21.5 32q-41 0 -160 -154l-10 8q71 135 145.5 206t139.5 71q34 0 53.5 -19t24.5 -51.5t2 -69t-13 -77.5l-112 -529q-13 -71 -14.5 -130.5t23.5 -98.5t75 -39q56 0 115.5 71.5t109 185t88.5 234.5t66 240l49 225l161 37h9
q-9 -38 -33 -137.5t-34 -140.5t-28.5 -122t-26.5 -124.5t-18 -102.5t-14 -102.5t-4 -81.5q0 -182 109 -182q73 0 144.5 74t122 182.5t82 233.5t31.5 227q0 83 -23 154.5t-67 105.5v12z" />
    <glyph glyph-name="Ycircumflex" unicode="&#x176;" horiz-adv-x="1165" 
d="M1081 1602l-252 233l-358 -233l-4 10l393 405h10l220 -405zM1067 1479l2 12h338l-2 -12q-81 -11 -174 -104.5t-230 -282.5l-296 -416l-91 -420q-9 -43 -14 -71.5t-6.5 -59t4.5 -49t19 -34.5t36.5 -23t57.5 -7l-2 -12h-478l2 12q41 0 71.5 11.5t50 29.5t35 52.5t24 66
t20.5 84.5l84 393l-164 580q-42 142 -72.5 192.5t-82.5 57.5l2 12h458l-2 -12q-189 -12 -135 -195l166 -569l279 393q49 68 79 113t54.5 88t32 69.5t5 48.5t-20.5 34t-50 18z" />
    <glyph glyph-name="ycircumflex" unicode="&#x177;" horiz-adv-x="944" 
d="M852 1200l-231 232l-338 -232l-4 10l370 406h13l198 -406zM684 1073l147 25q87 -70 87 -226q0 -117 -43.5 -266t-115.5 -297.5t-170.5 -291.5t-202.5 -252.5t-217 -176.5t-210 -67q-104 0 -172 65l63 135h13q38 -54 89.5 -86t104.5 -32q45 0 87.5 16t85 54t74.5 94.5
t51.5 146t19.5 199.5q0 167 -32 363t-85.5 336t-107.5 140q-51 0 -95 -159l-10 4q17 147 60 224t108 77q87 0 159 -140.5t110 -347t38 -420.5q0 -139 -22 -243q137 189 215 397t78 418q0 219 -107 299v12z" />
    <glyph glyph-name="Ydieresis" unicode="&#x178;" horiz-adv-x="1165" 
d="M625 1661q-46 0 -78.5 32.5t-32.5 78.5t32.5 78t78.5 32t78 -32t32 -78t-32 -78.5t-78 -32.5zM999 1661q-46 0 -78 32.5t-32 78.5t32 78t78 32t78.5 -32t32.5 -78t-32.5 -78.5t-78.5 -32.5zM1067 1479l2 12h338l-2 -12q-81 -11 -174 -104.5t-230 -282.5l-296 -416
l-91 -420q-9 -43 -14 -71.5t-6.5 -59t4.5 -49t19 -34.5t36.5 -23t57.5 -7l-2 -12h-478l2 12q41 0 71.5 11.5t50 29.5t35 52.5t24 66t20.5 84.5l84 393l-164 580q-42 142 -72.5 192.5t-82.5 57.5l2 12h458l-2 -12q-189 -12 -135 -195l166 -569l279 393q49 68 79 113t54.5 88
t32 69.5t5 48.5t-20.5 34t-50 18z" />
    <glyph glyph-name="Zacute" unicode="&#x179;" horiz-adv-x="1071" 
d="M979 1919q-40 -41 -350 -317l-8 6q28 42 89.5 143.5t110.5 180t62 91.5q32 25 57 25q28 0 49 -19.5t21 -48.5q0 -30 -31 -61zM301 1491h926v-8l-1094 -1450h373q88 0 142.5 9.5t111.5 43.5t108 93.5t121 164.5h12l-120 -344h-979v8l1097 1450h-337q-118 0 -188 -21
t-133 -77.5t-146 -175.5h-13z" />
    <glyph glyph-name="zacute" unicode="&#x17a;" horiz-adv-x="823" 
d="M819 1518q-62 -62 -350 -318l-8 6q28 42 89.5 144t110.5 180.5t62 91.5q32 25 57 25q28 0 49 -19.5t21 -48.5q0 -30 -31 -61zM874 1114h13q0 -32 -23.5 -72.5t-54.5 -68.5l-717 -754q41 -2 203 -46t237 -44q76 0 123.5 44t100.5 169h12l-20 -92q-9 -37 -15 -60
t-17.5 -55.5t-23 -52.5t-30 -42.5t-40.5 -35t-52.5 -21t-67.5 -8.5q-83 0 -262 50.5t-215 50.5q-23 -23 -23 -101h-12q-35 53 -35 97q0 63 61 118l682 715q-67 1 -184.5 22t-175.5 21q-88 0 -141 -38.5t-103 -127.5h-12l31 90q80 226 266 226q61 0 184.5 -20.5t165.5 -20.5
q105 0 145 57z" />
    <glyph glyph-name="Zdotaccent" unicode="&#x17b;" horiz-adv-x="1071" 
d="M735 1661q-49 0 -83 34.5t-34 82.5q0 47 34 80.5t83 33.5q47 0 81 -33.5t34 -80.5t-34 -82t-81 -35zM301 1491h926v-8l-1094 -1450h373q88 0 142.5 9.5t111.5 43.5t108 93.5t121 164.5h12l-120 -344h-979v8l1097 1450h-337q-118 0 -188 -21t-133 -77.5t-146 -175.5h-13z
" />
    <glyph glyph-name="zdotaccent" unicode="&#x17c;" horiz-adv-x="823" 
d="M582 1260q-50 0 -83.5 33.5t-33.5 82.5q0 46 34 80.5t83 34.5q46 0 80 -34.5t34 -80.5q0 -49 -34 -82.5t-80 -33.5zM874 1114h13q0 -32 -23.5 -72.5t-54.5 -68.5l-717 -754q41 -2 203 -46t237 -44q76 0 123.5 44t100.5 169h12l-20 -92q-9 -37 -15 -60t-17.5 -55.5
t-23 -52.5t-30 -42.5t-40.5 -35t-52.5 -21t-67.5 -8.5q-83 0 -262 50.5t-215 50.5q-23 -23 -23 -101h-12q-35 53 -35 97q0 63 61 118l682 715q-67 1 -184.5 22t-175.5 21q-88 0 -141 -38.5t-103 -127.5h-12l31 90q80 226 266 226q61 0 184.5 -20.5t165.5 -20.5q105 0 145 57
z" />
    <glyph glyph-name="Zcaron" unicode="&#x17d;" horiz-adv-x="1071" 
d="M1096 2007l-391 -405h-13l-217 405l8 10l250 -233l359 233zM301 1491h926v-8l-1094 -1450h373q88 0 142.5 9.5t111.5 43.5t108 93.5t121 164.5h12l-120 -344h-979v8l1097 1450h-337q-118 0 -188 -21t-133 -77.5t-146 -175.5h-13z" />
    <glyph glyph-name="zcaron" unicode="&#x17e;" horiz-adv-x="823" 
d="M920 1606l-371 -406h-12l-199 406l8 10l232 -232l337 232zM729 1057q105 0 145 57h13q0 -32 -23.5 -72.5t-54.5 -68.5l-717 -754q41 -2 203 -46t237 -44q76 0 123.5 44t100.5 169h12l-20 -92q-9 -37 -15 -60t-17.5 -55.5t-23 -52.5t-30 -42.5t-40.5 -35t-52.5 -21
t-67.5 -8.5q-83 0 -262 50.5t-215 50.5q-23 -23 -23 -101h-12q-35 53 -35 97q0 63 61 118l682 715q-67 1 -184.5 22t-175.5 21q-88 0 -141 -38.5t-103 -127.5h-12l31 90q80 226 266 226q61 0 184.5 -20.5t165.5 -20.5z" />
    <glyph glyph-name="longs" unicode="&#x17f;" horiz-adv-x="444" 
d="M-313 -467v12q122 28 192 122.5t105 260.5l243 1145q55 257 195 395t340 138q47 0 115 -11l-50 -151h-12q-116 96 -180 96q-140 0 -201 -276l-274 -1291q-84 -389 -473 -440z" />
    <glyph glyph-name="florin" unicode="&#x192;" horiz-adv-x="827" 
d="M874 1606q54 0 107 -11l-35 -151h-12q-63 50 -104 74t-74 24q-147 0 -185 -278l-69 -498h307l-16 -41h-297l-105 -752q-27 -184 -144 -298.5t-288 -141.5v12q121 32 184 127t86 256l113 797h-256v41h262l43 307q36 258 167.5 395.5t315.5 137.5z" />
    <glyph glyph-name="Aringacute" unicode="&#x1fa;" horiz-adv-x="1214" 
d="M1010 2103q-7 -12 -39.5 -38.5t-78.5 -69t-81 -88.5l-8 6q35 70 64 162t32 98q18 37 57 37q26 0 46 -21t20 -47q0 -21 -12 -39zM829 1483l168 -1221q18 -136 44.5 -190t88.5 -60l-2 -12h-466l2 12q92 6 131 54.5t26 148.5l-41 307h-483l-78 -139q-37 -66 -60 -111
t-40.5 -89t-20.5 -71.5t5 -50t31 -34.5t61 -15l-2 -12h-338l2 12q70 11 140 97.5t181 283.5l613 1092q-71 9 -112.5 54t-41.5 112q0 99 69 168t168 69q87 0 138 -46.5t51 -123.5q0 -98 -67 -166t-167 -69zM719 1624q0 -113 104 -113q74 0 116 73.5t42 162.5q0 113 -104 113
q-74 0 -116 -73.5t-42 -162.5zM688 1223l-364 -652h450z" />
    <glyph glyph-name="aringacute" unicode="&#x1fb;" horiz-adv-x="1046" 
d="M985 1882q-6 -12 -38.5 -38.5t-79.5 -69t-81 -88.5l-8 6q36 70 65 162.5t31 97.5q18 37 58 37q27 0 46 -20.5t19 -47.5q0 -21 -12 -39zM725 1204q-86 0 -137 46.5t-51 123.5q0 98 69.5 167t169.5 69q85 0 136 -46.5t51 -123.5q0 -99 -69.5 -167.5t-168.5 -68.5zM776 1581
q-50 0 -87.5 -37.5t-54 -89t-16.5 -106.5q0 -115 107 -115q49 0 86 37t53.5 88.5t16.5 107.5q0 115 -105 115zM1024 297l10 -8q-77 -149 -158.5 -231.5t-154.5 -82.5q-121 0 -74 218l51 237q-87 -215 -214 -335t-255 -120q-100 0 -155.5 78.5t-55.5 225.5q0 110 31 226.5
t90.5 221.5t138 188.5t181.5 133t213 49.5q148 0 211 -84l110 71h11l-185 -874q-21 -96 12 -96q28 0 81 51.5t112 130.5zM324 76q75 0 162.5 88.5t164.5 247t115 342.5q10 58 10 110q0 205 -137 205q-82 0 -165 -71.5t-143.5 -181t-99 -245t-38.5 -258.5q0 -114 34.5 -175.5
t96.5 -61.5z" />
    <glyph glyph-name="AEacute" unicode="&#x1fc;" horiz-adv-x="1830" 
d="M1442 1919q-40 -41 -350 -317l-9 6q27 42 89.5 143.5t111 179.5t62.5 92q32 25 57 25q28 0 49 -19.5t21 -48.5q0 -30 -31 -61zM1929 1491l-37 -307h-12q-28 120 -64.5 176.5t-96.5 77t-177 20.5h-276l-142 -665h213q92 0 147 19.5t88.5 59.5t69.5 121h13l-96 -448h-13
q-2 60 -10.5 95.5t-31 65t-65 42t-110.5 12.5h-213l-133 -631q-11 -48 2.5 -72t58.5 -24h226q88 0 142.5 10t112 43.5t108.5 93t120 164.5h12l-120 -344h-1018l2 12q41 0 71 11t49 27.5t34 50t23.5 64t20.5 83.5l68 323h-461l-143 -192q-175 -235 -164 -315q6 -46 68 -52
l-2 -12h-338l2 12q132 25 399 383l518 701q87 114 127.5 182.5t40.5 112.5q0 79 -158 88l2 12h1143zM471 621h434l174 817z" />
    <glyph glyph-name="aeacute" unicode="&#x1fd;" horiz-adv-x="1452" 
d="M1225 1518q-54 -54 -351 -318l-8 6q28 42 89.5 144t110.5 180.5t62 91.5q32 25 58 25q28 0 48.5 -19.5t20.5 -48.5q0 -31 -30 -61zM1487 940q0 -55 -32 -103.5t-85.5 -88t-142 -80t-183 -73.5t-227.5 -73q-18 -83 -18 -172q0 -274 184 -274q91 0 188.5 64t188.5 175
l12 -8q-217 -334 -465 -334q-123 0 -199 78t-83 230q-83 -147 -188 -226.5t-208 -79.5q-100 0 -155.5 78.5t-55.5 225.5q0 110 31 226.5t90.5 221.5t138 188.5t181.5 133t213 49.5q189 0 237 -137q157 137 353 137q113 0 169 -42.5t56 -115.5zM324 76q69 0 150.5 77.5
t152.5 208.5q8 109 45 224.5t100 212.5q4 40 4 65q0 205 -137 205q-82 0 -165 -71.5t-143.5 -181t-99 -245t-38.5 -258.5q0 -114 34.5 -175.5t96.5 -61.5zM1229 1067q-118 0 -236 -151.5t-168 -358.5q267 94 386.5 181.5t119.5 209.5q0 119 -102 119z" />
    <glyph glyph-name="Oslashacute" unicode="&#x1fe;" horiz-adv-x="1456" 
d="M1184 1919q-40 -41 -350 -317l-7 6q24 37 88 142.5t112.5 182t62.5 90.5q29 25 55 25q29 0 49 -19.5t20 -48.5q0 -31 -30 -61zM1526 1593l28 -20l-225 -246q123 -151 123 -397q0 -146 -36.5 -287t-107.5 -261t-166.5 -211.5t-221 -143.5t-263.5 -52q-268 0 -421 162
l-220 -239l-28 20l225 246q-123 154 -123 397q0 146 37 287t108 261t166.5 211.5t220.5 143.5t263 52q272 0 422 -162zM281 489q0 -125 30 -219l910 990q-42 107 -124.5 167t-199.5 60q-135 0 -253.5 -95t-196 -242.5t-122 -322t-44.5 -338.5zM1264 1001q0 120 -31 222
l-909 -992q43 -108 124 -167.5t199 -59.5q91 0 175.5 44t151 119t122 174.5t92 210t56.5 226t20 223.5z" />
    <glyph glyph-name="oslashacute" unicode="&#x1ff;" horiz-adv-x="1003" 
d="M901 1518q-62 -62 -350 -318l-8 6q27 41 89.5 143.5t111.5 180.5t63 92q29 25 55 25q28 0 49 -19.5t21 -48.5q0 -30 -31 -61zM1012 1176l26 -19l-159 -192q82 -108 82 -283q0 -127 -42.5 -254.5t-115 -227.5t-176 -162.5t-217.5 -62.5q-163 0 -267 107l-153 -184l-25 18
l158 190q-84 114 -84 285q0 127 43 254.5t115.5 227.5t176.5 162.5t218 62.5q163 0 266 -109zM205 299q0 -45 6 -88l571 690q-19 79 -66.5 123.5t-121.5 44.5q-82 0 -157 -78.5t-124 -196t-78.5 -250.5t-29.5 -245zM797 774q0 46 -6 86l-572 -688q19 -79 67 -123.5
t122 -44.5q82 0 157 78.5t124 196t78.5 250.5t29.5 245z" />
    <glyph glyph-name="uni0218" unicode="&#x218;" horiz-adv-x="966" 
d="M369 -25q-108 0 -213.5 33.5t-182.5 87.5l54 291h12q37 -185 136 -279t241 -94q146 0 239 84.5t93 220.5q0 57 -16.5 104t-58 94t-68 70.5t-89.5 74.5q-18 15 -27 22l-73 57q-40 33 -68 61t-64 74.5t-55.5 105t-19.5 124.5q0 175 139.5 292.5t333.5 117.5q193 0 365 -117
l-52 -242h-12q-32 143 -126 231.5t-226 88.5q-124 0 -203.5 -74.5t-79.5 -198.5q0 -56 18 -106.5t52.5 -91.5t60.5 -65t64 -54l73 -58q51 -41 80 -65.5t70.5 -68t64 -81t39.5 -90t17 -108.5q0 -125 -72 -227t-190.5 -158t-255.5 -56zM217 -520l-2 12q67 25 116.5 66.5
t49.5 89.5q0 53 -84 71q-41 8 -59.5 32t-18.5 54q0 42 27 69.5t69 27.5q57 0 98.5 -42.5t41.5 -113.5q0 -108 -69 -176.5t-169 -89.5z" />
    <glyph glyph-name="uni0219" unicode="&#x219;" horiz-adv-x="708" 
d="M242 -25q-88 0 -167 31t-122 78l53 162h12q27 -98 106 -165t175 -67q85 0 140 59.5t55 145.5q0 38 -11 69.5t-39 63.5t-50 52.5t-70 60.5l-58 47q-34 27 -54.5 47t-43.5 51.5t-34 71.5t-11 90q0 137 95 231.5t239 94.5q128 0 262 -84l-39 -156h-12q-31 82 -98.5 141.5
t-153.5 59.5q-78 0 -126 -58.5t-48 -132.5q0 -47 20.5 -88.5t44.5 -66.5t66 -60l57 -47q50 -40 77 -65.5t55 -62t40 -76.5t12 -91q0 -145 -105.5 -240.5t-266.5 -95.5zM106 -520l-2 12q67 25 116.5 66.5t49.5 89.5q0 53 -84 71q-77 16 -77 86q0 42 27 69.5t69 27.5
q57 0 98 -42.5t41 -113.5q0 -108 -69 -176.5t-169 -89.5z" />
    <glyph glyph-name="uni021A" unicode="&#x21a;" horiz-adv-x="1126" 
d="M1278 1491l-37 -307h-12q-21 91 -43 142t-60 82t-86 40.5t-131 9.5h-59l-256 -1202q-11 -53 -16 -85t-4 -66t12.5 -52t37 -29.5t66.5 -11.5l-2 -12h-477l2 12q41 0 71.5 11.5t50 29.5t35 52.5t24 66t20.5 84.5l254 1202h-62q-107 0 -171.5 -20.5t-123 -77t-137.5 -176.5
h-12l90 307h1026zM393 -98q55 0 96 -43t41 -113q0 -108 -68.5 -176.5t-168.5 -89.5l-2 12q68 25 118 66.5t50 89.5q0 53 -84 71q-80 16 -80 86q0 41 27.5 69t70.5 28z" />
    <glyph glyph-name="uni021B" unicode="&#x21b;" horiz-adv-x="622" 
d="M717 999h-318l-157 -747q-29 -152 41 -152q47 0 126 67t175 195l10 -8q-90 -168 -205.5 -273.5t-212.5 -105.5q-79 0 -104.5 74.5t0.5 186.5l164 763h-109l6 21l31 12q83 36 154 106t143 203h12l-55 -268h344zM203 -98q56 0 97.5 -43t41.5 -113q0 -108 -69.5 -176.5
t-170.5 -89.5l-2 12q69 25 118.5 66.5t49.5 89.5q0 53 -84 71q-41 8 -60.5 32t-19.5 54q0 41 28 69t71 28z" />
    <glyph glyph-name="uni0237" unicode="&#x237;" horiz-adv-x="446" 
d="M-258 -467v12q122 28 192 122.5t105 260.5l199 934q26 105 -13 105q-21 0 -57.5 -36.5t-97.5 -113.5l-11 8q66 130 140.5 201.5t138.5 71.5q35 0 55 -16t25.5 -47.5t2.5 -67.5t-13 -86l-193 -908q-84 -389 -473 -440z" />
    <glyph glyph-name="uni0259" unicode="&#x259;" horiz-adv-x="847" 
d="M541 1098q129 0 204.5 -85t75.5 -253q0 -82 -19 -171t-55 -177t-92 -167t-124.5 -140t-158 -96.5t-188.5 -35.5q-111 0 -167 43t-56 115q0 55 32 103.5t85.5 88t142 80t183 73.5t227.5 73q18 85 18 174q0 272 -184 272q-91 0 -188.5 -63t-188.5 -174l-12 8
q216 332 465 332zM217 4q118 0 237 151.5t171 358.5q-269 -94 -388.5 -181.5t-119.5 -209.5q0 -119 100 -119z" />
    <glyph glyph-name="uni02B9" unicode="&#x2b9;" horiz-adv-x="313" 
d="M170 932l-10 2q28 83 79.5 300.5t57.5 233.5q10 32 33 50t51 18q46 0 70 -30.5t16 -73.5q-5 -28 -55.5 -113t-130.5 -210.5t-111 -176.5z" />
    <glyph glyph-name="uni02BB" unicode="&#x2bb;" horiz-adv-x="337" 
d="M358 1180q-56 0 -97.5 43.5t-41.5 113.5q0 109 71 189t169 100l2 -12q-64 -23 -116 -75.5t-52 -102.5q0 -57 84 -72q42 -8 61 -33t19 -55q0 -41 -28 -68.5t-71 -27.5z" />
    <glyph glyph-name="uni02BC" unicode="&#x2bc;" horiz-adv-x="335" 
d="M240 1180l-2 12q68 25 116.5 65.5t48.5 88.5q0 56 -84 71q-77 16 -77 88q0 42 27 69.5t69 27.5q57 0 98 -43.5t41 -114.5q0 -107 -68 -175.5t-169 -88.5z" />
    <glyph glyph-name="circumflex" unicode="&#x2c6;" horiz-adv-x="1228" 
d="M659 1616l197 -406l-8 -10l-232 232l-335 -232l-5 10l371 406h12z" />
    <glyph glyph-name="caron" unicode="&#x2c7;" horiz-adv-x="1228" 
d="M600 1384l336 232l4 -10l-371 -406h-12l-197 406l9 10z" />
    <glyph glyph-name="uni02C9" unicode="&#x2c9;" horiz-adv-x="1228" 
d="M866 1290h-549l31 78h549z" />
    <glyph glyph-name="breve" unicode="&#x2d8;" horiz-adv-x="1228" 
d="M571 1239q-51 0 -88.5 20.5t-59 51.5t-34 77t-16.5 88t-4 93l14 2q27 -215 213 -215q179 0 307 215l10 -4q-24 -53 -45 -93.5t-54 -87t-66.5 -76.5t-79.5 -50.5t-97 -20.5z" />
    <glyph glyph-name="dotaccent" unicode="&#x2d9;" horiz-adv-x="1228" 
d="M633 1260q-48 0 -81.5 33.5t-33.5 82.5q0 46 34 80.5t81 34.5t81 -34.5t34 -80.5q0 -49 -33.5 -82.5t-81.5 -33.5z" />
    <glyph glyph-name="ring" unicode="&#x2da;" horiz-adv-x="1228" 
d="M592 1204q-86 0 -137.5 46.5t-51.5 123.5q0 98 70 167t170 69q85 0 135.5 -46.5t50.5 -123.5q0 -99 -69 -167.5t-168 -68.5zM592 1233q74 0 116 72t42 161q0 115 -107 115q-50 0 -87.5 -37.5t-54 -89t-16.5 -106.5q0 -115 107 -115z" />
    <glyph glyph-name="ogonek" unicode="&#x2db;" horiz-adv-x="1228" 
d="M453 -442q-57 0 -90 31t-33 79q0 150 315 334h19q-103 -89 -153 -171t-50 -130q0 -35 21.5 -55.5t58.5 -20.5q64 0 149 64l6 -11q-131 -120 -243 -120z" />
    <glyph glyph-name="tilde" unicode="&#x2dc;" horiz-adv-x="1228" 
d="M289 1229l-13 2q32 117 78 177t113 60q42 0 92 -29.5t98.5 -59t85.5 -29.5q46 0 77 28.5t63 100.5l12 -2q-32 -117 -77.5 -177.5t-112.5 -60.5q-42 0 -92.5 30t-98.5 59.5t-84 29.5q-46 0 -77.5 -28.5t-63.5 -100.5z" />
    <glyph glyph-name="hungarumlaut" unicode="&#x2dd;" horiz-adv-x="1228" 
d="M315 1200l-6 6q24 37 88.5 142t112 179t63.5 91q25 29 62 29q28 0 45.5 -18t17.5 -46q0 -31 -22 -57q-14 -15 -82.5 -76t-154 -137t-124.5 -113zM625 1200l-7 6q244 380 275 412q29 29 63 29q28 0 46 -18t18 -46q0 -32 -25 -57q-16 -17 -168.5 -148.5t-201.5 -177.5z" />
    <glyph glyph-name="gravecomb" unicode="&#x300;" 
d="M-424 1204l-8 -4q-30 56 -109.5 180.5t-93.5 151.5q-12 24 -12 43q0 31 22.5 51.5t51.5 20.5q49 0 67 -52q5 -15 35 -170.5t47 -220.5z" />
    <glyph glyph-name="acutecomb" unicode="&#x301;" 
d="M-479 1200l-8 6q27 41 89.5 143.5t111.5 180.5t63 92q29 25 55 25q28 0 49 -19.5t21 -48.5q0 -30 -31 -61q-62 -62 -350 -318z" />
    <glyph glyph-name="uni0302" unicode="&#x302;" 
d="M-358 1616l196 -406l-8 -10l-231 232l-336 -232l-4 10l370 406h13z" />
    <glyph glyph-name="tildecomb" unicode="&#x303;" 
d="M-709 1229l-12 2q32 117 78 177t113 60q42 0 92 -29.5t98 -59t84 -29.5q46 0 77.5 28.5t63.5 100.5l13 -2q-32 -117 -78 -177.5t-113 -60.5q-33 0 -72.5 18.5t-69 41t-66.5 41t-66 18.5q-46 0 -78 -29t-64 -100z" />
    <glyph glyph-name="uni0304" unicode="&#x304;" 
d="M-160 1290h-547l31 78h547z" />
    <glyph glyph-name="uni0306" unicode="&#x306;" 
d="M-446 1239q-51 0 -88.5 20.5t-58.5 51.5t-33.5 77t-16.5 87.5t-4 93.5l12 2q31 -215 215 -215q183 0 305 215l11 -4q-29 -66 -58 -117t-70.5 -102.5t-96 -80t-117.5 -28.5z" />
    <glyph glyph-name="uni0307" unicode="&#x307;" 
d="M-410 1260q-48 0 -82 33.5t-34 82.5q0 46 34.5 80.5t81.5 34.5t81 -34.5t34 -80.5q0 -49 -33.5 -82.5t-81.5 -33.5z" />
    <glyph glyph-name="uni0308" unicode="&#x308;" 
d="M-582 1260q-47 0 -79.5 32t-32.5 78t32.5 78.5t79.5 32.5q44 0 76.5 -32.5t32.5 -78.5t-32.5 -78t-76.5 -32zM-236 1260q-46 0 -78 32t-32 78t32 78.5t78 32.5t78.5 -32.5t32.5 -78.5t-32.5 -78t-78.5 -32z" />
    <glyph glyph-name="uni030A" unicode="&#x30a;" 
d="M-444 1204q-86 0 -137.5 46.5t-51.5 123.5q0 98 70 167t170 69q85 0 135.5 -46.5t50.5 -123.5q0 -99 -69 -167.5t-168 -68.5zM-444 1233q74 0 115.5 72t41.5 161q0 115 -106 115q-50 0 -87.5 -37.5t-54 -89t-16.5 -106.5q0 -115 107 -115z" />
    <glyph glyph-name="uni030B" unicode="&#x30b;" 
d="M-834 1200l-6 6q23 36 88.5 141.5t113 179.5t63.5 91q25 29 61 29q28 0 46.5 -18t18.5 -46t-24 -57q-14 -15 -82.5 -76t-154 -137t-124.5 -113zM-524 1200l-6 6q242 376 276 412q25 29 61 29q28 0 46 -18t18 -46q0 -29 -23 -57q-16 -17 -169 -148.5t-203 -177.5z" />
    <glyph glyph-name="uni030C" unicode="&#x30c;" 
d="M-428 1384l338 232l4 -10l-371 -406h-12l-199 406l9 10z" />
    <glyph glyph-name="uni0312" unicode="&#x312;" 
d="M-420 1180q-56 0 -97.5 43.5t-41.5 113.5q0 107 69.5 175.5t170.5 89.5l2 -13q-70 -25 -119 -65t-49 -88q0 -57 84 -72q79 -16 79 -88q0 -41 -27.5 -68.5t-70.5 -27.5z" />
    <glyph glyph-name="uni0313" unicode="&#x313;" 
d="M-492 1180l-2 12q69 25 118.5 65.5t49.5 88.5q0 56 -84 71q-41 8 -60 33t-19 55q0 41 27.5 69t70.5 28q55 0 97 -44t42 -114q0 -107 -69.5 -175t-170.5 -89z" />
    <glyph glyph-name="uni0326" unicode="&#x326;" 
d="M-539 -520l-2 12q67 25 116.5 66.5t49.5 89.5q0 53 -84 71q-41 8 -59.5 32t-18.5 54q0 42 27.5 69.5t69.5 27.5q57 0 98 -42.5t41 -113.5q0 -108 -69 -176.5t-169 -89.5z" />
    <glyph glyph-name="uni0327" unicode="&#x327;" 
d="M-387 0l-64 -98q84 -3 138.5 -40t54.5 -108q0 -80 -65 -134t-169 -54q-53 0 -87.5 16t-71.5 47l8 11q24 -18 65 -30.5t80 -12.5q55 0 92 33.5t37 80.5q0 24 -11 41.5t-26.5 26.5t-41.5 14.5t-47 6.5t-52 1l127 199h33z" />
    <glyph glyph-name="uni0328" unicode="&#x328;" 
d="M-479 -442q-57 0 -90 31t-33 79q0 150 315 334h19q-103 -89 -153 -171t-50 -130q0 -35 21.5 -55.5t58.5 -20.5q60 0 149 64l6 -11q-131 -120 -243 -120z" />
    <glyph glyph-name="uni0374" unicode="&#x374;" horiz-adv-x="720" 
d="M375 932l-10 2q29 86 80.5 306t54.5 228q10 32 34 50t52 18q46 0 70 -30.5t16 -73.5q-5 -28 -55.5 -113t-130.5 -210.5t-111 -176.5z" />
    <glyph glyph-name="uni0375" unicode="&#x375;" horiz-adv-x="663" 
d="M45 -510q-29 0 -49.5 19.5t-20.5 48.5q0 28 31 63q28 27 157 133.5t171 143.5l6 -7q-26 -39 -83 -132t-100 -161t-57 -81q-27 -27 -55 -27z" />
    <glyph glyph-name="uni037E" unicode="&#x37e;" horiz-adv-x="454" 
d="M293 772q-47 0 -82 36t-35 83t35 82t82 35t83 -35t36 -82t-36 -83t-83 -36zM-20 -276l-3 12q46 10 93.5 38.5t83 72t36.5 87.5q1 20 -6.5 35.5t-23.5 24.5t-30 14t-34 10q-47 11 -67.5 40.5t-20.5 64.5q0 46 31 75t78 29q64 0 110.5 -51.5t46.5 -136.5
q0 -121 -84.5 -208.5t-209.5 -106.5z" />
    <glyph glyph-name="tonos" unicode="&#x384;" 
d="M-420 1200l-8 4q32 68 91 229t67 175q22 39 63 39q31 0 53.5 -23.5t22.5 -50.5q0 -22 -14 -43q-10 -15 -60 -74t-115.5 -136t-99.5 -120z" />
    <glyph glyph-name="dieresistonos" unicode="&#x385;" 
d="M-573 1200l-9 6q31 66 79.5 210.5t58.5 160.5q21 41 63 41q30 0 52 -22t22 -52q0 -21 -15 -47q-11 -17 -110 -130t-141 -167zM-686 1262q-37 0 -64.5 27.5t-27.5 64.5t27.5 63.5t64.5 26.5t63.5 -26.5t26.5 -63.5t-26.5 -64.5t-63.5 -27.5zM-248 1262q-37 0 -64.5 27.5
t-27.5 64.5t27.5 63.5t64.5 26.5t63.5 -26.5t26.5 -63.5t-26.5 -64.5t-63.5 -27.5z" />
    <glyph glyph-name="Alphatonos" unicode="&#x386;" horiz-adv-x="1232" 
d="M508 1464q-10 -15 -60 -74t-115.5 -135.5t-99.5 -119.5l-8 6q31 64 89.5 224t68.5 177q22 39 63 39q30 0 52 -23.5t22 -50.5q0 -22 -12 -43zM842 1516l172 -1254q20 -136 46.5 -190t86.5 -60l-2 -12h-465l2 12q91 6 131 55t27 148l-41 307h-484l-77 -139
q-28 -49 -46.5 -85t-36 -73t-26 -62.5t-13 -50t0 -41t15 -29.5t30.5 -20t49 -10l-2 -12h-338l2 12q71 11 140.5 96.5t183.5 284.5l628 1123h17zM705 1223l-363 -652h451z" />
    <glyph glyph-name="anoteleia" unicode="&#x387;" horiz-adv-x="352" 
d="M248 772q-49 0 -84 35.5t-35 83.5t35 82.5t84 34.5q47 0 82 -35t35 -82t-35 -83t-82 -36z" />
    <glyph glyph-name="Epsilontonos" unicode="&#x388;" horiz-adv-x="1388" 
d="M420 1507q0 -19 -14 -43q-10 -15 -59.5 -73.5t-115.5 -136t-100 -119.5l-8 6q32 67 91.5 227t66.5 174q25 39 63 39q31 0 53.5 -23.5t22.5 -50.5zM483 1479l2 12h1002l-37 -307h-12q-21 91 -43.5 142t-62.5 82t-91.5 40.5t-140.5 9.5h-293l-141 -665h229q92 0 146.5 19.5
t87.5 59.5t69 121h12l-94 -448h-12q-2 60 -10.5 95.5t-31 65t-65 42t-110.5 12.5h-230l-133 -631q-9 -48 4.5 -72t57.5 -24h241q88 0 143 10t112 43t108.5 93.5t120.5 164.5h12l-121 -344h-1032l2 12q34 0 60.5 7t46 23t33.5 34.5t25 49.5t18 59t16 71l209 979
q11 54 15.5 85t3.5 65.5t-12.5 52t-37 29.5t-66.5 12z" />
    <glyph glyph-name="Etatonos" unicode="&#x389;" horiz-adv-x="1607" 
d="M420 1507q0 -19 -14 -43q-10 -15 -59.5 -73.5t-115.5 -136t-100 -119.5l-8 6q32 67 91.5 227t66.5 174q25 39 63 39q31 0 53.5 -23.5t22.5 -50.5zM1292 1479l2 12h478l-3 -12q-41 0 -71 -11.5t-49.5 -29.5t-35 -52.5t-24 -66t-20.5 -84.5l-207 -979q-11 -53 -16 -85
t-4 -66t12.5 -52t37 -29.5t66.5 -11.5l-2 -12h-477l2 12q41 0 71.5 11.5t50 29.5t35 52.5t24 66t20.5 84.5l104 498h-629l-106 -498q-9 -45 -13.5 -71.5t-6.5 -58.5t4 -49.5t18.5 -34t36 -23.5t57.5 -7l-2 -12h-475l2 12q34 0 60.5 7t46 23t33.5 34.5t25 49.5t18 59t16 71
l209 979q11 54 15.5 85t3.5 65.5t-12.5 52t-37 29.5t-66.5 12l2 12h476l-3 -12q-41 0 -71 -11.5t-49.5 -29.5t-34.5 -52.5t-23.5 -66t-19.5 -84.5l-94 -444h628l95 444q9 43 14 71.5t6.5 59t-4.5 49t-19 34.5t-36.5 23t-57.5 7z" />
    <glyph glyph-name="Iotatonos" unicode="&#x38a;" horiz-adv-x="798" 
d="M131 1135l-8 6q32 67 91.5 227t66.5 174q25 39 63 39q31 0 53.5 -23.5t22.5 -50.5q0 -19 -14 -43q-10 -15 -59.5 -73.5t-115.5 -136t-100 -119.5zM645 0h-475l2 12q34 0 60.5 7t46 23t33.5 34.5t25 49.5t18 59t16 71l209 979q11 54 15.5 85t3.5 65.5t-12.5 52t-37 29.5
t-66.5 12l2 12h476l-3 -12q-41 0 -71 -11.5t-49.5 -29.5t-34.5 -52.5t-23.5 -66t-19.5 -84.5l-209 -979q-9 -45 -13.5 -71.5t-6.5 -58.5t4 -49.5t18.5 -34t36 -23.5t57.5 -7z" />
    <glyph glyph-name="Omicrontonos" unicode="&#x38c;" horiz-adv-x="1619" 
d="M133 1135l-8 6q31 64 89.5 224t68.5 177q22 39 63 39q30 0 52 -23.5t22 -50.5q0 -22 -12 -43q-10 -15 -60 -74t-115.5 -135.5t-99.5 -119.5zM823 -25q-267 0 -416 158t-149 428q0 146 36.5 287t107.5 261t166 211.5t220 143.5t263 52q268 0 417.5 -157.5t149.5 -428.5
q0 -146 -36.5 -287t-107.5 -261t-166.5 -211.5t-221 -143.5t-263.5 -52zM815 4q108 0 206.5 62t171.5 165t127.5 233t82 268.5t27.5 268.5q0 220 -94 353t-273 133q-91 0 -175.5 -44t-151 -119t-122 -174t-92 -210t-56.5 -227t-20 -224q0 -220 95 -352.5t274 -132.5z" />
    <glyph glyph-name="Upsilontonos" unicode="&#x38e;" horiz-adv-x="1531" 
d="M387 1581q31 0 53.5 -23.5t22.5 -50.5q0 -19 -14 -43q-10 -15 -59.5 -73.5t-115.5 -136t-100 -119.5l-8 6q32 67 91.5 227t66.5 174q25 39 63 39zM1432 1479l2 12h338l-3 -12q-81 -11 -173.5 -104.5t-227.5 -282.5l-301 -416l-88 -420q-11 -53 -16 -85t-4 -66t12.5 -52
t37 -29.5t66.5 -11.5l-2 -12h-475l2 12q41 0 71 12t49.5 29.5t34.5 52t23.5 65.5t20.5 85l84 393l-164 580q-41 142 -72 192.5t-82 57.5l2 12h457l-2 -12q-187 -12 -133 -195l164 -567l278 391q49 68 79.5 113t55 88t32.5 69.5t5 48.5t-21 34t-50 18z" />
    <glyph glyph-name="Omegatonos" unicode="&#x38f;" horiz-adv-x="1632" 
d="M426 1507q0 -19 -14 -43q-10 -15 -60 -74t-115.5 -135.5t-99.5 -119.5l-8 6q32 67 91.5 227t66.5 174q22 39 63 39q31 0 53.5 -23.5t22.5 -50.5zM958 113h156q63 0 116 12.5t91 31.5t74 51.5t60.5 63t55.5 76.5h13l-164 -348h-463l45 201q118 41 210.5 131.5t148 209
t84 250.5t28.5 269q0 192 -91 309t-265 117q-124 0 -234.5 -77t-184 -198.5t-116.5 -268.5t-43 -288q0 -358 189 -454l-45 -201h-437l-16 348h12q12 -46 23.5 -76.5t34 -63t52.5 -51.5t78 -31.5t111 -12.5h129l17 71q-162 72 -247 215.5t-85 329.5q0 156 57.5 300.5
t156.5 251.5t239 171t296 64q249 0 402 -139.5t153 -381.5q0 -305 -165 -518.5t-461 -298.5z" />
    <glyph glyph-name="iotadieresistonos" unicode="&#x390;" horiz-adv-x="487" 
d="M266 1200l-8 6q31 66 79 210.5t58 160.5q21 41 64 41q29 0 51 -22t22 -52q0 -22 -14 -47q-11 -17 -110 -130t-142 -167zM154 1262q-37 0 -65 27.5t-28 64.5q0 36 28 63t65 27t63.5 -26.5t26.5 -63.5t-26.5 -64.5t-63.5 -27.5zM592 1262q-37 0 -64.5 27.5t-27.5 64.5
t27.5 63.5t64.5 26.5t63.5 -26.5t26.5 -63.5t-26.5 -64.5t-63.5 -27.5zM141 -25q-50 0 -73.5 36t-21 86.5t12.5 105.5l187 874l162 17h8l-185 -873q-22 -108 23 -108q33 0 91 54.5t122 143.5l10 -8q-81 -154 -168.5 -241t-167.5 -87z" />
    <glyph glyph-name="Alpha" unicode="&#x391;" horiz-adv-x="1214" 
d="M825 1516l172 -1254q20 -138 46 -191t87 -59l-2 -12h-466l2 12q92 6 131 54.5t26 148.5l-41 307h-483l-78 -139q-37 -66 -60 -111t-40.5 -89t-20.5 -71.5t5 -50t31 -34.5t61 -15l-2 -12h-338l2 12q69 11 138 96.5t183 284.5l631 1123h16zM688 1223l-364 -652h450z" />
    <glyph glyph-name="Beta" unicode="&#x392;" horiz-adv-x="1202" 
d="M778 778v-4q151 -22 247.5 -116t96.5 -226q0 -108 -50.5 -191.5t-139 -135.5t-204 -78.5t-251.5 -26.5h-551l2 12q41 0 71 11t49 27.5t34 50t23 63.5t20 84l211 995q10 43 14.5 72t6 58t-4.5 47t-19.5 32.5t-36.5 20.5t-56 6l2 12h516q218 0 331 -84t113 -223
q0 -84 -34.5 -154t-94.5 -119t-134 -82t-161 -51zM729 1458h-88q-79 0 -94 -74l-125 -591h164q198 0 314 103.5t116 287.5q0 127 -75 200.5t-212 73.5zM446 33q221 0 353.5 116.5t132.5 313.5q0 135 -91 216t-255 81h-170l-127 -596q-3 -16 -4 -21.5t-2.5 -20t0.5 -20.5
t5.5 -18t11.5 -17.5t20 -13.5t29.5 -11t42 -6t54.5 -3z" />
    <glyph glyph-name="Gamma" unicode="&#x393;" horiz-adv-x="933" 
d="M1085 1491l-36 -307h-13q-21 91 -43 142t-59.5 82t-85 40.5t-129.5 9.5h-156l-256 -1202q-11 -53 -16 -85t-4 -66t12.5 -52t37 -29.5t66.5 -11.5l-2 -12h-475l2 12q41 0 71 12t49.5 29.5t34.5 52t23.5 65.5t20.5 85l209 979q11 53 16 85t4 66t-12.5 52t-37 29.5
t-66.5 11.5l2 12h843z" />
    <glyph glyph-name="uni0394" unicode="&#x394;" horiz-adv-x="1126" 
d="M762 1511h16l211 -1503l-2 -8h-1077l2 8zM-2 80h797l-154 1143z" />
    <glyph glyph-name="Epsilon" unicode="&#x395;" horiz-adv-x="1142" 
d="M240 1479l2 12h1001l-37 -307h-12q-28 120 -64.5 176.5t-96.5 77t-177 20.5h-293l-141 -665h229q92 0 146.5 19.5t87.5 59.5t69 121h13l-95 -448h-12q-2 60 -10.5 95.5t-31 65t-65 42t-110.5 12.5h-229l-133 -631q-10 -49 3 -72.5t58 -23.5h242q88 0 142.5 10t112 43.5
t108.5 93t120 164.5h12l-121 -344h-1032l2 12q34 0 60.5 7t46 23t33.5 34.5t25 49.5t18 59t16 71l209 979q9 45 13.5 71.5t6.5 58.5t-4 49.5t-18.5 34t-36 23.5t-57.5 7z" />
    <glyph glyph-name="Zeta" unicode="&#x396;" horiz-adv-x="1071" 
d="M301 1491h926v-8l-1094 -1450h373q88 0 142.5 9.5t111.5 43.5t108 93.5t121 164.5h12l-120 -344h-979v8l1097 1450h-337q-118 0 -188 -21t-133 -77.5t-146 -175.5h-13z" />
    <glyph glyph-name="Eta" unicode="&#x397;" horiz-adv-x="1363" 
d="M1049 1479l2 12h475l-2 -12q-41 0 -71 -12t-49.5 -29.5t-34.5 -52t-23.5 -65.5t-20.5 -85l-207 -979q-10 -44 -14.5 -71.5t-6.5 -59t3.5 -49.5t18 -34t36 -23t57.5 -7l-2 -12h-475l2 12q34 0 60.5 7t46 23t33.5 34.5t25 49.5t18 59t16 71l106 498h-628l-107 -498
q-9 -45 -13.5 -71.5t-6.5 -58.5t4 -49.5t18.5 -34t36 -23.5t57.5 -7l-2 -12h-475l2 12q34 0 60.5 7t46 23t33.5 34.5t25 49.5t18 59t16 71l209 979q9 45 13.5 71.5t6.5 58.5t-4 49.5t-18.5 34t-36 23.5t-57.5 7l2 12h475l-2 -12q-34 0 -60.5 -7t-46 -23t-33.5 -34.5
t-25 -49.5t-18 -59t-16 -71l-94 -444h629l94 444q11 53 16 85t4 66t-12.5 52t-37 29.5t-66.5 11.5z" />
    <glyph glyph-name="Theta" unicode="&#x398;" horiz-adv-x="1452" 
d="M655 -25q-267 0 -416 158t-149 428q0 146 36.5 287t107.5 261t166 211.5t220 143.5t263 52q268 0 418.5 -157.5t150.5 -428.5q0 -183 -59 -355.5t-161.5 -305.5t-253.5 -213.5t-323 -80.5zM647 4q108 0 206.5 62t171.5 165t127.5 233t82 268.5t27.5 268.5q0 220 -94 353
t-273 133q-135 0 -253.5 -95t-196 -242.5t-122 -322t-44.5 -338.5q0 -220 94.5 -352.5t273.5 -132.5zM438 530h-12l96 451h13q-2 -111 32 -159t144 -48h133q110 0 164.5 48t99.5 159h12l-96 -451h-12q2 55 -4 90t-24 63.5t-54.5 41t-93.5 12.5h-134q-110 0 -164.5 -48
t-99.5 -159z" />
    <glyph glyph-name="Iota" unicode="&#x399;" horiz-adv-x="555" 
d="M401 0h-475l2 12q34 0 60.5 7t46 23t33.5 34.5t25 49.5t18 59t16 71l209 979q9 45 13.5 71.5t6.5 58.5t-4 49.5t-18.5 34t-36 23.5t-57.5 7l2 12h475l-2 -12q-34 0 -60.5 -7t-46 -23t-33.5 -34.5t-25 -49.5t-18 -59t-16 -71l-209 -979q-9 -45 -13.5 -71.5t-6.5 -58.5
t4 -49.5t18.5 -34t36 -23.5t57.5 -7z" />
    <glyph glyph-name="Kappa" unicode="&#x39a;" horiz-adv-x="1257" 
d="M516 1243l-209 -995q-11 -52 -16 -83.5t-4 -64.5t13 -49.5t37.5 -27.5t65.5 -11l-2 -12h-475l2 12q41 0 71 11t49 27.5t34 50t23 63.5t20 84l211 995q11 52 15.5 84t3.5 64t-13 49.5t-37 28t-65 10.5l2 12h475l-2 -12q-51 0 -84.5 -14t-55 -48.5t-33.5 -71t-26 -102.5z
M1438 1491l-2 -12q-57 -13 -173.5 -90.5t-285.5 -233.5l-350 -321q165 -391 318.5 -600.5t242.5 -221.5l-2 -12q-68 -8 -168 -8q-51 0 -93 17.5t-90.5 63.5t-101 130t-117 214.5t-145.5 319.5l477 445q58 54 84.5 80t55.5 58.5t39.5 54.5t11.5 44q3 53 -78 60l2 12h375z" />
    <glyph glyph-name="Lambda" unicode="&#x39b;" horiz-adv-x="1214" 
d="M825 1516l172 -1254q20 -138 46 -191t87 -59l-2 -12h-466l2 12q92 6 131 54.5t26 148.5l-133 1008l-469 -840q-37 -66 -60 -111t-40.5 -89t-20.5 -71.5t5 -50t31 -34.5t61 -15l-2 -12h-338l2 12q69 11 138 96.5t183 284.5l631 1123h16z" />
    <glyph glyph-name="Mu" unicode="&#x39c;" horiz-adv-x="1662" 
d="M1782 1491l-2 -12q-53 -5 -85.5 -18t-53.5 -45t-31.5 -70t-22.5 -109l-155 -993q-7 -45 -10.5 -70.5t-4.5 -56.5t5.5 -47t18.5 -31t34.5 -21t54.5 -6l-2 -12h-469l2 12q41 0 71 10.5t49 27t32.5 48t21.5 63.5t16 83l174 1102l-761 -1346h-17l-207 1348l-266 -1006
q-85 -327 102 -330l-2 -12h-383l3 12q93 7 146 87.5t95 242.5l242 911q13 49 14.5 86.5t-7 61.5t-27.5 40t-42 24.5t-55 13.5l2 12h338l180 -1208l682 1208h320z" />
    <glyph glyph-name="Nu" unicode="&#x39d;" horiz-adv-x="1320" 
d="M1114 1479l2 12h381l-2 -12q-40 0 -72.5 -17t-56 -46t-43.5 -77t-34 -98t-29 -121l-242 -1145h-12l-596 1368l-211 -993q-13 -63 -19 -111t-3 -92.5t16.5 -73t42.5 -45t73 -16.5l-4 -12h-399l4 12q100 0 158 87.5t92 250.5l194 910q23 105 -8 156t-125 63l2 12h316
l514 -1182l170 811q19 87 24.5 148.5t-3.5 111.5t-41.5 74.5t-88.5 24.5z" />
    <glyph glyph-name="Xi" unicode="&#x39e;" horiz-adv-x="1181" 
d="M1276 1491l-49 -320h-13q-12 52 -22.5 85.5t-28 59.5t-35.5 39.5t-50 22.5t-66 11t-90 2h-301q-67 0 -107.5 -4t-78.5 -15.5t-68 -37.5t-60 -63t-71 -100h-13l84 320h969zM573 737q-92 0 -148.5 -21.5t-89.5 -62.5t-71 -123h-12l96 451h12q2 -61 10.5 -97t32.5 -62.5
t66.5 -37t112.5 -10.5h118q91 0 147 21.5t89.5 62.5t71.5 123h12l-96 -451h-13q-2 61 -10 97t-32 62.5t-66 37t-111 10.5h-119zM719 113q65 0 109.5 7.5t78 21t64.5 46t56 67.5t65 101h12l-113 -356h-1028l35 356h12q10 -55 18 -86.5t22 -62.5t31 -46t45.5 -27.5t65.5 -16.5
t91 -4h436z" />
    <glyph glyph-name="Omicron" unicode="&#x39f;" horiz-adv-x="1452" 
d="M655 -25q-267 0 -416 158t-149 428q0 146 36.5 287t107.5 261t166 211.5t220 143.5t263 52q268 0 418.5 -157.5t150.5 -428.5q0 -183 -59 -355.5t-161.5 -305.5t-253.5 -213.5t-323 -80.5zM647 4q108 0 206.5 62t171.5 165t127.5 233t82 268.5t27.5 268.5q0 220 -94 353
t-273 133q-135 0 -253.5 -95t-196 -242.5t-122 -322t-44.5 -338.5q0 -220 94.5 -352.5t273.5 -132.5z" />
    <glyph glyph-name="Pi" unicode="&#x3a0;" horiz-adv-x="1363" 
d="M401 0h-475l2 12q34 0 60.5 7t46 23t33.5 34.5t25 49.5t18 59t16 71l209 979q9 45 13.5 71.5t6.5 58.5t-4 49.5t-18.5 34t-36 23.5t-57.5 7l2 12h1284l-2 -12q-41 0 -71 -12t-49.5 -29.5t-34.5 -52t-23.5 -65.5t-20.5 -85l-207 -979q-10 -44 -14.5 -71.5t-6.5 -59
t3.5 -49.5t18 -34t36 -23t57.5 -7l-2 -12h-475l2 12q34 0 60.5 7t46 23t33.5 34.5t25 49.5t18 59t16 71l235 1106q11 48 -2.5 72t-58.5 24h-465q-45 0 -69 -24t-33 -72l-236 -1106q-9 -45 -13.5 -71.5t-6.5 -58.5t4 -49.5t18.5 -34t36 -23.5t57.5 -7z" />
    <glyph glyph-name="Rho" unicode="&#x3a1;" horiz-adv-x="1079" 
d="M242 1491h489q201 0 315.5 -96t114.5 -265q0 -214 -156 -357.5t-397 -143.5q-118 0 -215 33l-86 -406q-16 -77 -18.5 -131.5t27 -83.5t96.5 -29l-2 -12h-484l2 12q41 0 71 12t49.5 29.5t34.5 52t23.5 65.5t20.5 85l209 979q9 44 13.5 73t6 59.5t-4.5 48.5t-19 33.5
t-36 22.5t-56 7zM557 672q99 0 181 41.5t133.5 111t79.5 156t28 180.5q0 142 -69.5 219.5t-200.5 77.5h-68q-36 0 -61.5 -19t-32.5 -55l-131 -618q-6 -15 -2 -31.5t14.5 -30.5t43.5 -23t85 -9z" />
    <glyph glyph-name="Sigma" unicode="&#x3a3;" horiz-adv-x="1069" 
d="M203 1479l2 12h954l-37 -301h-12q-21 88 -43 138t-62 80.5t-92 40t-141 9.5h-373l303 -655l-665 -684h567q77 0 132 13.5t99.5 46t77 71.5t74.5 106h12l-122 -356h-996l2 12l674 690z" />
    <glyph glyph-name="Tau" unicode="&#x3a4;" horiz-adv-x="1126" 
d="M1278 1491l-37 -307h-12q-21 91 -43 142t-60 82t-86 40.5t-131 9.5h-59l-256 -1202q-11 -53 -16 -85t-4 -66t12.5 -52t37 -29.5t66.5 -11.5l-2 -12h-477l2 12q41 0 71.5 11.5t50 29.5t35 52.5t24 66t20.5 84.5l254 1202h-62q-107 0 -171.5 -20.5t-123 -77t-137.5 -176.5
h-12l90 307h1026z" />
    <glyph glyph-name="Upsilon" unicode="&#x3a5;" horiz-adv-x="1165" 
d="M1067 1479l2 12h338l-2 -12q-81 -11 -174 -104.5t-230 -282.5l-296 -416l-91 -420q-9 -43 -14 -71.5t-6.5 -59t4.5 -49t19 -34.5t36.5 -23t57.5 -7l-2 -12h-478l2 12q41 0 71.5 11.5t50 29.5t35 52.5t24 66t20.5 84.5l84 393l-164 580q-44 144 -73.5 193.5t-81.5 56.5
l2 12h458l-2 -12q-189 -12 -135 -195l166 -569l279 393q49 68 79 113t54.5 88t32 69.5t5 48.5t-20.5 34t-50 18z" />
    <glyph glyph-name="Phi" unicode="&#x3a6;" horiz-adv-x="1599" 
d="M817 172h-6q-18 -95 3.5 -133.5t109.5 -38.5l-4 -12h-476l5 12q46 0 76.5 9.5t50.5 34t31.5 53.5t23.5 79q-249 24 -393 148t-144 350q0 143 59 264t162 204t246.5 130t308.5 47h7q18 95 -3.5 133.5t-109.5 38.5l4 12h475l-4 -12q-89 0 -124.5 -39t-57.5 -139
q120 -11 216.5 -46t168 -95t110.5 -150t39 -205q0 -143 -59 -264t-162 -204t-246 -130t-307 -47zM285 637q0 -381 354 -430q0 2 1 6t1 6l225 1053q1 3 2 9t2 9q-138 -2 -250.5 -57t-184.5 -146t-111 -207t-39 -243zM1403 854q0 379 -354 430q0 -2 -1 -6t-1 -6l-226 -1053
q-1 -3 -2 -9t-2 -9q137 2 250 57.5t185 146.5t111.5 206.5t39.5 242.5z" />
    <glyph glyph-name="Chi" unicode="&#x3a7;" horiz-adv-x="1175" 
d="M1008 1479l2 12h364l-2 -12q-86 -10 -172.5 -88t-206.5 -228l-284 -360l223 -570q79 -201 162 -221l-2 -12h-408l2 12q70 6 91.5 50t-7.5 114l-195 494l-286 -363q-55 -68 -84.5 -118t-37.5 -88t13 -60t70 -29l-2 -12h-377l2 12q87 10 177.5 90t207.5 226l301 381
l-215 548q-79 202 -162 222l2 12h408l-2 -12q-68 -6 -90 -50t6 -114l186 -473l271 342q55 69 85 118t39.5 87.5t-10.5 60.5t-69 29z" />
    <glyph glyph-name="Psi" unicode="&#x3a8;" horiz-adv-x="1492" 
d="M1300 1014l101 477h303l-2 -12q-42 0 -70 -14t-47 -49t-29.5 -70.5t-25.5 -102.5l-37 -174q-31 -146 -77.5 -248.5t-124 -179t-193 -114.5t-275.5 -40l-49 -231q-11 -53 -16 -85t-4 -66t12.5 -52t37 -29.5t66.5 -11.5l-2 -12h-475l2 12q41 0 71 12t49.5 29.5t34.5 52
t23.5 65.5t20.5 85l49 231q-268 6 -375 149.5t-49 420.5l41 186q11 53 15.5 84t4.5 64t-9.5 49.5t-30.5 27.5t-56 11l2 12h306l-101 -477q-102 -483 258 -498l152 719q12 53 17 84.5t5 66t-11 52.5t-34 29.5t-61 11.5l2 12h452l-2 -12q-37 0 -65 -12t-45.5 -29t-32.5 -52
t-23 -66t-20 -85l-154 -719q106 3 185 36t134 98.5t90.5 153t61.5 210.5z" />
    <glyph glyph-name="uni03A9" unicode="&#x3a9;" horiz-adv-x="1474" 
d="M801 113h155q63 0 116 12.5t91 31.5t74 52t60.5 63t56.5 76h12l-164 -348h-463l45 201q118 41 210.5 131.5t148 209t84 250.5t28.5 269q0 192 -91 309t-265 117q-100 0 -191.5 -50.5t-160.5 -135t-120.5 -191.5t-78 -224.5t-26.5 -230.5q0 -359 188 -454l-45 -201h-438
l-15 348h13q12 -46 23.5 -76.5t34 -63t52.5 -51.5t78 -31.5t111 -12.5h129l16 71q-163 72 -247.5 215.5t-84.5 329.5q0 209 97.5 389.5t270.5 289t380 108.5q250 0 403.5 -139.5t153.5 -381.5q0 -304 -165.5 -518t-461.5 -299z" />
    <glyph glyph-name="Iotadieresis" unicode="&#x3aa;" horiz-adv-x="555" 
d="M352 1661q-46 0 -78 32.5t-32 78.5t32 78t78 32t78.5 -32t32.5 -78t-32.5 -78.5t-78.5 -32.5zM727 1661q-47 0 -80 32.5t-33 78.5t33 78t80 32q46 0 78.5 -32t32.5 -78t-32.5 -78.5t-78.5 -32.5zM401 0h-475l2 12q34 0 60.5 7t46 23t33.5 34.5t25 49.5t18 59t16 71
l209 979q9 45 13.5 71.5t6.5 58.5t-4 49.5t-18.5 34t-36 23.5t-57.5 7l2 12h475l-2 -12q-34 0 -60.5 -7t-46 -23t-33.5 -34.5t-25 -49.5t-18 -59t-16 -71l-209 -979q-9 -45 -13.5 -71.5t-6.5 -58.5t4 -49.5t18.5 -34t36 -23.5t57.5 -7z" />
    <glyph glyph-name="Upsilondieresis" unicode="&#x3ab;" horiz-adv-x="1165" 
d="M625 1661q-46 0 -78.5 32.5t-32.5 78.5t32.5 78t78.5 32t78 -32t32 -78t-32 -78.5t-78 -32.5zM999 1661q-46 0 -78 32.5t-32 78.5t32 78t78 32t78.5 -32t32.5 -78t-32.5 -78.5t-78.5 -32.5zM1067 1479l2 12h338l-2 -12q-81 -11 -174 -104.5t-230 -282.5l-296 -416
l-91 -420q-9 -43 -14 -71.5t-6.5 -59t4.5 -49t19 -34.5t36.5 -23t57.5 -7l-2 -12h-478l2 12q41 0 71.5 11.5t50 29.5t35 52.5t24 66t20.5 84.5l84 393l-164 580q-42 142 -72.5 192.5t-82.5 57.5l2 12h458l-2 -12q-189 -12 -135 -195l166 -569l279 393q49 68 79 113t54.5 88
t32 69.5t5 48.5t-20.5 34t-50 18z" />
    <glyph glyph-name="alphatonos" unicode="&#x3ac;" horiz-adv-x="1114" 
d="M922 1530q-10 -15 -60 -74t-115.5 -136t-99.5 -120l-8 4q30 65 89 226t69 178q22 39 63 39q30 0 52 -23.5t22 -50.5q0 -25 -12 -43zM891 117q54 0 190 180l11 -8q-166 -314 -308 -314q-118 0 -118 228q0 109 22 205q-89 -205 -212 -319t-245 -114q-102 0 -157.5 79
t-55.5 225q0 140 50.5 286t134.5 264t205 193.5t251 75.5q105 0 166.5 -56t61.5 -168q24 43 121 207h8l141 -12q-176 -292 -249.5 -476t-73.5 -335q0 -141 57 -141zM324 76q75 0 162.5 88.5t164.5 247t115 342.5q10 58 10 110q0 205 -137 205q-82 0 -165 -71.5t-143.5 -181
t-99 -245t-38.5 -258.5q0 -114 34.5 -175.5t96.5 -61.5z" />
    <glyph glyph-name="epsilontonos" unicode="&#x3ad;" horiz-adv-x="823" 
d="M524 1200l-8 4q32 66 91 227t69 177q22 39 61 39q31 0 53.5 -23.5t22.5 -50.5q0 -26 -14 -43q-9 -15 -58 -73.5t-116.5 -137.5t-100.5 -119zM303 -25q-146 0 -231.5 68t-85.5 180q0 90 57.5 161t143.5 108t182 40v5q-108 9 -168 68t-60 157q0 100 57.5 177.5t154.5 118
t216 40.5q78 0 163 -16t140 -46l-38 -186h-13q-22 101 -88 160t-162 59q-117 0 -188.5 -79.5t-71.5 -184.5q0 -172 240 -172h72v-8l-37 -117h-78q-160 0 -250 -63.5t-90 -184.5q0 -91 56.5 -139.5t160.5 -48.5q111 0 209 51.5t162 128.5l12 -8q-43 -56 -85.5 -99t-100 -84.5
t-128.5 -63.5t-151 -22z" />
    <glyph glyph-name="etatonos" unicode="&#x3ae;" horiz-adv-x="1048" 
d="M838 1530q-10 -15 -60 -74t-115.5 -136t-99.5 -120l-8 4q30 65 89 226t69 178q22 39 63 39q31 0 52.5 -23t21.5 -51q0 -25 -12 -43zM868 1098q42 0 71 -13.5t44 -41.5t22 -61t3.5 -81t-10.5 -92.5t-19 -103.5l-244 -1139l-166 -33h-8l252 1188q9 41 13.5 66t9 59t2.5 54
t-8.5 39.5t-22 28.5t-39.5 9q-64 0 -144.5 -80.5t-157 -212.5t-145.5 -313t-110 -371h-164l182 862q6 28 7.5 38.5t3 30.5t-4.5 28t-18 8q-40 0 -156 -150l-10 8q66 130 140.5 201.5t138.5 71.5q34 0 54 -16.5t26 -47.5t3 -67.5t-14 -85.5l-106 -490q116 317 270 512
t305 195z" />
    <glyph glyph-name="iotatonos" unicode="&#x3af;" horiz-adv-x="487" 
d="M279 1200l-9 4q32 68 91 229t67 175q25 39 64 39q31 0 53 -23t22 -51q0 -22 -14 -43q-10 -15 -59 -73.5t-115.5 -137t-99.5 -119.5zM137 -25q-132 0 -82 228l187 874l161 17h9l-187 -873q-22 -108 25 -108q33 0 89.5 53.5t123.5 144.5l10 -8q-84 -154 -171 -241t-165 -87
z" />
    <glyph glyph-name="upsilondieresistonos" unicode="&#x3b0;" horiz-adv-x="946" 
d="M510 1200l-8 6q31 66 79 210.5t58 160.5q18 41 63 41q30 0 52 -22t22 -52q0 -25 -16 -47q-10 -15 -54 -66t-103 -119.5t-93 -111.5zM395 1262q-37 0 -63.5 27.5t-26.5 64.5t26.5 63.5t63.5 26.5t64.5 -26.5t27.5 -63.5t-27.5 -64.5t-64.5 -27.5zM836 1262q-37 0 -65 27.5
t-28 64.5q0 36 28 63t65 27t63.5 -26.5t26.5 -63.5t-26.5 -64.5t-63.5 -27.5zM348 -25q-79 0 -133 31.5t-77 87t-26.5 130t17.5 161.5l100 475q6 28 7.5 38.5t3 30.5t-4.5 28t-18 8q-41 0 -160 -154l-10 8q71 136 145 207.5t140 71.5q35 0 55 -16t24.5 -48t1.5 -67t-14 -86
l-108 -514q-15 -69 -17 -128.5t9.5 -109t44 -78t84.5 -28.5q84 0 156.5 75.5t117.5 191.5t70.5 245t25.5 245q0 213 -71 281v12l159 25q54 -60 54 -201q0 -96 -19 -202t-54 -208.5t-87 -195t-114 -163t-140.5 -112t-161.5 -41.5z" />
    <glyph glyph-name="alpha" unicode="&#x3b1;" horiz-adv-x="1114" 
d="M891 117q54 0 190 180l11 -8q-166 -314 -308 -314q-118 0 -118 228q0 109 22 205q-89 -205 -212 -319t-245 -114q-102 0 -157.5 79t-55.5 225q0 140 50.5 286t134.5 264t205 193.5t251 75.5q105 0 166.5 -56t61.5 -168q24 43 121 207h8l141 -12q-176 -292 -249.5 -476
t-73.5 -335q0 -141 57 -141zM324 76q75 0 162.5 88.5t164.5 247t115 342.5q10 58 10 110q0 205 -137 205q-82 0 -165 -71.5t-143.5 -181t-99 -245t-38.5 -258.5q0 -114 34.5 -175.5t96.5 -61.5z" />
    <glyph glyph-name="beta" unicode="&#x3b2;" horiz-adv-x="1024" 
d="M639 883q65 -5 122.5 -28.5t103.5 -64.5t73 -104.5t27 -142.5q0 -108 -44.5 -211.5t-119 -182t-178.5 -126.5t-215 -48q-130 0 -232 74l-102 -477l-166 -39h-8l346 1624q45 212 171 330.5t314 118.5q137 0 221 -71.5t84 -199.5q0 -161 -113.5 -282.5t-283.5 -169.5z
M403 4q80 0 153 47t122.5 120t78.5 161t29 170q0 126 -70 191t-181 65q-44 0 -84 -4l38 129q118 9 209 79.5t137 174.5t46 221q0 110 -44 164.5t-118 54.5q-107 0 -183 -96t-116 -281l-191 -897v-2q-29 -128 16 -212.5t158 -84.5z" />
    <glyph glyph-name="gamma" unicode="&#x3b3;" horiz-adv-x="929" 
d="M918 905q0 -29 -6.5 -62.5t-14.5 -62t-27 -69.5t-31 -67t-40 -72.5t-41 -68.5t-47.5 -72t-45.5 -66t-48 -69t-44 -63l-122 -174v-6q-5 -176 -68 -477l-178 -43h-8q71 334 147 463q-24 393 -117 858q-10 54 -22 78t-37 24q-60 0 -107 -153l-10 4q44 291 201 291
q61 0 95.5 -45t51.5 -146q64 -390 54 -790l110 159q215 314 215 535q0 80 -25 151t-69 99l2 12l148 25q38 -29 61 -81t23 -112z" />
    <glyph glyph-name="delta" unicode="&#x3b4;" horiz-adv-x="1007" 
d="M735 1606q183 0 324 -90l-47 -211h-11q-35 81 -138.5 137.5t-229.5 56.5q-97 0 -158 -39.5t-61 -103.5q0 -34 15.5 -65t54 -66.5t75.5 -62.5t107 -75q77 -55 126.5 -99.5t89.5 -99t58 -117t18 -140.5q0 -90 -26 -183.5t-76 -177.5t-116.5 -150.5t-154 -105.5t-182.5 -39
q-166 0 -267 111.5t-101 298.5q0 160 70.5 305t197.5 244t283 123q-104 87 -135 122q-68 76 -68 164q0 115 96 189t256 74zM795 680q0 66 -15 121t-44.5 98.5t-57 72.5t-68.5 64q-4 4 -6 4q-115 -26 -209.5 -149t-143 -280.5t-48.5 -307.5q0 -140 50 -219.5t150 -79.5
q66 0 128.5 46t109 120t82 163.5t54 180t18.5 166.5z" />
    <glyph glyph-name="epsilon" unicode="&#x3b5;" horiz-adv-x="823" 
d="M303 -25q-146 0 -231.5 68t-85.5 180q0 90 57.5 161t143.5 108t182 40v5q-108 9 -168 68t-60 157q0 100 57.5 177.5t154.5 118t216 40.5q78 0 163 -16t140 -46l-38 -186h-13q-22 101 -88 160t-162 59q-117 0 -188.5 -79.5t-71.5 -184.5q0 -172 240 -172h72v-8l-37 -117
h-78q-160 0 -250 -63.5t-90 -184.5q0 -91 56.5 -139.5t160.5 -48.5q111 0 209 51.5t162 128.5l12 -8q-43 -56 -85.5 -99t-100 -84.5t-128.5 -63.5t-151 -22z" />
    <glyph glyph-name="zeta" unicode="&#x3b6;" horiz-adv-x="757" 
d="M479 1524q146 0 522 24l-2 -8q-96 -93 -156.5 -152t-157.5 -159t-160 -172.5t-137 -169t-117.5 -173t-73 -159.5t-29.5 -152q0 -185 197 -231l53 -12q126 -29 174.5 -68t48.5 -106q0 -84 -65 -183.5t-199 -236.5l-12 8q85 124 118 186t33 117q0 51 -36.5 80t-137.5 53
l-53 13q-146 33 -209.5 106.5t-63.5 192.5q0 86 27.5 174t90.5 182t119.5 167.5t162 177t167 161t182.5 165.5q68 61 101 91q-335 -66 -440 -66q-83 0 -116.5 26t-33.5 83q0 14 13 94l12 4q10 -30 46.5 -43.5t131.5 -13.5z" />
    <glyph glyph-name="eta" unicode="&#x3b7;" horiz-adv-x="1048" 
d="M868 1098q42 0 71 -13.5t44 -41.5t22 -61t3.5 -81t-10.5 -92.5t-19 -103.5l-244 -1139l-166 -33h-8l252 1188q9 41 13.5 66t9 59t2.5 54t-8.5 39.5t-22 28.5t-39.5 9q-64 0 -144.5 -80.5t-157 -212.5t-145.5 -313t-110 -371h-164l182 862q6 28 7.5 38.5t3 30.5t-4.5 28
t-18 8q-40 0 -156 -150l-10 8q66 130 140.5 201.5t138.5 71.5q34 0 54 -16.5t26 -47.5t3 -67.5t-14 -85.5l-106 -490q116 317 270 512t305 195z" />
    <glyph glyph-name="theta" unicode="&#x3b8;" horiz-adv-x="1148" 
d="M1315 915l4 -8q-19 -66 -39.5 -88.5t-60.5 -32.5q-75 -18 -203 -28q-38 -150 -96.5 -285t-136.5 -249t-180.5 -181.5t-213.5 -67.5q-66 0 -112.5 24t-70.5 66.5t-37 91t-13.5 109.5t2 109t7.5 101.5t5 76.5q0 49 -23 49q-38 0 -151 -147l-10 8q68 131 137.5 201.5
t132.5 70.5q41 0 61.5 -27t20.5 -73q0 -47 -41 -206.5t-41 -242.5q0 -84 32.5 -133t100.5 -49q70 0 138.5 63.5t124.5 172t101 236t81 272.5q-50 -3 -95 -3q-257 0 -375 71t-118 247q0 136 63.5 261t175.5 203.5t242 78.5q71 0 130.5 -25t108 -77t76 -142.5t27.5 -212.5
q0 -146 -39 -332q159 41 285 98zM709 778q72 0 135 8q67 290 67 488q0 158 -50.5 230.5t-129.5 72.5q-87 0 -162 -87t-116 -212t-41 -248q0 -141 69 -196.5t228 -55.5z" />
    <glyph glyph-name="iota" unicode="&#x3b9;" horiz-adv-x="483" 
d="M131 -25q-132 0 -82 228l187 874l161 17h9l-187 -873q-22 -108 25 -108q33 0 89.5 53.5t123.5 144.5l10 -8q-81 -154 -168.5 -241t-167.5 -87z" />
    <glyph glyph-name="kappa" unicode="&#x3ba;" horiz-adv-x="940" 
d="M932 305l10 -8q-86 -167 -155 -244.5t-134 -77.5q-83 0 -147 138.5t-152 459.5l209 148q94 67 156 168t47 172v12l166 25q10 -41 -3.5 -83.5t-39 -77t-73.5 -75.5t-87 -69.5t-100 -70.5q-17 -11 -25 -17l-96 -68q50 -163 79.5 -252t58.5 -153t51.5 -85.5t50.5 -21.5
q35 0 77.5 42t106.5 138zM227 1077l162 17h8l-231 -1094h-166z" />
    <glyph glyph-name="lambda" unicode="&#x3bb;" horiz-adv-x="972" 
d="M956 301l11 -8q-72 -173 -125 -245.5t-125 -72.5q-28 0 -47 11t-36.5 43t-24.5 99.5t-3 170.5l27 619l-533 -918h-192l696 1180l-10 88q-12 98 -46 142t-91 44q-86 0 -193 -96h-12l53 170q79 53 148 53q82 0 122.5 -75.5t51.5 -239.5l65 -934q9 -134 25.5 -183t54.5 -49
q71 0 184 201z" />
    <glyph glyph-name="uni03BC" unicode="&#x3bc;" horiz-adv-x="1054" 
d="M1034 297l10 -8q-77 -149 -159.5 -231.5t-155.5 -82.5q-46 0 -67.5 30t-19.5 79t13 111l103 475q-116 -311 -269.5 -503t-302.5 -192q-18 0 -26 2l-86 -401l-166 -43h-8l178 834l149 710l162 17h8l-155 -742q-29 -142 -24 -190q8 -66 67 -66q60 0 138 75.5t155.5 203
t150 313.5t117.5 389l160 17h8l-189 -883q-11 -37 -10.5 -71t23.5 -34q52 0 196 191z" />
    <glyph glyph-name="nu" unicode="&#x3bd;" horiz-adv-x="935" 
d="M698 1073l148 25q38 -29 61 -82t23 -113q0 -41 -10 -86t-33.5 -95.5t-44.5 -92t-59.5 -100.5t-61.5 -93t-68.5 -98.5t-62.5 -89.5l-187 -266h-59l-113 882q-13 101 -55 101q-56 0 -104 -158l-13 4q41 287 193 287q129 0 151 -201l84 -737l101 143q205 301 205 508
q0 77 -26.5 149t-68.5 101v12z" />
    <glyph glyph-name="xi" unicode="&#x3be;" horiz-adv-x="759" 
d="M393 -434l-12 8q82 123 114.5 185.5t32.5 117.5q0 51 -36.5 80t-135.5 53l-53 13q-289 64 -289 299q0 97 40.5 178t112 135.5t161 90t194.5 50.5l2 4q-153 0 -237 51.5t-84 157.5q0 66 33.5 126t87 105t127.5 83.5t148.5 65t156.5 46.5l2 6q-29 -4 -100 -13.5t-106 -14
t-80.5 -9t-72.5 -4.5q-82 0 -116.5 24.5t-34.5 80.5q0 31 14 92l12 4q10 -30 46.5 -43.5t132.5 -13.5q154 0 514 24v-8l-37 -108q-123 -23 -222 -55.5t-182.5 -79t-129.5 -111t-46 -142.5q0 -75 58 -116t165 -41q68 0 191 12v-8l-39 -125q-271 -15 -414 -107.5t-143 -259.5
q0 -84 52.5 -143.5t158.5 -83.5l53 -12q125 -29 174 -67.5t49 -104.5q0 -85 -64.5 -185.5t-197.5 -236.5z" />
    <glyph glyph-name="omicron" unicode="&#x3bf;" horiz-adv-x="1007" 
d="M412 -25q-169 0 -271 113.5t-102 306.5q0 126 43 252.5t115 226t177 162t220 62.5q169 0 270 -114t101 -308q0 -128 -42.5 -254.5t-115 -225t-177 -160t-218.5 -61.5zM408 4q86 0 162 75.5t124 190t75.5 244t27.5 244.5q0 144 -50 227.5t-149 83.5q-86 0 -161.5 -75.5
t-123.5 -190t-76 -244t-28 -244.5q0 -143 50 -227t149 -84z" />
    <glyph glyph-name="pi" unicode="&#x3c0;" horiz-adv-x="1257" 
d="M1157 934h-149l-144 -676q-34 -172 64 -172q45 0 107.5 44t131.5 130l9 -8q-77 -125 -170.5 -201t-180.5 -76q-92 0 -127 71.5t-8 193.5q58 282 189 694h-379l-21 -98q-84 -402 -219 -836h-182q123 251 198.5 452t122.5 422l13 60h-119q-81 0 -130 -21.5t-100 -101.5h-12
q45 142 131.5 202t208.5 60h793q132 0 186 25l4 -8q-40 -95 -84.5 -125.5t-132.5 -30.5z" />
    <glyph glyph-name="rho" unicode="&#x3c1;" horiz-adv-x="1015" 
d="M604 1098q168 0 269.5 -113t101.5 -305q0 -127 -43 -254t-115.5 -227t-176.5 -162t-218 -62q-158 0 -260 88l-105 -491l-166 -39h-8l217 1028q52 252 181 394.5t323 142.5zM418 4q85 0 160 75.5t123.5 192t76 250.5t27.5 256q0 134 -50.5 212.5t-150.5 78.5
q-81 0 -147 -64t-109.5 -167.5t-73.5 -245.5l-61 -287q-17 -131 40.5 -216t164.5 -85z" />
    <glyph glyph-name="uni03C2" unicode="&#x3c2;" horiz-adv-x="794" 
d="M403 -434l-12 8q84 123 117 185.5t33 117.5q0 51 -36.5 80t-135.5 53l-52 13q-144 34 -216 115t-72 218q0 94 29.5 197t85.5 199.5t129 174t168.5 124.5t195.5 47q88 0 145 -32t84 -79l-98 -205h-12q12 137 -24.5 212t-115.5 75q-80 0 -160.5 -62t-139 -155t-95.5 -204.5
t-37 -207.5q0 -117 55 -180t160 -88l52 -12q123 -30 169 -68t46 -104q0 -84 -64 -183t-199 -239z" />
    </font>
</defs>
</svg>
