<?xml version="1.0" standalone="no"?>
<!DOCTYPE svg PUBLIC "-//W3C//DTD SVG 1.1//EN" "http://www.w3.org/Graphics/SVG/1.1/DTD/svg11.dtd" >
<svg xmlns="http://www.w3.org/2000/svg" xmlns:xlink="http://www.w3.org/1999/xlink" version="1.1">
<metadata>
Created by FontForge 20201107 at Wed Nov 27 18:33:27 2024
 By 
Copyright (c) Mark Simonson, 2005. All rights reserved.
</metadata>
<defs>
<font id="ProximaNovaCond-Semibold" horiz-adv-x="956" >
  <font-face 
    font-family="Proxima Nova Cn Lt"
    font-weight="600"
    font-stretch="normal"
    units-per-em="2048"
    panose-1="2 0 5 6 3 0 0 2 0 4"
    ascent="1618"
    descent="-430"
    x-height="989"
    cap-height="1366"
    bbox="-279 -573 1954 1817"
    underline-thickness="40"
    underline-position="-271"
    unicode-range="U+000D-FB04"
  />
<missing-glyph horiz-adv-x="980" 
d="M850 -184h-719v1724h719v-1724zM784 -123v1602h-589v-1602h589z" />
    <glyph glyph-name="f_f_j" unicode="ffj" horiz-adv-x="1566" 
d="M928 0h-205v811h-129v178h129v92q0 145 73.5 225t194.5 80q93 0 150 -32l-43 -158q-21 18 -64 18q-50 0 -78 -34.5t-28 -98.5v-92h164v-178h-164v-811zM1343 1114q-53 0 -91 37.5t-38 89.5q0 54 38 91.5t91 37.5t90 -37.5t37 -91.5q0 -53 -37 -90t-90 -37zM1159 -401
q-61 0 -101.5 15t-76.5 48l57 154q42 -45 97 -45q106 0 106 145v1073h205v-1073q0 -317 -287 -317zM367 0h-205v811h-129v178h129v92q0 144 74 224.5t204 80.5q127 0 199 -69l-70 -143q-40 40 -92 40q-54 0 -82 -34t-28 -99v-92h163v-178h-163v-811z" />
    <glyph glyph-name="f_j" unicode="fj" horiz-adv-x="1005" 
d="M367 0h-205v811h-129v178h129v92q0 145 73.5 225t194.5 80q93 0 150 -32l-43 -158q-21 18 -64 18q-50 0 -78 -34.5t-28 -98.5v-92h163v-178h-163v-811zM784 1114q-53 0 -91 37.5t-38 89.5q0 54 38 91.5t91 37.5t90 -37.5t37 -91.5q0 -53 -37.5 -90t-89.5 -37zM600 -401
q-61 0 -101.5 15t-76.5 48l57 154q42 -45 96 -45q107 0 107 145v1073h205v-1073q0 -317 -287 -317z" />
    <glyph glyph-name="f_f" unicode="ff" horiz-adv-x="1120" 
d="M367 0h-205v811h-129v178h129v92q0 144 74 224.5t204 80.5q127 0 199 -69l-70 -143q-40 40 -92 40q-54 0 -82 -34t-28 -99v-92h163v-178h-163v-811zM928 0h-205v811h-129v178h129v92q0 144 74 224.5t204 80.5q127 0 199 -69l-70 -143q-40 40 -92 40q-54 0 -82 -34
t-28 -99v-92h164v-178h-164v-811z" />
    <glyph glyph-name="fi" unicode="fi" horiz-adv-x="1005" 
d="M367 0h-205v811h-129v178h129v92q0 145 73.5 225t194.5 80q93 0 150 -32l-43 -158q-21 18 -64 18q-50 0 -78 -34.5t-28 -98.5v-92h163v-178h-163v-811zM784 1114q-53 0 -91 37.5t-38 89.5q0 54 38 91.5t91 37.5t90 -37.5t37 -91.5q0 -53 -37.5 -90t-89.5 -37zM887 0h-205
v989h205v-989z" />
    <glyph glyph-name="fl" unicode="fl" horiz-adv-x="1005" 
d="M367 0h-205v811h-129v178h129v92q0 145 73.5 225t194.5 80q93 0 150 -32l-43 -158q-21 18 -64 18q-50 0 -78 -34.5t-28 -98.5v-92h163v-178h-163v-811zM887 0h-205v1366h205v-1366z" />
    <glyph glyph-name="f_f_i" unicode="ffi" horiz-adv-x="1566" 
d="M928 0h-205v811h-129v178h129v92q0 145 73.5 225t194.5 80q93 0 150 -32l-43 -158q-21 18 -64 18q-50 0 -78 -34.5t-28 -98.5v-92h164v-178h-164v-811zM1343 1114q-53 0 -91 37.5t-38 89.5q0 54 38 91.5t91 37.5t90 -37.5t37 -91.5q0 -53 -37 -90t-90 -37zM1446 0h-205
v989h205v-989zM367 0h-205v811h-129v178h129v92q0 144 74 224.5t204 80.5q127 0 199 -69l-70 -143q-40 40 -92 40q-54 0 -82 -34t-28 -99v-92h163v-178h-163v-811z" />
    <glyph glyph-name="f_f_l" unicode="ffl" horiz-adv-x="1566" 
d="M928 0h-205v811h-129v178h129v92q0 145 73.5 225t194.5 80q93 0 150 -32l-43 -158q-21 18 -64 18q-50 0 -78 -34.5t-28 -98.5v-92h164v-178h-164v-811zM1446 0h-205v1366h205v-1366zM367 0h-205v811h-129v178h129v92q0 144 74 224.5t204 80.5q127 0 199 -69l-70 -143
q-40 40 -92 40q-54 0 -82 -34t-28 -99v-92h163v-178h-163v-811z" />
    <glyph glyph-name="f_b" unicode="fb" horiz-adv-x="1570" 
d="M367 0h-205v811h-129v178h129v92q0 145 73.5 225t194.5 80q93 0 150 -32l-43 -158q-21 18 -64 18q-50 0 -78 -34.5t-28 -98.5v-92h163v-178h-163v-811zM887 291q27 -57 81 -96t111 -39q102 0 156.5 94.5t54.5 243.5q0 151 -54.5 245.5t-156.5 94.5q-57 0 -111 -40.5
t-81 -97.5v-405zM887 0h-205v1366h205v-510q43 77 110.5 117.5t143.5 40.5q165 0 262.5 -142t97.5 -378q0 -238 -97 -378.5t-263 -140.5q-75 0 -142.5 41.5t-111.5 114.5v-131z" />
    <glyph glyph-name="f_h" unicode="fh" horiz-adv-x="1552" 
d="M367 0h-205v811h-129v178h129v92q0 145 73.5 225t194.5 80q93 0 150 -32l-43 -158q-21 18 -64 18q-50 0 -78 -34.5t-28 -98.5v-92h163v-178h-163v-811zM1434 0h-203v678q0 156 -144 156q-61 0 -114.5 -40t-85.5 -98v-696h-205v1366h205v-510q43 65 122.5 111.5
t166.5 46.5q258 0 258 -266v-748z" />
    <glyph glyph-name="f_k" unicode="fk" horiz-adv-x="1492" 
d="M367 0h-205v811h-129v178h129v92q0 145 73.5 225t194.5 80q93 0 150 -32l-43 -158q-21 18 -64 18q-50 0 -78 -34.5t-28 -98.5v-92h163v-178h-163v-811zM1479 0h-240l-233 414l-119 -160v-254h-205v1366h205v-862l348 485h238l-328 -444z" />
    <glyph glyph-name=".notdef" horiz-adv-x="980" 
d="M850 -184h-719v1724h719v-1724zM784 -123v1602h-589v-1602h589z" />
    <glyph glyph-name=".null" horiz-adv-x="0" 
 />
    <glyph glyph-name=".null" horiz-adv-x="0" 
 />
    <glyph glyph-name="nonmarkingreturn" horiz-adv-x="682" 
 />
    <glyph glyph-name="CR" unicode="&#xd;" horiz-adv-x="0" 
 />
    <glyph glyph-name="space" unicode=" " horiz-adv-x="434" 
 />
    <glyph glyph-name="exclam" unicode="!" horiz-adv-x="495" 
d="M336 412h-174l-39 954h250zM248 -23q-56 0 -96.5 42t-40.5 98t40 96.5t97 40.5t97 -40.5t40 -96.5t-40.5 -98t-96.5 -42z" />
    <glyph glyph-name="quotedbl" unicode="&#x22;" horiz-adv-x="763" 
d="M264 809h-94q-70 428 -70 463q0 47 34.5 80.5t82.5 33.5q46 0 80.5 -33.5t34.5 -80.5q0 -16 -17 -131.5t-34 -223.5zM594 809h-92q-70 428 -70 463q0 47 34 80.5t83 33.5q47 0 81 -33.5t34 -80.5q0 -16 -17.5 -131.5t-34.5 -223.5z" />
    <glyph glyph-name="numbersign" unicode="#" horiz-adv-x="1073" 
d="M584 0h-156l104 360h-174l-100 -360h-156l101 360h-166l37 136h170l104 374h-170l35 134h174l102 362h156l-102 -362h172l100 362h156l-103 -362h168l-32 -134h-175l-104 -374h174l-35 -136h-178zM567 496l107 374h-170l-105 -374h168z" />
    <glyph glyph-name="dollar" unicode="$" horiz-adv-x="997" 
d="M436 -205v182q-237 17 -383 173l115 176q50 -57 119 -95.5t149 -48.5v418q-43 20 -71 33.5t-68 36.5t-65.5 44.5t-54 53t-45 65.5t-27.5 79t-11 96q0 143 93 246.5t249 127.5v191h158v-189q189 -21 317 -143l-110 -172q-87 87 -207 109v-381q42 -19 71 -34t68 -39
t65.5 -46.5t55 -55t45.5 -67.5t28 -80.5t11 -97.5q0 -153 -89.5 -260.5t-254.5 -132.5v-189h-158zM707 358q0 96 -113 166v-329q54 23 83.5 66t29.5 97zM326 1020q0 -86 110 -148v302q-52 -19 -81 -59t-29 -95z" />
    <glyph glyph-name="percent" unicode="%" horiz-adv-x="1357" 
d="M352 711q-133 0 -216 95.5t-83 240.5q0 147 83 243t216 96t216 -96t83 -243q0 -145 -83 -240.5t-216 -95.5zM379 0h-115l719 1366h117zM1006 -25q-133 0 -215 95.5t-82 240.5q0 147 82 244.5t215 97.5t216 -97.5t83 -244.5q0 -145 -83 -240.5t-216 -95.5zM352 840
q68 0 110 57.5t42 149.5q0 94 -41.5 151t-110.5 57t-110 -57t-41 -151q0 -92 41.5 -149.5t109.5 -57.5zM1006 106q69 0 111 57t42 148q0 94 -42 152.5t-111 58.5t-110.5 -58.5t-41.5 -152.5q0 -91 41.5 -148t110.5 -57z" />
    <glyph glyph-name="ampersand" unicode="&#x26;" horiz-adv-x="1095" 
d="M1079 0h-243q-73 90 -91 113q-141 -138 -319 -138q-160 0 -262.5 100.5t-102.5 280.5q0 74 19.5 136.5t57.5 111.5t77.5 84t95.5 72q-86 175 -86 297q0 144 88 236.5t224 92.5q121 0 203.5 -77t82.5 -201q0 -58 -17 -109.5t-40 -86.5t-66 -73.5t-73 -59.5t-84 -56
q51 -89 106 -164q57 -86 103 -149q61 122 100 274l166 -76q-64 -196 -154 -344q66 -86 215 -264zM459 139q97 0 186 103q-105 137 -139 190q-71 104 -117 182q-115 -103 -115 -243q0 -104 53.5 -168t131.5 -64zM420 1055q0 -80 51 -195q84 54 129 109.5t45 130.5
q0 65 -29.5 100t-74.5 35q-55 0 -88 -47t-33 -133z" />
    <glyph glyph-name="quotesingle" unicode="'" horiz-adv-x="432" 
d="M264 809h-94q-70 428 -70 463q0 47 34.5 80.5t82.5 33.5q46 0 80.5 -33.5t34.5 -80.5q0 -16 -17 -131.5t-34 -223.5z" />
    <glyph glyph-name="parenleft" unicode="(" horiz-adv-x="526" 
d="M487 -326l-137 -82q-124 194 -191 427t-67 479q0 245 67 477.5t191 427.5l137 -80q-88 -201 -131 -395.5t-43 -429.5q0 -234 43.5 -430t130.5 -394z" />
    <glyph glyph-name="parenright" unicode=")" horiz-adv-x="526" 
d="M174 -408l-135 82q87 198 130.5 394t43.5 430q0 235 -43 429.5t-131 395.5l135 80q125 -195 192.5 -427t67.5 -478t-67.5 -479.5t-192.5 -426.5z" />
    <glyph glyph-name="asterisk" unicode="*" horiz-adv-x="675" 
d="M393 776h-110l10 230l-193 -125l-55 96l205 104l-205 105l55 94l193 -123l-10 229h110l-12 -229l194 123l56 -94l-205 -105l205 -104l-56 -96l-194 125z" />
    <glyph glyph-name="plus" unicode="+" horiz-adv-x="905" 
d="M846 625h-322v-365h-143v365h-322v133h322v350h143v-350h322v-133z" />
    <glyph glyph-name="comma" unicode="," horiz-adv-x="495" 
d="M397 72q0 -102 -51 -192t-137 -150l-92 75q51 31 93 86.5t52 106.5q-12 -4 -33 -4q-51 0 -84.5 35t-33.5 90q0 56 39 95.5t94 39.5q65 0 109 -49t44 -133z" />
    <glyph glyph-name="hyphen" unicode="-" horiz-adv-x="550" 
d="M489 408h-428v176h428v-176z" />
    <glyph glyph-name="period" unicode="." horiz-adv-x="495" 
d="M248 -23q-56 0 -96.5 41.5t-40.5 98.5q0 55 40.5 96t96.5 41q57 0 97 -40.5t40 -96.5q0 -57 -40 -98.5t-97 -41.5z" />
    <glyph glyph-name="slash" unicode="/" horiz-adv-x="544" 
d="M152 -41h-152l393 1448h152z" />
    <glyph glyph-name="zero" unicode="0" horiz-adv-x="1077" 
d="M539 -25q-96 0 -174 41t-130.5 109.5t-88 161t-51 191.5t-15.5 204q0 106 15.5 205t51 190.5t88 159.5t130.5 108.5t174 40.5t175 -40.5t131 -108.5t87.5 -159.5t51 -190.5t15.5 -205q0 -87 -11.5 -170.5t-34 -163.5t-60 -147t-87 -118t-118 -79.5t-149.5 -28.5zM539 178
q229 0 229 504t-229 504q-228 0 -228 -504t228 -504z" />
    <glyph glyph-name="one" unicode="1" horiz-adv-x="720" 
d="M590 0h-225v1071l-209 -219l-133 139l370 375h197v-1366z" />
    <glyph glyph-name="two" unicode="2" horiz-adv-x="1038" 
d="M938 0h-840v184q109 114 164 172t129.5 138t108 119t77 93.5t60 84t35 68t23.5 68t5 62.5q0 89 -57 143t-139 54q-180 0 -291 -162l-139 141q158 221 432 221q185 0 305.5 -107.5t120.5 -287.5q0 -65 -20.5 -130.5t-54 -128.5t-102 -151t-138 -168.5t-187.5 -211.5h508
v-201z" />
    <glyph glyph-name="three" unicode="3" horiz-adv-x="1015" 
d="M492 -25q-149 0 -264 62.5t-179 161.5l139 141q53 -75 129 -118.5t164 -43.5q112 0 169 57.5t57 157.5q0 205 -238 205q-101 0 -119 -4v205q20 -2 115 -2q101 0 162 48t61 140q0 98 -58 149.5t-155 51.5q-161 0 -274 -148l-133 131q69 102 178 159.5t246 57.5
q192 0 306.5 -94.5t114.5 -271.5q0 -118 -73 -204t-178 -109q106 -16 188 -107.5t82 -226.5q0 -176 -119 -287t-321 -111z" />
    <glyph glyph-name="four" unicode="4" horiz-adv-x="1007" 
d="M819 0h-225v317h-549v191l483 858h291v-850h144v-199h-144v-317zM594 516v614l-344 -614h344z" />
    <glyph glyph-name="five" unicode="5" horiz-adv-x="1048" 
d="M524 -25q-283 0 -434 220l141 143q110 -160 287 -160q101 0 162 72.5t61 177.5q0 120 -56.5 186t-156.5 66q-134 0 -233 -119l-166 47v758h766v-199h-539v-405q40 51 106.5 83t143.5 32q158 0 261.5 -118t103.5 -325q0 -202 -123.5 -330.5t-323.5 -128.5z" />
    <glyph glyph-name="six" unicode="6" horiz-adv-x="1046" 
d="M553 -25q-101 0 -182.5 38t-135 103t-89 156t-51 192.5t-15.5 217.5q0 148 32 274.5t93.5 223t160 151.5t224.5 55q105 0 192 -41.5t144 -115.5l-115 -166q-42 62 -93 92.5t-126 30.5q-90 0 -156 -68.5t-96.5 -172.5t-30.5 -226v-31q40 76 120.5 130t174.5 54
q160 0 266.5 -115.5t106.5 -324.5q0 -193 -117 -325t-307 -132zM541 178q67 0 115 37.5t68.5 91.5t20.5 117q0 130 -58.5 192t-149.5 62q-70 0 -129 -48t-97 -122q3 -58 16 -111t38 -105t70.5 -83t105.5 -31z" />
    <glyph glyph-name="seven" unicode="7" horiz-adv-x="917" 
d="M444 0h-243l417 1167h-571v199h827v-156z" />
    <glyph glyph-name="eight" unicode="8" horiz-adv-x="1038" 
d="M520 -25q-198 0 -320 98t-122 271q0 123 77 220.5t187 140.5q-105 39 -175.5 123.5t-70.5 205.5q0 89 36 158.5t96.5 110.5t135 62t156.5 21q65 0 125.5 -12.5t115 -40.5t95 -68.5t64.5 -99.5t24 -131q0 -121 -71 -205.5t-177 -123.5q110 -43 188.5 -141t78.5 -220
q0 -171 -123.5 -270t-319.5 -99zM520 788q25 6 54 19.5t63.5 37.5t57 64t22.5 88q0 87 -54 138t-143 51q-90 0 -143 -51t-53 -138q0 -48 22.5 -88t56.5 -64t63 -37.5t54 -19.5zM520 178q92 0 153.5 52.5t61.5 144.5q0 53 -25 99t-61.5 74t-70.5 44.5t-58 19.5
q-24 -3 -58 -19.5t-70.5 -44.5t-61.5 -74t-25 -99q0 -92 60.5 -144.5t154.5 -52.5z" />
    <glyph glyph-name="nine" unicode="9" horiz-adv-x="1046" 
d="M457 -23q-105 0 -192 42t-144 116l115 166q41 -61 93 -91t126 -30q70 0 125.5 39.5t89 106.5t50.5 148.5t17 170.5v33q-41 -78 -121 -132t-174 -54q-160 0 -266 115t-106 325q0 193 117 325t307 132q125 0 219 -57t148 -157t80 -223.5t26 -269.5q0 -148 -32 -274.5
t-94 -223.5t-160.5 -152t-223.5 -55zM508 688q71 0 130 47t97 121q-3 59 -15.5 112t-37 105t-69.5 83.5t-105 31.5q-67 0 -115.5 -38t-70 -93t-21.5 -117q0 -129 58.5 -190.5t148.5 -61.5z" />
    <glyph glyph-name="colon" unicode=":" horiz-adv-x="495" 
d="M248 729q-56 0 -96.5 40.5t-40.5 96.5q0 57 40.5 97.5t96.5 40.5q57 0 97 -40.5t40 -97.5q0 -56 -40 -96.5t-97 -40.5zM248 -23q-56 0 -96.5 41.5t-40.5 98.5q0 55 40.5 96t96.5 41q57 0 97 -40.5t40 -96.5q0 -57 -40 -98.5t-97 -41.5z" />
    <glyph glyph-name="semicolon" unicode=";" horiz-adv-x="495" 
d="M248 729q-55 0 -96 41.5t-41 95.5q0 57 40.5 97.5t96.5 40.5q57 0 97 -40.5t40 -97.5q0 -55 -40.5 -96t-96.5 -41zM397 78q0 -102 -51 -192t-137 -150l-92 76q50 30 92.5 85t52.5 107q-18 -6 -33 -6q-51 0 -84.5 36t-33.5 91q0 56 39 95.5t94 39.5q64 0 108.5 -49.5
t44.5 -132.5z" />
    <glyph glyph-name="less" unicode="&#x3c;" horiz-adv-x="905" 
d="M846 254l-787 358v146l787 360v-157l-629 -277l629 -272v-158z" />
    <glyph glyph-name="equal" unicode="=" horiz-adv-x="905" 
d="M846 813h-787v133h787v-133zM846 422h-787v133h787v-133z" />
    <glyph glyph-name="greater" unicode="&#x3e;" horiz-adv-x="905" 
d="M846 612l-787 -358v158l629 272l-629 277v157l787 -360v-146z" />
    <glyph glyph-name="question" unicode="?" horiz-adv-x="796" 
d="M322 397q-62 71 -62 176q0 49 14.5 92t38 74.5t51.5 60.5t56 55.5t51.5 53.5t38 60.5t14.5 70.5q0 61 -43 104.5t-119 43.5q-118 0 -202 -105l-115 146q66 77 157.5 118.5t196.5 41.5q160 0 257.5 -87.5t97.5 -220.5q0 -66 -22 -123t-55.5 -95.5t-72 -77.5t-72 -70
t-55.5 -72.5t-22 -85.5q0 -57 39 -96zM397 -23q-56 0 -96.5 41.5t-40.5 98.5q0 55 41 96t96 41q57 0 97.5 -40.5t40.5 -96.5q0 -57 -40.5 -98.5t-97.5 -41.5z" />
    <glyph glyph-name="at" unicode="@" horiz-adv-x="1437" 
d="M635 -143q-251 0 -407 171.5t-156 442.5q0 162 62 316t164 268.5t241.5 184t287.5 69.5q238 0 387.5 -159.5t149.5 -408.5q0 -125 -31 -233t-81.5 -180t-113.5 -113t-128 -41q-77 0 -125 42.5t-56 107.5l-2 14q-50 -73 -118 -118.5t-148 -45.5q-112 0 -183 77.5
t-71 221.5q0 138 57 264.5t156.5 205.5t214.5 79q74 0 126 -39.5t77 -103.5l23 110h182l-113 -530q-4 -20 -4 -49q0 -95 72 -95q27 0 58 27t60 76.5t48.5 134t19.5 186.5q0 226 -126.5 360t-336.5 134q-133 0 -258 -64.5t-215 -170t-144 -244t-54 -281.5q0 -156 60 -279.5
t172.5 -194.5t260.5 -71q172 0 336 115l39 -57q-184 -129 -383 -129zM635 322q119 0 215 149l59 281q-14 49 -49.5 85.5t-91.5 36.5q-78 0 -141.5 -60.5t-96 -147t-32.5 -172.5q0 -79 35.5 -125.5t101.5 -46.5z" />
    <glyph glyph-name="A" unicode="A" horiz-adv-x="1097" 
d="M1092 0h-246l-74 270h-448l-74 -270h-246l408 1366h272zM727 471l-178 653l-178 -653h356z" />
    <glyph glyph-name="B" unicode="B" horiz-adv-x="1105" 
d="M664 0h-533v1366h516q167 0 259.5 -98t92.5 -250q0 -124 -60 -205.5t-155 -107.5q101 -15 169.5 -112.5t68.5 -223.5q0 -166 -92 -267.5t-266 -101.5zM598 797q84 0 126 49.5t42 134.5q0 84 -42.5 135t-125.5 51h-240v-370h240zM606 201q90 0 136 51.5t46 146.5
q0 86 -47 141.5t-135 55.5h-248v-395h248z" />
    <glyph glyph-name="C" unicode="C" horiz-adv-x="1120" 
d="M637 -25q-126 0 -231 53t-176 146.5t-110.5 224t-39.5 283.5q0 205 67.5 365t194.5 251t295 91q289 0 432 -302l-188 -83q-37 85 -99.5 134.5t-144.5 49.5q-149 0 -237.5 -141.5t-88.5 -364.5q0 -145 39 -259t113.5 -179.5t173.5 -65.5q86 0 149 55t97 146l188 -84
q-140 -320 -434 -320z" />
    <glyph glyph-name="D" unicode="D" horiz-adv-x="1193" 
d="M539 0h-408v1366h408q180 0 311 -88.5t197.5 -242t66.5 -353.5t-66 -353t-197 -241t-312 -88zM539 201q163 0 252.5 132t89.5 349q0 222 -88 353.5t-254 131.5h-181v-966h181z" />
    <glyph glyph-name="E" unicode="E" horiz-adv-x="966" 
d="M879 0h-748v1366h748v-199h-521v-370h506v-201h-506v-395h521v-201z" />
    <glyph glyph-name="F" unicode="F" horiz-adv-x="950" 
d="M358 0h-227v1366h748v-199h-521v-370h506v-201h-506v-596z" />
    <glyph glyph-name="G" unicode="G" horiz-adv-x="1179" 
d="M637 -27q-251 0 -404 195.5t-153 513.5t152.5 512.5t404.5 194.5q292 0 434 -291l-184 -86q-39 80 -102 128t-148 48q-147 0 -236.5 -137t-89.5 -369q0 -231 89.5 -368.5t236.5 -137.5q70 0 130 28t97 70v254h-286v199h501v-543q-178 -211 -442 -211z" />
    <glyph glyph-name="H" unicode="H" horiz-adv-x="1214" 
d="M1085 0h-227v602h-500v-602h-227v1366h227v-563h500v563h227v-1366z" />
    <glyph glyph-name="I" unicode="I" horiz-adv-x="489" 
d="M358 0h-227v1366h227v-1366z" />
    <glyph glyph-name="J" unicode="J" horiz-adv-x="837" 
d="M307 -25q-178 0 -291 113l88 178q78 -88 183 -88q91 0 142.5 53.5t51.5 151.5v983h228v-989q0 -199 -109.5 -300.5t-292.5 -101.5z" />
    <glyph glyph-name="K" unicode="K" horiz-adv-x="1095" 
d="M1081 0h-268l-352 563l-103 -155v-408h-227v1366h227v-657l424 657h267l-447 -645z" />
    <glyph glyph-name="L" unicode="L" horiz-adv-x="888" 
d="M831 0h-700v1366h227v-1165h473v-201z" />
    <glyph glyph-name="M" unicode="M" horiz-adv-x="1460" 
d="M1331 0h-225v942l-332 -942h-88l-328 942v-942h-227v1366h307l293 -831l295 831h305v-1366z" />
    <glyph glyph-name="N" unicode="N" horiz-adv-x="1212" 
d="M1081 0h-217l-506 883v-883h-227v1366h229l494 -858v858h227v-1366z" />
    <glyph glyph-name="O" unicode="O" horiz-adv-x="1253" 
d="M627 -25q-169 0 -294.5 93.5t-189 252.5t-63.5 361t63.5 361t189 252.5t294.5 93.5t294.5 -93.5t189 -252.5t63.5 -361t-63.5 -361t-189 -252.5t-294.5 -93.5zM627 178q99 0 171 67.5t108 180.5t36 256q0 222 -83.5 364t-231.5 142q-149 0 -232.5 -141.5t-83.5 -364.5
q0 -143 35.5 -256t108 -180.5t172.5 -67.5z" />
    <glyph glyph-name="P" unicode="P" horiz-adv-x="1050" 
d="M358 0h-227v1366h465q98 0 176 -34t126.5 -93t74.5 -135t26 -162q0 -87 -26 -163.5t-74.5 -135.5t-126.5 -93t-176 -34h-238v-516zM569 717q90 0 144.5 61.5t54.5 163.5t-54.5 163.5t-144.5 61.5h-211v-450h211z" />
    <glyph glyph-name="Q" unicode="Q" horiz-adv-x="1253" 
d="M627 -25q-169 0 -294.5 93.5t-189 252.5t-63.5 361t63.5 361t189 252.5t294.5 93.5t294.5 -93.5t189 -252.5t63.5 -361q0 -174 -48.5 -317.5t-140.5 -239.5l64 -98l-158 -101l-57 90q-93 -41 -207 -41zM627 178q48 0 94 19l-148 235l158 98l129 -206q82 139 82 358
q0 222 -83.5 364t-231.5 142q-149 0 -232.5 -141.5t-83.5 -364.5q0 -143 35.5 -256t108 -180.5t172.5 -67.5z" />
    <glyph glyph-name="R" unicode="R" horiz-adv-x="1091" 
d="M1012 0h-254l-232 516h-168v-516h-227v1366h471q177 0 287 -116.5t110 -305.5q0 -86 -22 -156.5t-59 -116.5t-79.5 -74.5t-90.5 -41.5zM569 717q90 0 144.5 61.5t54.5 163.5t-54.5 163.5t-144.5 61.5h-211v-450h211z" />
    <glyph glyph-name="S" unicode="S" horiz-adv-x="995" 
d="M485 -25q-275 0 -440 175l115 176q59 -67 143.5 -107.5t181.5 -40.5q101 0 157 52t56 128q0 57 -34 100t-87.5 72.5t-119 57.5t-131 62.5t-119 78.5t-87.5 115.5t-34 163.5q0 163 117 272t307 109q239 0 393 -148l-110 -172q-117 117 -289 117q-84 0 -135.5 -45.5
t-51.5 -120.5q0 -49 34 -88t88 -66.5t119 -55.5t130.5 -64.5t119.5 -82.5t88 -119.5t34 -166.5q0 -175 -116.5 -288.5t-328.5 -113.5z" />
    <glyph glyph-name="T" unicode="T" horiz-adv-x="946" 
d="M586 0h-226v1167h-313v199h852v-199h-313v-1167z" />
    <glyph glyph-name="U" unicode="U" horiz-adv-x="1212" 
d="M606 -25q-223 0 -349 127t-126 357v907h227v-909q0 -136 64.5 -208.5t183.5 -72.5t183.5 72.5t64.5 208.5v909h227v-907q0 -230 -126 -357t-349 -127z" />
    <glyph glyph-name="V" unicode="V" horiz-adv-x="1097" 
d="M684 0h-272l-408 1366h246l299 -1098l297 1098h246z" />
    <glyph glyph-name="W" unicode="W" horiz-adv-x="1525" 
d="M1196 0h-238l-196 981l-195 -981h-237l-310 1366h244l197 -1020l211 1020h182l213 -1020l195 1020h243z" />
    <glyph glyph-name="X" unicode="X" horiz-adv-x="1095" 
d="M1092 0h-263l-282 520l-281 -520h-262l404 698l-379 668h260l258 -492l258 492h262l-379 -666z" />
    <glyph glyph-name="Y" unicode="Y" horiz-adv-x="1067" 
d="M647 0h-225v569l-424 797h252l285 -584l284 584h250l-422 -797v-569z" />
    <glyph glyph-name="Z" unicode="Z" horiz-adv-x="972" 
d="M895 0h-817v188l528 979h-528v199h803v-184l-531 -981h545v-201z" />
    <glyph glyph-name="bracketleft" unicode="[" horiz-adv-x="471" 
d="M434 -389h-352v1778h352v-142h-203v-1495h203v-141z" />
    <glyph glyph-name="backslash" unicode="\" horiz-adv-x="544" 
d="M395 -41l-393 1448h150l393 -1448h-150z" />
    <glyph glyph-name="bracketright" unicode="]" horiz-adv-x="471" 
d="M389 -389h-354v141h203v1495h-203v142h354v-1778z" />
    <glyph glyph-name="asciicircum" unicode="^" horiz-adv-x="790" 
d="M752 682h-154l-203 530l-202 -530h-154l280 684h152z" />
    <glyph glyph-name="underscore" unicode="_" horiz-adv-x="864" 
d="M870 -223h-876v141h876v-141z" />
    <glyph glyph-name="grave" unicode="`" horiz-adv-x="413" 
d="M414 1139h-140l-274 295h190z" />
    <glyph glyph-name="a" unicode="a" 
d="M836 0h-203v100q-43 -60 -113 -92.5t-147 -32.5q-126 0 -214.5 89t-88.5 241t87.5 237t215.5 85q78 0 148.5 -30.5t111.5 -88.5v143q0 90 -50.5 139.5t-142.5 49.5q-135 0 -245 -113l-80 143q72 72 167 108t195 36q165 0 262 -82.5t97 -255.5v-676zM446 117q56 0 107 29
t80 79v150q-29 52 -79.5 81t-107.5 29q-78 0 -125 -51.5t-47 -132.5t47 -132.5t125 -51.5z" />
    <glyph glyph-name="b" unicode="b" horiz-adv-x="1011" 
d="M326 291q27 -57 81 -96t111 -39q102 0 156.5 94.5t54.5 243.5q0 151 -54.5 245.5t-156.5 94.5q-57 0 -111 -40.5t-81 -97.5v-405zM326 0h-205v1366h205v-510q43 77 110.5 117.5t143.5 40.5q165 0 262.5 -142t97.5 -378q0 -238 -97 -378.5t-263 -140.5q-75 0 -142.5 41.5
t-111.5 114.5v-131z" />
    <glyph glyph-name="c" unicode="c" horiz-adv-x="849" 
d="M506 -25q-195 0 -314.5 147t-119.5 374t119 372.5t315 145.5q195 0 301 -133l-105 -140q-72 93 -176 93q-113 0 -178 -96t-65 -242q0 -147 65 -243.5t178 -96.5q102 0 176 92l105 -139q-107 -134 -301 -134z" />
    <glyph glyph-name="d" unicode="d" horiz-adv-x="1011" 
d="M891 0h-205v131q-44 -73 -112 -114.5t-142 -41.5q-166 0 -263 140.5t-97 378.5q0 236 97 378t263 142q75 0 143 -40.5t111 -117.5v510h205v-1366zM494 156q57 0 111 39t81 96v407q-27 57 -81 96.5t-111 39.5q-102 0 -156.5 -94.5t-54.5 -245.5q0 -148 54.5 -243
t156.5 -95z" />
    <glyph glyph-name="e" unicode="e" horiz-adv-x="970" 
d="M516 -25q-202 0 -323 144.5t-121 376.5q0 144 50 261t148 187t226 70q130 0 224.5 -70t140.5 -187.5t46 -269.5v-59h-628q6 -126 74 -205.5t184 -79.5q60 0 120.5 28.5t102.5 78.5l98 -123q-63 -72 -152.5 -112t-189.5 -40zM709 573q-1 39 -8 76t-23.5 73.5t-40 64
t-60.5 44.5t-83 17q-55 0 -97.5 -25.5t-67.5 -68t-38 -88t-15 -93.5h433z" />
    <glyph glyph-name="f" unicode="f" horiz-adv-x="561" 
d="M367 0h-205v811h-129v178h129v92q0 144 74 224.5t204 80.5q127 0 199 -69l-70 -143q-40 40 -92 40q-54 0 -82 -34t-28 -99v-92h163v-178h-163v-811z" />
    <glyph glyph-name="g" unicode="g" horiz-adv-x="1009" 
d="M463 -401q-109 0 -194 29t-156 96l84 157q101 -110 256 -110q101 0 167 60t66 187v142q-44 -75 -112.5 -118.5t-141.5 -43.5q-166 0 -263 135.5t-97 372.5q0 235 96.5 371.5t263.5 136.5q75 0 142.5 -40.5t111.5 -117.5v133h203v-954q0 -99 -24 -176t-64 -125.5
t-96.5 -79.5t-115 -43t-126.5 -12zM494 180q57 0 111 39t81 96v383q-27 57 -81 96.5t-111 39.5q-102 0 -156.5 -90t-54.5 -238q0 -147 54.5 -236.5t156.5 -89.5z" />
    <glyph glyph-name="h" unicode="h" horiz-adv-x="993" 
d="M872 0h-202v678q0 156 -144 156q-61 0 -114.5 -40t-85.5 -98v-696h-205v1366h205v-510q43 65 122 111.5t166 46.5q258 0 258 -266v-748z" />
    <glyph glyph-name="i" unicode="i" horiz-adv-x="446" 
d="M223 1114q-53 0 -91 37.5t-38 89.5q0 54 38 91.5t91 37.5t90 -37.5t37 -91.5q0 -53 -37 -90t-90 -37zM326 0h-205v989h205v-989z" />
    <glyph glyph-name="j" unicode="j" horiz-adv-x="446" 
d="M223 1114q-53 0 -91 37.5t-38 89.5q0 54 38 91.5t91 37.5t90 -37.5t37 -91.5q0 -53 -37 -90t-90 -37zM39 -401q-61 0 -101.5 15t-76.5 48l57 154q42 -45 96 -45q107 0 107 145v1073h205v-1073q0 -317 -287 -317z" />
    <glyph glyph-name="k" unicode="k" horiz-adv-x="933" 
d="M918 0h-240l-234 414l-118 -160v-254h-205v1366h205v-862l348 485h237l-327 -444z" />
    <glyph glyph-name="l" unicode="l" horiz-adv-x="446" 
d="M326 0h-205v1366h205v-1366z" />
    <glyph glyph-name="m" unicode="m" horiz-adv-x="1478" 
d="M1358 0h-205v688q0 146 -123 146q-57 0 -108.5 -41.5t-79.5 -96.5v-696h-205v688q0 146 -123 146q-57 0 -107.5 -41t-80.5 -97v-696h-205v989h205v-133q33 59 110.5 108.5t163.5 49.5q94 0 154 -45.5t77 -128.5q38 70 117.5 122t167.5 52q116 0 179 -64t63 -196v-754z
" />
    <glyph glyph-name="n" unicode="n" horiz-adv-x="993" 
d="M872 0h-204v674q0 160 -142 160q-62 0 -116 -40.5t-84 -97.5v-696h-205v989h205v-133q43 65 121 111.5t165 46.5q131 0 195.5 -69.5t64.5 -199.5v-745z" />
    <glyph glyph-name="o" unicode="o" horiz-adv-x="999" 
d="M500 -25q-102 0 -185 42t-135 114t-80 165.5t-28 199.5t28 199t80.5 164.5t135 113t184.5 41.5t184.5 -41.5t135 -113t80.5 -164.5t28 -199t-28 -199.5t-80 -165.5t-135 -114t-185 -42zM500 156q106 0 161.5 98t55.5 242t-55.5 241t-161.5 97t-161.5 -97t-55.5 -241
t55.5 -242t161.5 -98z" />
    <glyph glyph-name="p" unicode="p" horiz-adv-x="1007" 
d="M580 -25q-76 0 -143.5 40.5t-110.5 117.5v-510h-205v1366h205v-131q42 73 110.5 114.5t143.5 41.5q167 0 263.5 -139t96.5 -379q0 -238 -97 -379.5t-263 -141.5zM518 156q102 0 156.5 95.5t54.5 244.5t-54.5 243.5t-156.5 94.5q-58 0 -111.5 -39t-80.5 -97v-405
q27 -57 81 -97t111 -40z" />
    <glyph glyph-name="q" unicode="q" horiz-adv-x="1007" 
d="M492 156q57 0 111 40t81 97v405q-27 58 -80.5 97t-111.5 39q-102 0 -156.5 -94.5t-54.5 -243.5t54.5 -244.5t156.5 -95.5zM430 -25q-166 0 -263 141.5t-97 379.5q0 240 96.5 379t263.5 139q74 0 142 -41.5t112 -114.5v131h203v-1366h-203v510q-44 -77 -111.5 -117.5
t-142.5 -40.5z" />
    <glyph glyph-name="r" unicode="r" horiz-adv-x="630" 
d="M326 0h-205v989h205v-145q44 74 117.5 121t154.5 47v-203q-24 6 -53 6q-62 0 -125 -40t-94 -97v-678z" />
    <glyph glyph-name="s" unicode="s" horiz-adv-x="821" 
d="M406 -25q-230 0 -363 142l92 143q47 -52 120 -87.5t146 -35.5q76 0 120 35t44 94q0 34 -21 60t-55.5 42.5t-78.5 34.5t-89.5 33.5t-89.5 41t-78.5 57t-55.5 82t-21 114.5q0 120 91.5 201.5t248.5 81.5q195 0 325 -127l-86 -139q-38 46 -101 75t-134 29q-68 0 -110 -32.5
t-42 -82.5q0 -35 27 -61t70.5 -44t96 -36t105 -43.5t96 -59.5t70.5 -91t27 -132q0 -129 -97 -212t-257 -83z" />
    <glyph glyph-name="t" unicode="t" horiz-adv-x="579" 
d="M387 -25q-229 0 -229 246v590h-129v178h129v271h204v-271h164v-178h-164v-547q0 -108 76 -108q53 0 78 32l49 -153q-60 -60 -178 -60z" />
    <glyph glyph-name="u" unicode="u" horiz-adv-x="993" 
d="M872 0h-204v131q-45 -66 -122 -111t-167 -45q-258 0 -258 267v747h205v-676q0 -83 36 -120t105 -37q61 0 115 39t86 96v698h204v-989z" />
    <glyph glyph-name="v" unicode="v" horiz-adv-x="880" 
d="M551 0h-221l-326 989h217l219 -745l222 745h217z" />
    <glyph glyph-name="w" unicode="w" horiz-adv-x="1366" 
d="M1087 0h-213l-190 727l-192 -727h-213l-265 989h211l172 -721l189 721h188l193 -721l174 721h211z" />
    <glyph glyph-name="x" unicode="x" horiz-adv-x="868" 
d="M856 0h-223l-199 360l-198 -360h-224l295 504l-278 485h223l182 -340l182 340h224l-279 -485z" />
    <glyph glyph-name="y" unicode="y" horiz-adv-x="880" 
d="M86 -387l31 180q25 -14 65 -14q42 0 69 18.5t44 63.5l41 119l-332 1009h217l219 -743l222 743h217l-392 -1175q-39 -119 -109.5 -167t-180.5 -48q-64 0 -111 14z" />
    <glyph glyph-name="z" unicode="z" horiz-adv-x="817" 
d="M737 0h-659v156l395 655h-395v178h651v-149l-395 -662h403v-178z" />
    <glyph glyph-name="braceleft" unicode="{" horiz-adv-x="499" 
d="M465 -389h-92q-103 0 -179.5 74t-76.5 192v422q0 60 -27.5 99.5t-79.5 39.5v123q52 0 79.5 39.5t27.5 99.5v420q0 119 76.5 194t179.5 75h92v-142h-92q-44 0 -74.5 -35.5t-30.5 -91.5v-438q0 -142 -94 -182q94 -40 94 -183v-440q0 -55 31 -91t74 -36h92v-139z" />
    <glyph glyph-name="bar" unicode="|" horiz-adv-x="403" 
d="M272 -41h-141v1448h141v-1448z" />
    <glyph glyph-name="braceright" unicode="}" horiz-adv-x="499" 
d="M35 -389v139h92q44 0 75 36t31 91v440q0 143 93 183q-93 40 -93 182v438q0 56 -31 91.5t-75 35.5h-92v142h92q104 0 181 -75t77 -194v-420q0 -60 27.5 -99.5t79.5 -39.5v-123q-52 0 -79.5 -39.5t-27.5 -99.5v-422q0 -118 -77 -192t-181 -74h-92z" />
    <glyph glyph-name="asciitilde" unicode="~" horiz-adv-x="935" 
d="M737 1366l144 -14q-4 -63 -10 -115t-18 -112t-31.5 -105t-47 -84t-68.5 -59.5t-92 -20.5q-55 0 -95 28t-59.5 70t-35.5 90.5t-26 90.5t-29.5 70t-46.5 28q-55 0 -80.5 -91t-42.5 -288l-144 16q6 77 14 138t27.5 131t46.5 116.5t73 77.5t106 31q65 0 108.5 -39t63.5 -94
t34 -110.5t34 -94.5t52 -39q55 0 81.5 92t41.5 287z" />
    <glyph glyph-name="nbspace" unicode="&#xa0;" horiz-adv-x="434" 
 />
    <glyph glyph-name="exclamdown" unicode="&#xa1;" horiz-adv-x="495" 
d="M125 -377l37 955h174l39 -955h-250zM111 874q0 55 40.5 95.5t96.5 40.5q57 0 98 -40t41 -96q0 -57 -41 -97t-98 -40q-56 0 -96.5 40t-40.5 97z" />
    <glyph glyph-name="cent" unicode="&#xa2;" horiz-adv-x="849" 
d="M432 -205v187q-110 18 -192 89t-125 180.5t-43 244.5q0 204 97 344t263 168v149h152v-149q135 -21 223 -127l-105 -140q-52 66 -118 84v-663q64 17 118 86l105 -139q-88 -106 -223 -127v-187h-152zM283 496q0 -112 39 -198t110 -122v635q-71 -35 -110 -119.5t-39 -195.5z
" />
    <glyph glyph-name="sterling" unicode="&#xa3;" horiz-adv-x="964" 
d="M53 555v137h142q-48 73 -73.5 138t-25.5 149q0 172 125 289.5t295 117.5q139 0 239 -62.5t142 -182.5l-180 -94q-23 70 -69.5 111.5t-112.5 41.5q-81 0 -138 -61.5t-57 -163.5q0 -37 5 -69t19 -65t21.5 -48.5t30.5 -54t28 -46.5h228v-137h-176q6 -35 6 -70
q0 -74 -37.5 -146t-95.5 -114q44 17 90 17q57 0 127 -33t114 -33q52 0 94.5 21.5t65.5 50.5l80 -178q-36 -42 -103 -69.5t-151 -27.5q-54 0 -100.5 14t-74 31t-65 31t-75.5 14q-85 0 -203 -77l-76 159q95 52 151 128.5t56 158.5q0 52 -27 123h-219z" />
    <glyph glyph-name="currency" unicode="&#xa4;" horiz-adv-x="1056" 
d="M528 190q-137 0 -235 70l-143 -143l-123 121l149 147q-76 125 -76 297q0 174 76 299l-149 149l123 123l145 -147q100 65 233 65q135 0 232 -65l147 147l123 -123l-149 -151q75 -129 75 -297q0 -172 -77 -299l151 -147l-123 -123l-145 145q-100 -68 -234 -68zM528 373
q110 0 169 89.5t59 219.5t-59 218.5t-169 88.5q-108 0 -166.5 -88.5t-58.5 -218.5t58.5 -219.5t166.5 -89.5z" />
    <glyph glyph-name="yen" unicode="&#xa5;" horiz-adv-x="1067" 
d="M647 0h-225v244h-375v133h375v192h-375v133h303l-352 664h252l285 -584l284 584h250l-352 -664h303v-133h-373v-192h373v-133h-373v-244z" />
    <glyph glyph-name="brokenbar" unicode="&#xa6;" horiz-adv-x="403" 
d="M272 -41h-141v647h141v-647zM272 760h-141v647h141v-647z" />
    <glyph glyph-name="section" unicode="&#xa7;" horiz-adv-x="827" 
d="M760 645q0 -80 -41 -147t-121 -107q81 -46 121.5 -108.5t40.5 -151.5q0 -132 -99 -214.5t-255 -82.5q-221 0 -361 143l90 134q45 -51 114.5 -90t147.5 -39q76 0 122 39t46 100q0 43 -27 75t-70 53t-95 40.5t-104.5 44t-95.5 57t-70 86t-27 123.5q0 89 54 154.5t136 91.5
q-98 49 -144 114.5t-46 153.5q0 119 93 195.5t239 76.5q209 0 331 -129l-84 -122q-95 106 -233 106q-69 0 -111.5 -34.5t-42.5 -90.5q0 -39 27 -68.5t70.5 -49t96 -38.5t105 -44t96 -57.5t70.5 -87t27 -126.5zM569 606q0 69 -41 110t-108 68q-156 -37 -156 -153
q0 -63 46 -102t143 -80q116 54 116 157z" />
    <glyph glyph-name="dieresis" unicode="&#xa8;" horiz-adv-x="571" 
d="M588 1243q0 -47 -35 -81t-82 -34t-81 34t-34 81t34 81t81 34t82 -34t35 -81zM215 1243q0 -47 -34 -81t-81 -34t-81.5 34t-34.5 81t34.5 81t81.5 34t81 -34t34 -81z" />
    <glyph glyph-name="copyright" unicode="&#xa9;" horiz-adv-x="1593" 
d="M1503 684q0 -143 -56 -274t-150 -226t-225 -151t-275 -56q-191 0 -354 95t-258 258t-95 354q0 192 95 355t258 257.5t354 94.5q144 0 275 -56t225 -150.5t150 -225.5t56 -275zM1436 684q0 129 -51 247t-137 204t-204 137t-247 51t-247 -51t-203.5 -137t-136 -204
t-50.5 -247t50.5 -247t136 -203.5t203.5 -136t247 -50.5t247 50.5t204 136t137 203.5t51 247zM1049 442l59 -55q-118 -137 -303 -137q-178 0 -302 125.5t-124 310.5q0 187 123.5 310.5t302.5 123.5q185 0 301 -135l-57 -57q-40 54 -106 86.5t-138 32.5q-140 0 -241 -102
t-101 -259q0 -154 101.5 -258t240.5 -104q73 0 138.5 32t105.5 86z" />
    <glyph glyph-name="ordfeminine" unicode="&#xaa;" horiz-adv-x="690" 
d="M592 668h-150v67q-63 -84 -178 -84q-84 0 -144.5 57.5t-60.5 155.5t60 153.5t145 55.5q117 0 178 -78v92q0 59 -34.5 91t-94.5 32q-92 0 -166 -80l-59 99q101 98 252 98q116 0 184 -57t68 -180v-422zM319 750q83 0 123 67v96q-39 68 -123 68q-49 0 -79.5 -32t-30.5 -83
q0 -52 30 -84t80 -32z" />
    <glyph glyph-name="guillemotleft" unicode="&#xab;" horiz-adv-x="868" 
d="M807 129h-178l-256 369l256 362h178l-256 -362zM496 129h-179l-256 369l256 362h179l-256 -362z" />
    <glyph glyph-name="logicalnot" unicode="&#xac;" horiz-adv-x="913" 
d="M846 946v-524h-139v391h-648v133h787z" />
    <glyph glyph-name="uni00AD" unicode="&#xad;" horiz-adv-x="550" 
d="M489 408h-428v176h428v-176z" />
    <glyph glyph-name="registered" unicode="&#xae;" horiz-adv-x="1011" 
d="M940 952q0 -180 -126.5 -307t-307.5 -127q-180 0 -307 127t-127 307q0 181 127 307.5t307 126.5q119 0 219 -57.5t157.5 -157.5t57.5 -219zM879 952q0 156 -108.5 264.5t-264.5 108.5t-264.5 -108.5t-108.5 -264.5q0 -154 109 -263t264 -109t264 109t109 263zM709 702
h-84l-129 197h-88v-197h-68v498h203q65 0 112 -42t47 -109q0 -72 -46 -110t-81 -38zM633 1049q0 39 -28 65.5t-62 26.5h-135v-180h135q34 0 62 25.5t28 62.5z" />
    <glyph glyph-name="macron" unicode="&#xaf;" horiz-adv-x="632" 
d="M633 1161h-633v123h633v-123z" />
    <glyph glyph-name="degree" unicode="&#xb0;" horiz-adv-x="614" 
d="M569 1124q0 -109 -77.5 -185.5t-186.5 -76.5q-107 0 -183.5 76.5t-76.5 185.5q0 107 76.5 184.5t183.5 77.5q109 0 186.5 -77.5t77.5 -184.5zM451 1124q0 59 -43 101.5t-103 42.5q-58 0 -99.5 -42.5t-41.5 -101.5q0 -60 41 -101.5t100 -41.5q60 0 103 41.5t43 101.5z" />
    <glyph glyph-name="plusminus" unicode="&#xb1;" horiz-adv-x="905" 
d="M846 647h-322v-366h-143v366h-322v131h322v352h143v-352h322v-131zM846 35h-787v133h787v-133z" />
    <glyph glyph-name="twosuperior" unicode="&#xb2;" horiz-adv-x="690" 
d="M629 862h-549v117q100 92 158.5 147t108.5 107t73 86.5t35 65.5t12 63q0 55 -36.5 87t-92.5 32q-57 0 -106 -28.5t-78 -74.5l-91 97q103 133 281 133q124 0 201.5 -63t77.5 -175q0 -94 -72.5 -191.5t-257.5 -275.5h336v-127z" />
    <glyph glyph-name="threesuperior" unicode="&#xb3;" horiz-adv-x="690" 
d="M631 1087q0 -107 -78.5 -173t-210.5 -66q-97 0 -172 36.5t-115 96.5l90 96q36 -48 86 -75t105 -27q68 0 103.5 33t35.5 90q0 121 -156 121q-61 0 -73 -2v126q14 -2 69 -2q148 0 148 113q0 55 -36 84t-97 29q-105 0 -178 -92l-89 90q101 129 279 129q126 0 201 -58.5
t75 -162.5q0 -71 -47 -123.5t-112 -63.5q66 -8 119 -62.5t53 -136.5z" />
    <glyph glyph-name="acute" unicode="&#xb4;" horiz-adv-x="413" 
d="M414 1434l-275 -295h-139l225 295h189z" />
    <glyph glyph-name="mu" unicode="&#xb5;" horiz-adv-x="1017" 
d="M326 29v-406h-205v1366h205v-676q0 -159 143 -159q62 0 114.5 39.5t84.5 97.5v698h204v-737q0 -96 72 -96q15 0 35 4l14 -172q-37 -13 -96 -13q-97 0 -150 44t-71 133q-37 -78 -97.5 -127.5t-129.5 -49.5q-89 0 -123 54z" />
    <glyph glyph-name="paragraph" unicode="&#xb6;" horiz-adv-x="919" 
d="M799 -205h-111v1462h-172v-1462h-108v867q-146 0 -249.5 103t-103.5 249t103.5 249t249.5 103h391v-1571z" />
    <glyph glyph-name="periodcentered" unicode="&#xb7;" horiz-adv-x="495" 
d="M385 502q0 -56 -40 -96.5t-97 -40.5t-97 40.5t-40 96.5t40 96.5t97 40.5t97 -40.5t40 -96.5z" />
    <glyph glyph-name="cedilla" unicode="&#xb8;" horiz-adv-x="399" 
d="M193 -397q-57 0 -108.5 18t-84.5 45l43 90q69 -57 145 -57q42 0 72.5 20.5t30.5 55.5q0 28 -16.5 44.5t-45.5 16.5q-36 0 -61 -29l-80 46l64 170h108l-53 -134q30 23 65 23q55 0 91 -39t36 -100q0 -75 -59 -122.5t-147 -47.5z" />
    <glyph glyph-name="onesuperior" unicode="&#xb9;" horiz-adv-x="507" 
d="M397 862h-157v617l-127 -131l-90 94l239 239h135v-819z" />
    <glyph glyph-name="ordmasculine" unicode="&#xba;" horiz-adv-x="722" 
d="M360 651q-137 0 -217 98t-80 240q0 143 80 240.5t217 97.5q140 0 219.5 -97t79.5 -241q0 -143 -79.5 -240.5t-219.5 -97.5zM360 774q71 0 107.5 59.5t36.5 155.5q0 95 -36.5 154t-107.5 59q-69 0 -105 -59t-36 -154q0 -96 36 -155.5t105 -59.5z" />
    <glyph glyph-name="guillemotright" unicode="&#xbb;" horiz-adv-x="868" 
d="M496 498l-256 -369h-179l256 369l-256 362h179zM807 498l-256 -369h-178l256 369l-256 362h178z" />
    <glyph glyph-name="onequarter" unicode="&#xbc;" horiz-adv-x="1458" 
d="M397 547h-157v616l-127 -131l-90 94l239 240h135v-819zM1413 193h-92v-193h-156v193h-350v116l301 510h205v-502h92v-124zM1165 317v349l-204 -349h204zM1114 1366l-721 -1366h-117l721 1366h117z" />
    <glyph glyph-name="onehalf" unicode="&#xbd;" horiz-adv-x="1527" 
d="M397 547h-157v616l-127 -131l-90 94l239 240h135v-819zM1466 0h-548v117q100 92 158.5 147t108.5 107t73 86.5t35 65.5t12 63q0 55 -36.5 87t-92.5 32q-57 0 -106.5 -28.5t-78.5 -74.5l-90 96q103 133 281 133q124 0 201 -62.5t77 -174.5q0 -94 -72.5 -191.5
t-257.5 -275.5h336v-127zM1114 1366l-721 -1366h-117l721 1366h117z" />
    <glyph glyph-name="threequarters" unicode="&#xbe;" horiz-adv-x="1593" 
d="M1550 193h-92v-193h-155v193h-351v116l301 510h205v-502h92v-124zM1303 317v349l-205 -349h205zM1249 1366l-721 -1366h-116l721 1366h116zM631 772q0 -107 -78.5 -173.5t-210.5 -66.5q-97 0 -172 37t-115 97l90 96q36 -48 86 -75.5t105 -27.5q68 0 103.5 33t35.5 90
q0 121 -156 121q-61 0 -73 -2v127q14 -2 69 -2q148 0 148 113q0 55 -36 83.5t-97 28.5q-105 0 -178 -92l-89 90q101 129 279 129q126 0 201 -58.5t75 -162.5q0 -71 -47 -123t-112 -63q66 -8 119 -62.5t53 -136.5z" />
    <glyph glyph-name="questiondown" unicode="&#xbf;" horiz-adv-x="692" 
d="M475 588q64 -70 64 -174q0 -57 -20 -106t-49.5 -82t-64 -67.5t-64 -63t-49.5 -68t-20 -82.5q0 -61 43 -104.5t119 -43.5q121 0 205 105l113 -146q-66 -76 -157 -116.5t-196 -40.5q-161 0 -257.5 86t-96.5 219q0 78 31 143t74.5 110t87.5 85.5t75 88t31 99.5q0 55 -41 96z
M399 1010q57 0 98.5 -40.5t41.5 -97.5q0 -55 -41.5 -95t-98.5 -40q-56 0 -96.5 40t-40.5 95q0 57 40.5 97.5t96.5 40.5z" />
    <glyph glyph-name="Agrave" unicode="&#xc0;" horiz-adv-x="1097" 
d="M1092 0h-246l-74 270h-448l-74 -270h-246l408 1366h272zM727 471l-178 653l-178 -653h356zM653 1481h-139l-274 295h190z" />
    <glyph glyph-name="Aacute" unicode="&#xc1;" horiz-adv-x="1097" 
d="M1092 0h-246l-74 270h-448l-74 -270h-246l408 1366h272zM727 471l-178 653l-178 -653h356zM858 1776l-274 -295h-140l226 295h188z" />
    <glyph glyph-name="Acircumflex" unicode="&#xc2;" horiz-adv-x="1097" 
d="M807 1481h-123l-137 198l-131 -198h-123l162 295h186zM1092 0h-246l-74 270h-448l-74 -270h-246l408 1366h272zM727 471l-178 653l-178 -653h356z" />
    <glyph glyph-name="Atilde" unicode="&#xc3;" horiz-adv-x="1097" 
d="M1092 0h-246l-74 270h-448l-74 -270h-246l408 1366h272zM727 471l-178 653l-178 -653h356zM651 1477q-43 0 -76.5 26t-50.5 56.5t-39 56.5t-45 26q-30 0 -49.5 -39t-19.5 -114h-111q0 125 49.5 199.5t139.5 74.5q42 0 75 -25.5t50 -56.5t39.5 -56.5t45.5 -25.5
q30 0 49 38.5t19 113.5h111q0 -125 -48.5 -199.5t-138.5 -74.5z" />
    <glyph glyph-name="Adieresis" unicode="&#xc4;" horiz-adv-x="1097" 
d="M852 1585q0 -47 -35 -81t-82 -34t-80.5 34t-33.5 81t33.5 81t80.5 34t82 -34t35 -81zM479 1585q0 -47 -33.5 -81t-80.5 -34t-82 34t-35 81t35 81t82 34t80.5 -34t33.5 -81zM1092 0h-246l-74 270h-448l-74 -270h-246l408 1366h272zM727 471l-178 653l-178 -653h356z" />
    <glyph glyph-name="Aring" unicode="&#xc5;" horiz-adv-x="1097" 
d="M1092 0h-246l-74 270h-448l-74 -270h-246l408 1366h272zM727 471l-178 653l-178 -653h356zM549 1415q-78 0 -135.5 58t-57.5 137q0 78 57.5 135t135.5 57q79 0 135.5 -57t56.5 -135q0 -80 -56.5 -137.5t-135.5 -57.5zM549 1511q41 0 68.5 29.5t27.5 69.5t-27.5 68
t-68.5 28q-39 0 -67.5 -28.5t-28.5 -67.5q0 -40 29 -69.5t67 -29.5z" />
    <glyph glyph-name="AE" unicode="&#xc6;" horiz-adv-x="1581" 
d="M1495 0h-747v270h-375l-121 -270h-244l645 1366h842v-199h-520v-370h506v-201h-506v-395h520v-201zM748 471v653l-291 -653h291z" />
    <glyph glyph-name="Ccedilla" unicode="&#xc7;" horiz-adv-x="1120" 
d="M625 -389q-57 0 -108.5 18t-84.5 45l43 90q69 -57 146 -57q42 0 72 20.5t30 55.5q0 28 -16 44.5t-45 16.5q-38 0 -62 -28l-80 45l45 121q-148 18 -258.5 112.5t-168.5 246t-58 341.5q0 205 67.5 365t194.5 251t295 91q289 0 432 -302l-188 -83q-37 85 -99.5 134.5
t-144.5 49.5q-149 0 -237.5 -141.5t-88.5 -364.5q0 -145 39 -259t113.5 -179.5t173.5 -65.5q86 0 149 55t97 146l188 -84q-28 -63 -61.5 -113.5t-81 -97t-113.5 -74.5t-145 -33l-31 -79q28 22 66 22q54 0 90 -39t36 -100q0 -75 -59 -122.5t-147 -47.5z" />
    <glyph glyph-name="Egrave" unicode="&#xc8;" horiz-adv-x="966" 
d="M879 0h-748v1366h748v-199h-521v-370h506v-201h-506v-395h521v-201zM608 1481h-139l-274 295h190z" />
    <glyph glyph-name="Eacute" unicode="&#xc9;" horiz-adv-x="966" 
d="M813 1776l-274 -295h-140l226 295h188zM879 0h-748v1366h748v-199h-521v-370h506v-201h-506v-395h521v-201z" />
    <glyph glyph-name="Ecircumflex" unicode="&#xca;" horiz-adv-x="966" 
d="M764 1481h-123l-137 198l-131 -198h-123l162 295h186zM879 0h-748v1366h748v-199h-521v-370h506v-201h-506v-395h521v-201z" />
    <glyph glyph-name="Edieresis" unicode="&#xcb;" horiz-adv-x="966" 
d="M809 1585q0 -47 -35 -81t-82 -34t-80.5 34t-33.5 81t33.5 81t80.5 34t82 -34t35 -81zM436 1585q0 -47 -33.5 -81t-80.5 -34t-82 34t-35 81t35 81t82 34t80.5 -34t33.5 -81zM879 0h-748v1366h748v-199h-521v-370h506v-201h-506v-395h521v-201z" />
    <glyph glyph-name="Igrave" unicode="&#xcc;" horiz-adv-x="489" 
d="M358 0h-227v1366h227v-1366zM348 1481h-139l-275 295h191z" />
    <glyph glyph-name="Iacute" unicode="&#xcd;" horiz-adv-x="489" 
d="M358 0h-227v1366h227v-1366zM555 1776l-274 -295h-140l226 295h188z" />
    <glyph glyph-name="Icircumflex" unicode="&#xce;" horiz-adv-x="489" 
d="M502 1481h-123l-137 198l-131 -198h-123l162 295h186zM358 0h-227v1366h227v-1366z" />
    <glyph glyph-name="Idieresis" unicode="&#xcf;" horiz-adv-x="489" 
d="M549 1585q0 -47 -35 -81t-82 -34t-81 34t-34 81t34 81t81 34t82 -34t35 -81zM176 1585q0 -47 -34 -81t-81 -34t-81.5 34t-34.5 81t34.5 81t81.5 34t81 -34t34 -81zM358 0h-227v1366h227v-1366z" />
    <glyph glyph-name="Eth" unicode="&#xd0;" horiz-adv-x="1241" 
d="M588 0h-408v588h-151v168h151v610h408q180 0 311 -88.5t197.5 -242t66.5 -353.5t-66 -353t-197 -241t-312 -88zM588 201q163 0 252.5 132t89.5 349q0 222 -88 353.5t-254 131.5h-180v-411h233v-168h-233v-387h180z" />
    <glyph glyph-name="Ntilde" unicode="&#xd1;" horiz-adv-x="1212" 
d="M705 1477q-43 0 -76.5 26t-50.5 56.5t-39 56.5t-45 26q-30 0 -50 -39t-20 -114h-111q0 125 49.5 199.5t139.5 74.5q35 0 62.5 -17t45.5 -41t33 -48t32.5 -41t37.5 -17q30 0 48.5 38t18.5 114h111q0 -125 -48 -199.5t-138 -74.5zM1081 0h-217l-506 883v-883h-227v1366h229
l494 -858v858h227v-1366z" />
    <glyph glyph-name="Ograve" unicode="&#xd2;" horiz-adv-x="1253" 
d="M731 1481h-139l-275 295h191zM627 -25q-169 0 -294.5 93.5t-189 252.5t-63.5 361t63.5 361t189 252.5t294.5 93.5t294.5 -93.5t189 -252.5t63.5 -361t-63.5 -361t-189 -252.5t-294.5 -93.5zM627 178q99 0 171 67.5t108 180.5t36 256q0 222 -83.5 364t-231.5 142
q-149 0 -232.5 -141.5t-83.5 -364.5q0 -143 35.5 -256t108 -180.5t172.5 -67.5z" />
    <glyph glyph-name="Oacute" unicode="&#xd3;" horiz-adv-x="1253" 
d="M936 1776l-274 -295h-140l226 295h188zM627 -25q-169 0 -294.5 93.5t-189 252.5t-63.5 361t63.5 361t189 252.5t294.5 93.5t294.5 -93.5t189 -252.5t63.5 -361t-63.5 -361t-189 -252.5t-294.5 -93.5zM627 178q99 0 171 67.5t108 180.5t36 256q0 222 -83.5 364t-231.5 142
q-149 0 -232.5 -141.5t-83.5 -364.5q0 -143 35.5 -256t108 -180.5t172.5 -67.5z" />
    <glyph glyph-name="Ocircumflex" unicode="&#xd4;" horiz-adv-x="1253" 
d="M887 1481h-123l-137 198l-131 -198h-123l162 295h186zM627 -25q-169 0 -294.5 93.5t-189 252.5t-63.5 361t63.5 361t189 252.5t294.5 93.5t294.5 -93.5t189 -252.5t63.5 -361t-63.5 -361t-189 -252.5t-294.5 -93.5zM627 178q99 0 171 67.5t108 180.5t36 256
q0 222 -83.5 364t-231.5 142q-149 0 -232.5 -141.5t-83.5 -364.5q0 -143 35.5 -256t108 -180.5t172.5 -67.5z" />
    <glyph glyph-name="Otilde" unicode="&#xd5;" horiz-adv-x="1253" 
d="M627 -25q-169 0 -294.5 93.5t-189 252.5t-63.5 361t63.5 361t189 252.5t294.5 93.5t294.5 -93.5t189 -252.5t63.5 -361t-63.5 -361t-189 -252.5t-294.5 -93.5zM627 178q99 0 171 67.5t108 180.5t36 256q0 222 -83.5 364t-231.5 142q-149 0 -232.5 -141.5t-83.5 -364.5
q0 -143 35.5 -256t108 -180.5t172.5 -67.5zM731 1477q-43 0 -76.5 26t-50.5 56.5t-39 56.5t-45 26q-30 0 -49.5 -39t-19.5 -114h-111q0 125 49 199.5t139 74.5q35 0 62.5 -17t45.5 -41t33 -48t32.5 -41t37.5 -17q30 0 49 38.5t19 113.5h111q0 -125 -48.5 -199.5
t-138.5 -74.5z" />
    <glyph glyph-name="Odieresis" unicode="&#xd6;" horiz-adv-x="1253" 
d="M930 1585q0 -47 -35 -81t-82 -34t-81 34t-34 81t34 81t81 34t82 -34t35 -81zM557 1585q0 -47 -34 -81t-81 -34t-81.5 34t-34.5 81t34.5 81t81.5 34t81 -34t34 -81zM627 -25q-169 0 -294.5 93.5t-189 252.5t-63.5 361t63.5 361t189 252.5t294.5 93.5t294.5 -93.5
t189 -252.5t63.5 -361t-63.5 -361t-189 -252.5t-294.5 -93.5zM627 178q99 0 171 67.5t108 180.5t36 256q0 222 -83.5 364t-231.5 142q-149 0 -232.5 -141.5t-83.5 -364.5q0 -143 35.5 -256t108 -180.5t172.5 -67.5z" />
    <glyph glyph-name="multiply" unicode="&#xd7;" horiz-adv-x="905" 
d="M707 338l-254 252l-254 -252l-95 92l254 254l-254 254l95 94l254 -254l254 254l94 -94l-254 -254l254 -254z" />
    <glyph glyph-name="Oslash" unicode="&#xd8;" horiz-adv-x="1253" 
d="M627 -25q-163 0 -291 91l-39 -66h-156l95 162q-156 198 -156 520q0 202 63.5 361t189 252.5t294.5 93.5q157 0 282 -86l37 63h154l-90 -156q80 -95 122 -231t42 -297q0 -202 -63.5 -361t-189 -252.5t-294.5 -93.5zM627 178q99 0 171 67.5t108 180.5t36 256q0 185 -59 315
l-437 -745q74 -74 181 -74zM311 682q0 -173 54 -303l436 739q-73 70 -174 70q-149 0 -232.5 -141.5t-83.5 -364.5z" />
    <glyph glyph-name="Ugrave" unicode="&#xd9;" horiz-adv-x="1212" 
d="M606 -25q-223 0 -349 127t-126 357v907h227v-909q0 -136 64.5 -208.5t183.5 -72.5t183.5 72.5t64.5 208.5v909h227v-907q0 -230 -126 -357t-349 -127zM711 1481h-140l-274 295h190z" />
    <glyph glyph-name="Uacute" unicode="&#xda;" horiz-adv-x="1212" 
d="M915 1776l-274 -295h-139l225 295h188zM606 -25q-223 0 -349 127t-126 357v907h227v-909q0 -136 64.5 -208.5t183.5 -72.5t183.5 72.5t64.5 208.5v909h227v-907q0 -230 -126 -357t-349 -127z" />
    <glyph glyph-name="Ucircumflex" unicode="&#xdb;" horiz-adv-x="1212" 
d="M866 1481h-123l-137 198l-131 -198h-123l162 295h186zM606 -25q-223 0 -349 127t-126 357v907h227v-909q0 -136 64.5 -208.5t183.5 -72.5t183.5 72.5t64.5 208.5v909h227v-907q0 -230 -126 -357t-349 -127z" />
    <glyph glyph-name="Udieresis" unicode="&#xdc;" horiz-adv-x="1212" 
d="M911 1585q0 -47 -34.5 -81t-81.5 -34t-81 34t-34 81t34 81t81 34t81.5 -34t34.5 -81zM539 1585q0 -47 -34 -81t-81 -34t-82 34t-35 81t35 81t82 34t81 -34t34 -81zM606 -25q-223 0 -349 127t-126 357v907h227v-909q0 -136 64.5 -208.5t183.5 -72.5t183.5 72.5t64.5 208.5
v909h227v-907q0 -230 -126 -357t-349 -127z" />
    <glyph glyph-name="Yacute" unicode="&#xdd;" horiz-adv-x="1067" 
d="M647 0h-225v569l-424 797h252l285 -584l284 584h250l-422 -797v-569zM844 1776l-275 -295h-139l225 295h189z" />
    <glyph glyph-name="Thorn" unicode="&#xde;" horiz-adv-x="1050" 
d="M358 0h-227v1366h227v-233h238q98 0 176 -34t126.5 -93t74.5 -135.5t26 -163.5q0 -86 -26 -161.5t-74.5 -134t-126.5 -92.5t-176 -34h-238v-285zM569 483q90 0 144.5 62t54.5 162q0 102 -54.5 164.5t-144.5 62.5h-211v-451h211z" />
    <glyph glyph-name="germandbls" unicode="&#xdf;" horiz-adv-x="1138" 
d="M1108 272q0 -124 -95.5 -210.5t-250.5 -86.5q-114 0 -191.5 36.5t-146.5 107.5l86 143q39 -51 100.5 -87t134.5 -36q71 0 114.5 36.5t43.5 92.5q0 38 -25 67t-65 48.5t-88 38.5t-96 43.5t-88 56t-65 83.5t-25 120q0 56 24 102.5t58.5 77t68.5 57t58 57.5t24 64
q0 54 -47.5 88.5t-114.5 34.5q-83 0 -136.5 -50.5t-53.5 -143.5v-1012h-203v1012q0 161 107.5 267.5t287.5 106.5q151 0 259 -78.5t108 -199.5q0 -61 -25 -110t-61 -80.5t-72 -58.5t-61 -58t-25 -66t25.5 -61t66 -43.5t90 -35.5t98.5 -43t89.5 -58.5t66 -90.5t25.5 -131z
" />
    <glyph glyph-name="agrave" unicode="&#xe0;" 
d="M836 0h-203v100q-43 -60 -113 -92.5t-147 -32.5q-126 0 -214.5 89t-88.5 241t87.5 237t215.5 85q78 0 148.5 -30.5t111.5 -88.5v143q0 90 -50.5 139.5t-142.5 49.5q-135 0 -245 -113l-80 143q72 72 167 108t195 36q165 0 262 -82.5t97 -255.5v-676zM446 117q56 0 107 29
t80 79v150q-29 52 -79.5 81t-107.5 29q-78 0 -125 -51.5t-47 -132.5t47 -132.5t125 -51.5zM582 1139h-140l-274 295h190z" />
    <glyph glyph-name="aacute" unicode="&#xe1;" 
d="M836 0h-203v100q-43 -60 -113 -92.5t-147 -32.5q-126 0 -214.5 89t-88.5 241t87.5 237t215.5 85q78 0 148.5 -30.5t111.5 -88.5v143q0 90 -50.5 139.5t-142.5 49.5q-135 0 -245 -113l-80 143q72 72 167 108t195 36q165 0 262 -82.5t97 -255.5v-676zM446 117q56 0 107 29
t80 79v150q-29 52 -79.5 81t-107.5 29q-78 0 -125 -51.5t-47 -132.5t47 -132.5t125 -51.5zM786 1434l-274 -295h-139l225 295h188z" />
    <glyph glyph-name="acircumflex" unicode="&#xe2;" 
d="M836 0h-203v100q-43 -60 -113 -92.5t-147 -32.5q-126 0 -214.5 89t-88.5 241t87.5 237t215.5 85q78 0 148.5 -30.5t111.5 -88.5v143q0 90 -50.5 139.5t-142.5 49.5q-135 0 -245 -113l-80 143q72 72 167 108t195 36q165 0 262 -82.5t97 -255.5v-676zM446 117q56 0 107 29
t80 79v150q-29 52 -79.5 81t-107.5 29q-78 0 -125 -51.5t-47 -132.5t47 -132.5t125 -51.5zM737 1139h-123l-137 198l-131 -198h-123l162 295h186z" />
    <glyph glyph-name="atilde" unicode="&#xe3;" 
d="M836 0h-203v100q-43 -60 -113 -92.5t-147 -32.5q-126 0 -214.5 89t-88.5 241t87.5 237t215.5 85q78 0 148.5 -30.5t111.5 -88.5v143q0 90 -50.5 139.5t-142.5 49.5q-135 0 -245 -113l-80 143q72 72 167 108t195 36q165 0 262 -82.5t97 -255.5v-676zM446 117q56 0 107 29
t80 79v150q-29 52 -79.5 81t-107.5 29q-78 0 -125 -51.5t-47 -132.5t47 -132.5t125 -51.5zM582 1135q-43 0 -76.5 26t-50.5 56.5t-39 56.5t-45 26q-30 0 -50 -39t-20 -114h-111q0 125 49.5 199.5t139.5 74.5q35 0 62.5 -17t45.5 -41t33 -48t32.5 -41t37.5 -17q30 0 48.5 38
t18.5 114h111q0 -125 -48 -199.5t-138 -74.5z" />
    <glyph glyph-name="adieresis" unicode="&#xe4;" 
d="M836 0h-203v100q-43 -60 -113 -92.5t-147 -32.5q-126 0 -214.5 89t-88.5 241t87.5 237t215.5 85q78 0 148.5 -30.5t111.5 -88.5v143q0 90 -50.5 139.5t-142.5 49.5q-135 0 -245 -113l-80 143q72 72 167 108t195 36q165 0 262 -82.5t97 -255.5v-676zM446 117q56 0 107 29
t80 79v150q-29 52 -79.5 81t-107.5 29q-78 0 -125 -51.5t-47 -132.5t47 -132.5t125 -51.5zM782 1243q0 -47 -34.5 -81t-81.5 -34t-81 34t-34 81t34 81t81 34t81.5 -34t34.5 -81zM410 1243q0 -47 -34 -81t-81 -34t-82 34t-35 81t35 81t82 34t81 -34t34 -81z" />
    <glyph glyph-name="aring" unicode="&#xe5;" 
d="M836 0h-203v100q-43 -60 -113 -92.5t-147 -32.5q-126 0 -214.5 89t-88.5 241t87.5 237t215.5 85q78 0 148.5 -30.5t111.5 -88.5v143q0 90 -50.5 139.5t-142.5 49.5q-135 0 -245 -113l-80 143q72 72 167 108t195 36q165 0 262 -82.5t97 -255.5v-676zM446 117q56 0 107 29
t80 79v150q-29 52 -79.5 81t-107.5 29q-78 0 -125 -51.5t-47 -132.5t47 -132.5t125 -51.5zM479 1102q-78 0 -135 57.5t-57 136.5q0 78 57 135.5t135 57.5q79 0 136 -57.5t57 -135.5q0 -80 -57 -137t-136 -57zM479 1198q41 0 68.5 29t27.5 69t-27.5 68.5t-68.5 28.5
q-39 0 -67.5 -28.5t-28.5 -68.5t29 -69t67 -29z" />
    <glyph glyph-name="ae" unicode="&#xe6;" horiz-adv-x="1525" 
d="M1460 428h-600q8 -127 71 -205t173 -78q57 0 114.5 28.5t96.5 78.5l98 -125q-62 -71 -149.5 -111.5t-176.5 -40.5q-113 0 -191.5 45t-133.5 136q-51 -79 -141.5 -130t-204.5 -51q-153 0 -249.5 86.5t-96.5 239.5q0 151 88.5 238.5t224.5 87.5q83 0 158 -30t121 -87v141
q0 89 -54 139t-151 50q-143 0 -262 -113l-80 143q72 72 167.5 108t192.5 36q112 0 189 -47.5t106 -126.5q49 80 119 127t184 47q123 0 211.5 -70.5t132 -188.5t43.5 -270v-57zM860 573h404q-1 49 -12 95.5t-33.5 88t-62.5 66.5t-93 25q-52 0 -92 -25.5t-63 -67.5t-34.5 -88
t-13.5 -94zM662 342v33q-34 51 -88.5 80.5t-114.5 29.5q-83 0 -134 -46.5t-51 -125.5q0 -83 50.5 -127.5t134.5 -44.5q83 0 143 62t60 139z" />
    <glyph glyph-name="ccedilla" unicode="&#xe7;" horiz-adv-x="849" 
d="M506 -393q-57 0 -108.5 18t-84.5 45l43 90q69 -57 146 -57q42 0 72 20.5t30 55.5q0 28 -16 44.5t-45 16.5q-37 0 -62 -28l-80 45l45 123q-170 22 -272 164.5t-102 351.5q0 227 119 372.5t315 145.5q195 0 301 -133l-105 -140q-72 93 -176 93q-113 0 -178 -96t-65 -242
q0 -147 65 -243.5t178 -96.5q102 0 176 92l105 -139q-93 -116 -254 -132l-33 -83q28 22 66 22q55 0 91 -39t36 -100q0 -75 -59.5 -122.5t-147.5 -47.5z" />
    <glyph glyph-name="egrave" unicode="&#xe8;" horiz-adv-x="970" 
d="M516 -25q-202 0 -323 144.5t-121 376.5q0 144 50 261t148 187t226 70q130 0 224.5 -70t140.5 -187.5t46 -269.5v-59h-628q6 -126 74 -205.5t184 -79.5q60 0 120.5 28.5t102.5 78.5l98 -123q-63 -72 -152.5 -112t-189.5 -40zM709 573q-1 39 -8 76t-23.5 73.5t-40 64
t-60.5 44.5t-83 17q-55 0 -97.5 -25.5t-67.5 -68t-38 -88t-15 -93.5h433zM602 1139h-139l-275 295h191z" />
    <glyph glyph-name="eacute" unicode="&#xe9;" horiz-adv-x="970" 
d="M807 1434l-275 -295h-139l225 295h189zM516 -25q-202 0 -323 144.5t-121 376.5q0 144 50 261t148 187t226 70q130 0 224.5 -70t140.5 -187.5t46 -269.5v-59h-628q6 -126 74 -205.5t184 -79.5q60 0 120.5 28.5t102.5 78.5l98 -123q-63 -72 -152.5 -112t-189.5 -40z
M709 573q-1 39 -8 76t-23.5 73.5t-40 64t-60.5 44.5t-83 17q-55 0 -97.5 -25.5t-67.5 -68t-38 -88t-15 -93.5h433z" />
    <glyph glyph-name="ecircumflex" unicode="&#xea;" horiz-adv-x="970" 
d="M756 1139h-123l-137 198l-131 -198h-123l161 295h187zM516 -25q-202 0 -323 144.5t-121 376.5q0 144 50 261t148 187t226 70q130 0 224.5 -70t140.5 -187.5t46 -269.5v-59h-628q6 -126 74 -205.5t184 -79.5q60 0 120.5 28.5t102.5 78.5l98 -123q-63 -72 -152.5 -112
t-189.5 -40zM709 573q-1 39 -8 76t-23.5 73.5t-40 64t-60.5 44.5t-83 17q-55 0 -97.5 -25.5t-67.5 -68t-38 -88t-15 -93.5h433z" />
    <glyph glyph-name="edieresis" unicode="&#xeb;" horiz-adv-x="970" 
d="M801 1243q0 -47 -35 -81t-82 -34t-81 34t-34 81t34 81t81 34t82 -34t35 -81zM428 1243q0 -47 -34 -81t-81 -34t-81.5 34t-34.5 81t34.5 81t81.5 34t81 -34t34 -81zM516 -25q-202 0 -323 144.5t-121 376.5q0 144 50 261t148 187t226 70q130 0 224.5 -70t140.5 -187.5
t46 -269.5v-59h-628q6 -126 74 -205.5t184 -79.5q60 0 120.5 28.5t102.5 78.5l98 -123q-63 -72 -152.5 -112t-189.5 -40zM709 573q-1 39 -8 76t-23.5 73.5t-40 64t-60.5 44.5t-83 17q-55 0 -97.5 -25.5t-67.5 -68t-38 -88t-15 -93.5h433z" />
    <glyph glyph-name="igrave" unicode="&#xec;" horiz-adv-x="446" 
d="M326 0h-205v989h205v-989zM326 1139h-140l-274 295h190z" />
    <glyph glyph-name="iacute" unicode="&#xed;" horiz-adv-x="446" 
d="M532 1434l-274 -295h-139l225 295h188zM326 0h-205v989h205v-989z" />
    <glyph glyph-name="icircumflex" unicode="&#xee;" horiz-adv-x="446" 
d="M479 1139h-123l-137 198l-131 -198h-123l162 295h186zM326 0h-205v989h205v-989z" />
    <glyph glyph-name="idieresis" unicode="&#xef;" horiz-adv-x="446" 
d="M524 1243q0 -47 -34.5 -81t-81.5 -34t-81 34t-34 81t34 81t81 34t81.5 -34t34.5 -81zM152 1243q0 -47 -34 -81t-81 -34t-82 34t-35 81t35 81t82 34t81 -34t34 -81zM326 0h-205v989h205v-989z" />
    <glyph glyph-name="eth" unicode="&#xf0;" horiz-adv-x="999" 
d="M246 1010l-45 100l221 96q-38 40 -113 107l144 127q74 -68 151 -152l182 80l43 -98l-153 -70q252 -322 252 -674q0 -162 -47.5 -284.5t-145.5 -194.5t-235 -72q-134 0 -232.5 68t-147 179t-48.5 249q0 137 44 248t129.5 177.5t196.5 66.5q160 0 254 -160
q-56 156 -196 319zM500 156q106 0 161.5 90.5t55.5 224.5q0 132 -55.5 221.5t-161.5 89.5t-161.5 -89.5t-55.5 -221.5q0 -134 55.5 -224.5t161.5 -90.5z" />
    <glyph glyph-name="ntilde" unicode="&#xf1;" horiz-adv-x="993" 
d="M872 0h-204v674q0 160 -142 160q-62 0 -116 -40.5t-84 -97.5v-696h-205v989h205v-133q43 65 121 111.5t165 46.5q131 0 195.5 -69.5t64.5 -199.5v-745zM602 1135q-43 0 -76.5 26t-50.5 56.5t-39 56.5t-45 26q-30 0 -49.5 -39t-19.5 -114h-111q0 125 49 199.5t139 74.5
q35 0 62.5 -17t45.5 -41t33 -48t32.5 -41t37.5 -17q30 0 49 38.5t19 113.5h110q0 -125 -48 -199.5t-138 -74.5z" />
    <glyph glyph-name="ograve" unicode="&#xf2;" horiz-adv-x="999" 
d="M500 -25q-102 0 -185 42t-135 114t-80 165.5t-28 199.5t28 199t80.5 164.5t135 113t184.5 41.5t184.5 -41.5t135 -113t80.5 -164.5t28 -199t-28 -199.5t-80 -165.5t-135 -114t-185 -42zM500 156q106 0 161.5 98t55.5 242t-55.5 241t-161.5 97t-161.5 -97t-55.5 -241
t55.5 -242t161.5 -98zM604 1139h-139l-275 295h191z" />
    <glyph glyph-name="oacute" unicode="&#xf3;" horiz-adv-x="999" 
d="M809 1434l-274 -295h-140l226 295h188zM500 -25q-102 0 -185 42t-135 114t-80 165.5t-28 199.5t28 199t80.5 164.5t135 113t184.5 41.5t184.5 -41.5t135 -113t80.5 -164.5t28 -199t-28 -199.5t-80 -165.5t-135 -114t-185 -42zM500 156q106 0 161.5 98t55.5 242t-55.5 241
t-161.5 97t-161.5 -97t-55.5 -241t55.5 -242t161.5 -98z" />
    <glyph glyph-name="ocircumflex" unicode="&#xf4;" horiz-adv-x="999" 
d="M758 1139h-123l-137 198l-131 -198h-123l162 295h186zM500 -25q-102 0 -185 42t-135 114t-80 165.5t-28 199.5t28 199t80.5 164.5t135 113t184.5 41.5t184.5 -41.5t135 -113t80.5 -164.5t28 -199t-28 -199.5t-80 -165.5t-135 -114t-185 -42zM500 156q106 0 161.5 98
t55.5 242t-55.5 241t-161.5 97t-161.5 -97t-55.5 -241t55.5 -242t161.5 -98z" />
    <glyph glyph-name="otilde" unicode="&#xf5;" horiz-adv-x="999" 
d="M500 -25q-102 0 -185 42t-135 114t-80 165.5t-28 199.5t28 199t80.5 164.5t135 113t184.5 41.5t184.5 -41.5t135 -113t80.5 -164.5t28 -199t-28 -199.5t-80 -165.5t-135 -114t-185 -42zM500 156q106 0 161.5 98t55.5 242t-55.5 241t-161.5 97t-161.5 -97t-55.5 -241
t55.5 -242t161.5 -98zM602 1135q-43 0 -76.5 26t-50.5 56.5t-39 56.5t-45 26q-30 0 -49.5 -39t-19.5 -114h-111q0 125 49 199.5t139 74.5q35 0 62.5 -17t45.5 -41t33 -48t32.5 -41t37.5 -17q30 0 49 38.5t19 113.5h110q0 -125 -48 -199.5t-138 -74.5z" />
    <glyph glyph-name="odieresis" unicode="&#xf6;" horiz-adv-x="999" 
d="M803 1243q0 -47 -35 -81t-82 -34t-81 34t-34 81t34 81t81 34t82 -34t35 -81zM430 1243q0 -47 -34 -81t-81 -34t-81.5 34t-34.5 81t34.5 81t81.5 34t81 -34t34 -81zM500 -25q-102 0 -185 42t-135 114t-80 165.5t-28 199.5t28 199t80.5 164.5t135 113t184.5 41.5
t184.5 -41.5t135 -113t80.5 -164.5t28 -199t-28 -199.5t-80 -165.5t-135 -114t-185 -42zM500 156q106 0 161.5 98t55.5 242t-55.5 241t-161.5 97t-161.5 -97t-55.5 -241t55.5 -242t161.5 -98z" />
    <glyph glyph-name="divide" unicode="&#xf7;" horiz-adv-x="907" 
d="M563 1024q0 -44 -32 -76.5t-76 -32.5t-76.5 32.5t-32.5 76.5t32.5 76.5t76.5 32.5t76 -32.5t32 -76.5zM848 625h-789v133h789v-133zM563 350q0 -44 -32 -75t-76 -31q-45 0 -77 31t-32 75t32.5 77.5t76.5 33.5t76 -33t32 -78z" />
    <glyph glyph-name="oslash" unicode="&#xf8;" horiz-adv-x="999" 
d="M217 0h-125l88 129q-108 141 -108 367q0 106 28 199t80.5 164.5t135 113t184.5 41.5q132 0 239 -76l35 51h127l-86 -125q113 -144 113 -368q0 -106 -28 -199.5t-80 -165.5t-135 -114t-185 -42q-142 0 -246 80zM500 156q106 0 161.5 98t55.5 242q0 102 -31 184l-321 -465
q56 -59 135 -59zM283 496q0 -104 26 -181l320 463q-53 56 -129 56q-106 0 -161.5 -97t-55.5 -241z" />
    <glyph glyph-name="ugrave" unicode="&#xf9;" horiz-adv-x="993" 
d="M872 0h-204v131q-45 -66 -122 -111t-167 -45q-258 0 -258 267v747h205v-676q0 -83 36 -120t105 -37q61 0 115 39t86 96v698h204v-989zM600 1139h-139l-275 295h191z" />
    <glyph glyph-name="uacute" unicode="&#xfa;" horiz-adv-x="993" 
d="M805 1434l-275 -295h-139l225 295h189zM872 0h-204v131q-45 -66 -122 -111t-167 -45q-258 0 -258 267v747h205v-676q0 -83 36 -120t105 -37q61 0 115 39t86 96v698h204v-989z" />
    <glyph glyph-name="ucircumflex" unicode="&#xfb;" horiz-adv-x="993" 
d="M754 1139h-123l-137 198l-132 -198h-122l161 295h187zM872 0h-204v131q-45 -66 -122 -111t-167 -45q-258 0 -258 267v747h205v-676q0 -83 36 -120t105 -37q61 0 115 39t86 96v698h204v-989z" />
    <glyph glyph-name="udieresis" unicode="&#xfc;" horiz-adv-x="993" 
d="M799 1243q0 -47 -35 -81t-82 -34t-81 34t-34 81t34 81t81 34t82 -34t35 -81zM426 1243q0 -47 -34 -81t-81 -34t-81.5 34t-34.5 81t34.5 81t81.5 34t81 -34t34 -81zM872 0h-204v131q-45 -66 -122 -111t-167 -45q-258 0 -258 267v747h205v-676q0 -83 36 -120t105 -37
q61 0 115 39t86 96v698h204v-989z" />
    <glyph glyph-name="yacute" unicode="&#xfd;" horiz-adv-x="880" 
d="M86 -387l31 180q25 -14 65 -14q42 0 69 18.5t44 63.5l41 119l-332 1009h217l219 -743l222 743h217l-392 -1175q-39 -119 -109.5 -167t-180.5 -48q-64 0 -111 14zM750 1434l-275 -295h-139l225 295h189z" />
    <glyph glyph-name="thorn" unicode="&#xfe;" horiz-adv-x="1007" 
d="M580 -25q-76 0 -143.5 39.5t-110.5 116.5v-508h-205v1743h205v-504q42 73 109.5 112.5t144.5 39.5q167 0 263.5 -139t96.5 -379q0 -238 -97 -379.5t-263 -141.5zM518 156q102 0 156.5 95.5t54.5 244.5t-54.5 243.5t-156.5 94.5q-58 0 -111.5 -39t-80.5 -97v-405
q27 -57 81 -97t111 -40z" />
    <glyph glyph-name="ydieresis" unicode="&#xff;" horiz-adv-x="880" 
d="M86 -387l31 180q25 -14 65 -14q42 0 69 18.5t44 63.5l41 119l-332 1009h217l219 -743l222 743h217l-392 -1175q-39 -119 -109.5 -167t-180.5 -48q-64 0 -111 14zM748 1243q0 -47 -35 -81t-82 -34t-81 34t-34 81t34 81t81 34t82 -34t35 -81zM375 1243q0 -47 -34 -81
t-81 -34t-82 34t-35 81t35 81t82 34t81 -34t34 -81z" />
    <glyph glyph-name="Amacron" unicode="&#x100;" horiz-adv-x="1097" 
d="M1092 0h-246l-74 270h-448l-74 -270h-246l408 1366h272zM727 471l-178 653l-178 -653h356zM864 1503h-633v123h633v-123z" />
    <glyph glyph-name="amacron" unicode="&#x101;" 
d="M836 0h-203v100q-43 -60 -113 -92.5t-147 -32.5q-126 0 -214.5 89t-88.5 241t87.5 237t215.5 85q78 0 148.5 -30.5t111.5 -88.5v143q0 90 -50.5 139.5t-142.5 49.5q-135 0 -245 -113l-80 143q72 72 167 108t195 36q165 0 262 -82.5t97 -255.5v-676zM446 117q56 0 107 29
t80 79v150q-29 52 -79.5 81t-107.5 29q-78 0 -125 -51.5t-47 -132.5t47 -132.5t125 -51.5zM795 1161h-633v123h633v-123z" />
    <glyph glyph-name="Abreve" unicode="&#x102;" horiz-adv-x="1097" 
d="M1092 0h-246l-74 270h-448l-74 -270h-246l408 1366h272zM727 471l-178 653l-178 -653h356zM854 1604q-53 -72 -133 -113t-172 -41q-91 0 -170.5 41t-134.5 113l96 77q35 -51 90 -79.5t119 -28.5t119 28.5t90 79.5z" />
    <glyph glyph-name="abreve" unicode="&#x103;" 
d="M836 0h-203v100q-43 -60 -113 -92.5t-147 -32.5q-126 0 -214.5 89t-88.5 241t87.5 237t215.5 85q78 0 148.5 -30.5t111.5 -88.5v143q0 90 -50.5 139.5t-142.5 49.5q-135 0 -245 -113l-80 143q72 72 167 108t195 36q165 0 262 -82.5t97 -255.5v-676zM446 117q56 0 107 29
t80 79v150q-29 52 -79.5 81t-107.5 29q-78 0 -125 -51.5t-47 -132.5t47 -132.5t125 -51.5zM784 1262q-53 -72 -133 -113t-172 -41q-91 0 -170.5 41t-134.5 113l96 77q35 -51 90 -79.5t119 -28.5t119 28.5t90 79.5z" />
    <glyph glyph-name="Aogonek" unicode="&#x104;" horiz-adv-x="1097" 
d="M1100 -217l90 -51q-52 -113 -168 -113q-78 0 -127 43.5t-49 128.5q0 114 98 209h-98l-74 270h-448l-74 -270h-246l408 1366h272l408 -1366q-138 -82 -138 -203q0 -42 19 -64t49 -22q58 0 78 72zM727 471l-178 653l-178 -653h356z" />
    <glyph glyph-name="aogonek" unicode="&#x105;" 
d="M844 -217l90 -51q-52 -113 -168 -113q-78 0 -127 43.5t-49 128.5q0 114 98 209h-55v100q-43 -60 -113 -92.5t-147 -32.5q-126 0 -214.5 89t-88.5 241t87.5 237t215.5 85q78 0 148.5 -30.5t111.5 -88.5v143q0 90 -50.5 139.5t-142.5 49.5q-135 0 -245 -113l-80 143
q72 72 167 108t195 36q165 0 262 -82.5t97 -255.5v-676q-138 -82 -138 -203q0 -42 19 -64t49 -22q58 0 78 72zM446 117q56 0 107 29t80 79v150q-29 52 -79.5 81t-107.5 29q-78 0 -125 -51.5t-47 -132.5t47 -132.5t125 -51.5z" />
    <glyph glyph-name="Cacute" unicode="&#x106;" horiz-adv-x="1120" 
d="M946 1776l-274 -295h-140l226 295h188zM637 -25q-126 0 -231 53t-176 146.5t-110.5 224t-39.5 283.5q0 205 67.5 365t194.5 251t295 91q289 0 432 -302l-188 -83q-37 85 -99.5 134.5t-144.5 49.5q-149 0 -237.5 -141.5t-88.5 -364.5q0 -145 39 -259t113.5 -179.5
t173.5 -65.5q86 0 149 55t97 146l188 -84q-140 -320 -434 -320z" />
    <glyph glyph-name="cacute" unicode="&#x107;" horiz-adv-x="849" 
d="M813 1434l-274 -295h-140l226 295h188zM506 -25q-195 0 -314.5 147t-119.5 374t119 372.5t315 145.5q195 0 301 -133l-105 -140q-72 93 -176 93q-113 0 -178 -96t-65 -242q0 -147 65 -243.5t178 -96.5q102 0 176 92l105 -139q-107 -134 -301 -134z" />
    <glyph glyph-name="Ccircumflex" unicode="&#x108;" horiz-adv-x="1120" 
d="M893 1481h-123l-137 198l-131 -198h-123l162 295h186zM637 -25q-126 0 -231 53t-176 146.5t-110.5 224t-39.5 283.5q0 205 67.5 365t194.5 251t295 91q289 0 432 -302l-188 -83q-37 85 -99.5 134.5t-144.5 49.5q-149 0 -237.5 -141.5t-88.5 -364.5q0 -145 39 -259
t113.5 -179.5t173.5 -65.5q86 0 149 55t97 146l188 -84q-140 -320 -434 -320z" />
    <glyph glyph-name="ccircumflex" unicode="&#x109;" horiz-adv-x="849" 
d="M764 1139h-123l-137 198l-131 -198h-123l162 295h186zM506 -25q-195 0 -314.5 147t-119.5 374t119 372.5t315 145.5q195 0 301 -133l-105 -140q-72 93 -176 93q-113 0 -178 -96t-65 -242q0 -147 65 -243.5t178 -96.5q102 0 176 92l105 -139q-107 -134 -301 -134z" />
    <glyph glyph-name="Cdotaccent" unicode="&#x10a;" horiz-adv-x="1120" 
d="M637 -25q-126 0 -231 53t-176 146.5t-110.5 224t-39.5 283.5q0 205 67.5 365t194.5 251t295 91q289 0 432 -302l-188 -83q-37 85 -99.5 134.5t-144.5 49.5q-149 0 -237.5 -141.5t-88.5 -364.5q0 -145 39 -259t113.5 -179.5t173.5 -65.5q86 0 149 55t97 146l188 -84
q-140 -320 -434 -320zM639 1468q-47 0 -82 34t-35 81t35 82t82 35t81 -35t34 -82t-34 -81t-81 -34z" />
    <glyph glyph-name="cdotaccent" unicode="&#x10b;" horiz-adv-x="849" 
d="M506 -25q-195 0 -314.5 147t-119.5 374t119 372.5t315 145.5q195 0 301 -133l-105 -140q-72 93 -176 93q-113 0 -178 -96t-65 -242q0 -147 65 -243.5t178 -96.5q102 0 176 92l105 -139q-107 -134 -301 -134zM508 1126q-47 0 -82 34t-35 81t35 82t82 35t81 -35t34 -82
t-34 -81t-81 -34z" />
    <glyph glyph-name="Ccaron" unicode="&#x10c;" horiz-adv-x="1120" 
d="M733 1481h-186l-168 295h123l137 -199l131 199h123zM637 -25q-126 0 -231 53t-176 146.5t-110.5 224t-39.5 283.5q0 205 67.5 365t194.5 251t295 91q289 0 432 -302l-188 -83q-37 85 -99.5 134.5t-144.5 49.5q-149 0 -237.5 -141.5t-88.5 -364.5q0 -145 39 -259
t113.5 -179.5t173.5 -65.5q86 0 149 55t97 146l188 -84q-140 -320 -434 -320z" />
    <glyph glyph-name="ccaron" unicode="&#x10d;" horiz-adv-x="849" 
d="M604 1139h-186l-168 295h123l137 -199l131 199h123zM506 -25q-195 0 -314.5 147t-119.5 374t119 372.5t315 145.5q195 0 301 -133l-105 -140q-72 93 -176 93q-113 0 -178 -96t-65 -242q0 -147 65 -243.5t178 -96.5q102 0 176 92l105 -139q-107 -134 -301 -134z" />
    <glyph glyph-name="Dcaron" unicode="&#x10e;" horiz-adv-x="1193" 
d="M692 1481h-186l-168 295h123l137 -199l131 199h123zM539 0h-408v1366h408q180 0 311 -88.5t197.5 -242t66.5 -353.5t-66 -353t-197 -241t-312 -88zM539 201q163 0 252.5 132t89.5 349q0 222 -88 353.5t-254 131.5h-181v-966h181z" />
    <glyph glyph-name="dcaron" unicode="&#x10f;" horiz-adv-x="1204" 
d="M1217 1241q0 -86 -43.5 -162.5t-114.5 -128.5l-78 62q45 28 81.5 77t43.5 93q-2 0 -12 -1t-15 -1q-42 0 -69 28t-27 72q0 46 31.5 78.5t77.5 32.5q52 0 88.5 -40.5t36.5 -109.5zM891 0h-205v131q-44 -73 -112 -114.5t-142 -41.5q-166 0 -263 140.5t-97 378.5
q0 236 97 378t263 142q75 0 143 -40.5t111 -117.5v510h205v-1366zM494 156q57 0 111 39t81 96v407q-27 57 -81 96.5t-111 39.5q-102 0 -156.5 -94.5t-54.5 -245.5q0 -148 54.5 -243t156.5 -95z" />
    <glyph glyph-name="Dcroat" unicode="&#x110;" horiz-adv-x="1241" 
d="M588 0h-408v588h-151v168h151v610h408q180 0 311 -88.5t197.5 -242t66.5 -353.5t-66 -353t-197 -241t-312 -88zM588 201q163 0 252.5 132t89.5 349q0 222 -88 353.5t-254 131.5h-180v-411h233v-168h-233v-387h180z" />
    <glyph glyph-name="dcroat" unicode="&#x111;" horiz-adv-x="1028" 
d="M891 0h-205v131q-44 -73 -112 -114.5t-142 -41.5q-166 0 -263 140.5t-97 378.5q0 236 97 378t263 142q75 0 143 -40.5t111 -117.5v234h-274v122h274v154h205v-154h115v-122h-115v-1090zM494 156q57 0 111 39t81 96v407q-27 57 -81 96.5t-111 39.5q-102 0 -156.5 -94.5
t-54.5 -245.5q0 -148 54.5 -243t156.5 -95z" />
    <glyph glyph-name="Emacron" unicode="&#x112;" horiz-adv-x="966" 
d="M879 0h-748v1366h748v-199h-521v-370h506v-201h-506v-395h521v-201zM823 1503h-633v123h633v-123z" />
    <glyph glyph-name="emacron" unicode="&#x113;" horiz-adv-x="970" 
d="M516 -25q-202 0 -323 144.5t-121 376.5q0 144 50 261t148 187t226 70q130 0 224.5 -70t140.5 -187.5t46 -269.5v-59h-628q6 -126 74 -205.5t184 -79.5q60 0 120.5 28.5t102.5 78.5l98 -123q-63 -72 -152.5 -112t-189.5 -40zM709 573q-1 39 -8 76t-23.5 73.5t-40 64
t-60.5 44.5t-83 17q-55 0 -97.5 -25.5t-67.5 -68t-38 -88t-15 -93.5h433zM815 1161h-633v123h633v-123z" />
    <glyph glyph-name="Ebreve" unicode="&#x114;" horiz-adv-x="966" 
d="M879 0h-748v1366h748v-199h-521v-370h506v-201h-506v-395h521v-201zM813 1604q-53 -72 -133 -113t-172 -41q-91 0 -170.5 41t-134.5 113l96 77q35 -51 90 -79.5t119 -28.5t119 28.5t90 79.5z" />
    <glyph glyph-name="ebreve" unicode="&#x115;" horiz-adv-x="970" 
d="M516 -25q-202 0 -323 144.5t-121 376.5q0 144 50 261t148 187t226 70q130 0 224.5 -70t140.5 -187.5t46 -269.5v-59h-628q6 -126 74 -205.5t184 -79.5q60 0 120.5 28.5t102.5 78.5l98 -123q-63 -72 -152.5 -112t-189.5 -40zM709 573q-1 39 -8 76t-23.5 73.5t-40 64
t-60.5 44.5t-83 17q-55 0 -97.5 -25.5t-67.5 -68t-38 -88t-15 -93.5h433zM803 1262q-53 -72 -133 -113t-172 -41q-91 0 -170.5 41t-134.5 113l96 77q35 -51 90 -79.5t119 -28.5t119 28.5t90 79.5z" />
    <glyph glyph-name="Edotaccent" unicode="&#x116;" horiz-adv-x="966" 
d="M879 0h-748v1366h748v-199h-521v-370h506v-201h-506v-395h521v-201zM514 1468q-47 0 -82 34t-35 81t35 82t82 35t81 -35t34 -82t-34 -81t-81 -34z" />
    <glyph glyph-name="edotaccent" unicode="&#x117;" horiz-adv-x="970" 
d="M516 -25q-202 0 -323 144.5t-121 376.5q0 144 50 261t148 187t226 70q130 0 224.5 -70t140.5 -187.5t46 -269.5v-59h-628q6 -126 74 -205.5t184 -79.5q60 0 120.5 28.5t102.5 78.5l98 -123q-63 -72 -152.5 -112t-189.5 -40zM709 573q-1 39 -8 76t-23.5 73.5t-40 64
t-60.5 44.5t-83 17q-55 0 -97.5 -25.5t-67.5 -68t-38 -88t-15 -93.5h433zM500 1126q-47 0 -82 34t-35 81t35 82t82 35t80.5 -34.5t33.5 -82.5q0 -47 -33.5 -81t-80.5 -34z" />
    <glyph glyph-name="Eogonek" unicode="&#x118;" horiz-adv-x="966" 
d="M879 0q-138 -82 -138 -203q0 -42 19 -64t49 -22q58 0 78 72l90 -51q-52 -113 -168 -113q-78 0 -127 43.5t-49 128.5q0 114 98 209h-600v1366h748v-199h-521v-370h506v-201h-506v-395h521v-201z" />
    <glyph glyph-name="eogonek" unicode="&#x119;" horiz-adv-x="970" 
d="M676 -217l90 -51q-52 -113 -168 -113q-78 0 -127 43.5t-49 128.5q0 101 74 184q-194 7 -309 150.5t-115 370.5q0 144 50 261t148 187t226 70q130 0 224.5 -70t140.5 -187.5t46 -269.5v-59h-628q6 -126 74 -205.5t184 -79.5q60 0 120.5 28.5t102.5 78.5l98 -123
q-77 -89 -190 -127q-138 -82 -138 -203q0 -42 19 -64t49 -22q58 0 78 72zM709 573q-1 39 -8 76t-23.5 73.5t-40 64t-60.5 44.5t-83 17q-55 0 -97.5 -25.5t-67.5 -68t-38 -88t-15 -93.5h433z" />
    <glyph glyph-name="Ecaron" unicode="&#x11a;" horiz-adv-x="966" 
d="M600 1481h-186l-168 295h123l137 -199l131 199h123zM879 0h-748v1366h748v-199h-521v-370h506v-201h-506v-395h521v-201z" />
    <glyph glyph-name="ecaron" unicode="&#x11b;" horiz-adv-x="970" 
d="M594 1139h-186l-168 295h122l138 -199l131 199h123zM516 -25q-202 0 -323 144.5t-121 376.5q0 144 50 261t148 187t226 70q130 0 224.5 -70t140.5 -187.5t46 -269.5v-59h-628q6 -126 74 -205.5t184 -79.5q60 0 120.5 28.5t102.5 78.5l98 -123q-63 -72 -152.5 -112
t-189.5 -40zM709 573q-1 39 -8 76t-23.5 73.5t-40 64t-60.5 44.5t-83 17q-55 0 -97.5 -25.5t-67.5 -68t-38 -88t-15 -93.5h433z" />
    <glyph glyph-name="Gcircumflex" unicode="&#x11c;" horiz-adv-x="1179" 
d="M897 1481h-123l-137 198l-131 -198h-123l162 295h186zM637 -27q-251 0 -404 195.5t-153 513.5t152.5 512.5t404.5 194.5q292 0 434 -291l-184 -86q-39 80 -102 128t-148 48q-147 0 -236.5 -137t-89.5 -369q0 -231 89.5 -368.5t236.5 -137.5q70 0 130 28t97 70v254h-286
v199h501v-543q-178 -211 -442 -211z" />
    <glyph glyph-name="gcircumflex" unicode="&#x11d;" horiz-adv-x="1009" 
d="M768 1139h-123l-137 198l-131 -198h-123l162 295h186zM463 -401q-109 0 -194 29t-156 96l84 157q101 -110 256 -110q101 0 167 60t66 187v142q-44 -75 -112.5 -118.5t-141.5 -43.5q-166 0 -263 135.5t-97 372.5q0 235 96.5 371.5t263.5 136.5q75 0 142.5 -40.5
t111.5 -117.5v133h203v-954q0 -99 -24 -176t-64 -125.5t-96.5 -79.5t-115 -43t-126.5 -12zM494 180q57 0 111 39t81 96v383q-27 57 -81 96.5t-111 39.5q-102 0 -156.5 -90t-54.5 -238q0 -147 54.5 -236.5t156.5 -89.5z" />
    <glyph glyph-name="Gbreve" unicode="&#x11e;" horiz-adv-x="1179" 
d="M637 -27q-251 0 -404 195.5t-153 513.5t152.5 512.5t404.5 194.5q292 0 434 -291l-184 -86q-39 80 -102 128t-148 48q-147 0 -236.5 -137t-89.5 -369q0 -231 89.5 -368.5t236.5 -137.5q70 0 130 28t97 70v254h-286v199h501v-543q-178 -211 -442 -211zM946 1604
q-53 -72 -133 -113t-172 -41q-91 0 -170.5 41t-134.5 113l96 77q35 -51 90 -79.5t119 -28.5t119 28.5t90 79.5z" />
    <glyph glyph-name="gbreve" unicode="&#x11f;" horiz-adv-x="1009" 
d="M463 -401q-109 0 -194 29t-156 96l84 157q101 -110 256 -110q101 0 167 60t66 187v142q-44 -75 -112.5 -118.5t-141.5 -43.5q-166 0 -263 135.5t-97 372.5q0 235 96.5 371.5t263.5 136.5q75 0 142.5 -40.5t111.5 -117.5v133h203v-954q0 -99 -24 -176t-64 -125.5
t-96.5 -79.5t-115 -43t-126.5 -12zM494 180q57 0 111 39t81 96v383q-27 57 -81 96.5t-111 39.5q-102 0 -156.5 -90t-54.5 -238q0 -147 54.5 -236.5t156.5 -89.5zM815 1262q-53 -72 -133 -113t-172 -41q-91 0 -170.5 41t-134.5 113l96 77q35 -51 90 -79.5t119 -28.5t119 28.5
t90 79.5z" />
    <glyph glyph-name="Gdotaccent" unicode="&#x120;" horiz-adv-x="1179" 
d="M637 -27q-251 0 -404 195.5t-153 513.5t152.5 512.5t404.5 194.5q292 0 434 -291l-184 -86q-39 80 -102 128t-148 48q-147 0 -236.5 -137t-89.5 -369q0 -231 89.5 -368.5t236.5 -137.5q70 0 130 28t97 70v254h-286v199h501v-543q-178 -211 -442 -211zM641 1468
q-47 0 -82 34t-35 81t35 82t82 35t81 -35t34 -82t-34 -81t-81 -34z" />
    <glyph glyph-name="gdotaccent" unicode="&#x121;" horiz-adv-x="1009" 
d="M463 -401q-109 0 -194 29t-156 96l84 157q101 -110 256 -110q101 0 167 60t66 187v142q-44 -75 -112.5 -118.5t-141.5 -43.5q-166 0 -263 135.5t-97 372.5q0 235 96.5 371.5t263.5 136.5q75 0 142.5 -40.5t111.5 -117.5v133h203v-954q0 -99 -24 -176t-64 -125.5
t-96.5 -79.5t-115 -43t-126.5 -12zM494 180q57 0 111 39t81 96v383q-27 57 -81 96.5t-111 39.5q-102 0 -156.5 -90t-54.5 -238q0 -147 54.5 -236.5t156.5 -89.5zM510 1126q-47 0 -82 34t-35 81t35 82t82 35t81 -35t34 -82t-34 -81t-81 -34z" />
    <glyph glyph-name="Gcommaaccent" unicode="&#x122;" horiz-adv-x="1179" 
d="M756 -283q0 -86 -43.5 -162t-114.5 -128l-78 61q45 28 81.5 77t43.5 93q-1 0 -12 -1t-15 -1q-42 0 -69 28t-27 72q0 46 31.5 78.5t77.5 32.5q52 0 88.5 -40.5t36.5 -109.5zM637 -27q-251 0 -404 195.5t-153 513.5t152.5 512.5t404.5 194.5q292 0 434 -291l-184 -86
q-39 80 -102 128t-148 48q-147 0 -236.5 -137t-89.5 -369q0 -231 89.5 -368.5t236.5 -137.5q70 0 130 28t97 70v254h-286v199h501v-543q-178 -211 -442 -211z" />
    <glyph glyph-name="gcommaaccent" unicode="&#x123;" horiz-adv-x="1009" 
d="M395 1251q0 94 41.5 175t110.5 128l78 -61q-45 -28 -82 -75t-41 -89l4 1q4 1 8 1q40 0 73.5 -31.5t33.5 -74.5q0 -45 -33 -78t-80 -33q-43 0 -78 34t-35 103zM463 -401q-109 0 -194 29t-156 96l84 157q101 -110 256 -110q101 0 167 60t66 187v142q-44 -75 -112.5 -118.5
t-141.5 -43.5q-166 0 -263 135.5t-97 372.5q0 235 96.5 371.5t263.5 136.5q75 0 142.5 -40.5t111.5 -117.5v133h203v-954q0 -99 -24 -176t-64 -125.5t-96.5 -79.5t-115 -43t-126.5 -12zM494 180q57 0 111 39t81 96v383q-27 57 -81 96.5t-111 39.5q-102 0 -156.5 -90
t-54.5 -238q0 -147 54.5 -236.5t156.5 -89.5z" />
    <glyph glyph-name="Hcircumflex" unicode="&#x124;" horiz-adv-x="1214" 
d="M862 1481h-123l-137 198l-131 -198h-123l162 295h186zM1085 0h-227v602h-500v-602h-227v1366h227v-563h500v563h227v-1366z" />
    <glyph glyph-name="hcircumflex" unicode="&#x125;" horiz-adv-x="993" 
d="M756 1481h-123l-137 198l-131 -198h-123l161 295h187zM872 0h-202v678q0 156 -144 156q-61 0 -114.5 -40t-85.5 -98v-696h-205v1366h205v-510q43 65 122 111.5t166 46.5q258 0 258 -266v-748z" />
    <glyph glyph-name="Hbar" unicode="&#x126;" horiz-adv-x="1269" 
d="M1114 0h-227v602h-500v-602h-227v1020h-131v123h131v223h227v-223h500v223h227v-223h115v-123h-115v-1020zM387 803h500v217h-500v-217z" />
    <glyph glyph-name="hbar" unicode="&#x127;" horiz-adv-x="1009" 
d="M621 1090h-279v-234q43 65 122.5 111.5t166.5 46.5q258 0 258 -266v-748h-203v678q0 156 -143 156q-61 0 -115 -40.5t-86 -97.5v-696h-205v1090h-108v122h108v154h205v-154h279v-122z" />
    <glyph glyph-name="Itilde" unicode="&#x128;" horiz-adv-x="489" 
d="M358 0h-227v1366h227v-1366zM348 1477q-43 0 -76.5 26t-50.5 56.5t-39 56.5t-45 26q-30 0 -49.5 -39t-19.5 -114h-111q0 125 49 199.5t139 74.5q35 0 62.5 -17t45.5 -41t33 -48t32.5 -41t37.5 -17q30 0 49 38.5t19 113.5h111q0 -125 -48.5 -199.5t-138.5 -74.5z" />
    <glyph glyph-name="itilde" unicode="&#x129;" horiz-adv-x="446" 
d="M326 0h-205v989h205v-989zM326 1135q-43 0 -76.5 26t-50.5 56.5t-39 56.5t-45 26q-30 0 -50 -39t-20 -114h-111q0 125 49.5 199.5t139.5 74.5q35 0 62.5 -17t45.5 -41t33 -48t32.5 -41t37.5 -17q30 0 48.5 38t18.5 114h111q0 -125 -48 -199.5t-138 -74.5z" />
    <glyph glyph-name="Imacron" unicode="&#x12a;" horiz-adv-x="489" 
d="M358 0h-227v1366h227v-1366zM561 1503h-633v123h633v-123z" />
    <glyph glyph-name="imacron" unicode="&#x12b;" horiz-adv-x="446" 
d="M326 0h-205v989h205v-989zM539 1161h-633v123h633v-123z" />
    <glyph glyph-name="Ibreve" unicode="&#x12c;" horiz-adv-x="489" 
d="M358 0h-227v1366h227v-1366zM551 1604q-53 -72 -133 -113t-172 -41q-91 0 -170.5 41t-134.5 113l96 77q35 -51 90 -79.5t119 -28.5t119 28.5t90 79.5z" />
    <glyph glyph-name="ibreve" unicode="&#x12d;" horiz-adv-x="446" 
d="M326 0h-205v989h205v-989zM528 1262q-53 -72 -133 -113t-172 -41q-91 0 -170.5 41t-134.5 113l96 77q35 -51 90 -79.5t119 -28.5t119 28.5t90 79.5z" />
    <glyph glyph-name="Iogonek" unicode="&#x12e;" horiz-adv-x="489" 
d="M367 -217l90 -51q-52 -113 -168 -113q-78 0 -127 43.5t-49 128.5q0 114 98 209h-80v1366h227v-1366q-137 -81 -137 -203q0 -42 19 -64t49 -22q58 0 78 72z" />
    <glyph glyph-name="iogonek" unicode="&#x12f;" horiz-adv-x="446" 
d="M334 -217l90 -51q-52 -113 -168 -113q-78 0 -127 43.5t-49 128.5q0 114 98 209h-57v989h205v-989q-138 -82 -138 -203q0 -42 19 -64t49 -22q58 0 78 72zM223 1114q-53 0 -91 37.5t-38 89.5q0 54 38 91.5t91 37.5t90 -37.5t37 -91.5q0 -53 -37 -90t-90 -37z" />
    <glyph glyph-name="Idotaccent" unicode="&#x130;" horiz-adv-x="489" 
d="M358 0h-227v1366h227v-1366zM248 1468q-47 0 -82 34t-35 81t35 82t82 35t80.5 -34.5t33.5 -82.5q0 -47 -33.5 -81t-80.5 -34z" />
    <glyph glyph-name="dotlessi" unicode="&#x131;" horiz-adv-x="446" 
d="M326 0h-205v989h205v-989z" />
    <glyph glyph-name="IJ" unicode="&#x132;" horiz-adv-x="1325" 
d="M358 0h-227v1366h227v-1366zM797 -25q-178 0 -291 113l88 178q78 -88 182 -88q91 0 143 53.5t52 151.5v983h227v-989q0 -200 -109 -301t-292 -101z" />
    <glyph glyph-name="ij" unicode="&#x133;" horiz-adv-x="890" 
d="M223 1114q-53 0 -91 37.5t-38 89.5q0 54 38 91.5t91 37.5t90 -37.5t37 -91.5q0 -53 -37 -90t-90 -37zM326 0h-205v989h205v-989zM670 1114q-53 0 -91 37.5t-38 89.5q0 54 38 91.5t91 37.5t90 -37.5t37 -91.5q0 -53 -37.5 -90t-89.5 -37zM485 -401q-61 0 -101.5 15
t-76.5 48l58 154q42 -45 96 -45q106 0 106 145v1073h205v-1073q0 -317 -287 -317z" />
    <glyph glyph-name="Jcircumflex" unicode="&#x134;" horiz-adv-x="837" 
d="M852 1481h-123l-137 198l-131 -198h-123l162 295h186zM307 -25q-178 0 -291 113l88 178q78 -88 183 -88q91 0 142.5 53.5t51.5 151.5v983h228v-989q0 -199 -109.5 -300.5t-292.5 -101.5z" />
    <glyph glyph-name="jcircumflex" unicode="&#x135;" horiz-adv-x="446" 
d="M483 1139h-123l-137 198l-131 -198h-123l162 295h186zM39 -401q-61 0 -101.5 15t-76.5 48l57 154q42 -45 96 -45q107 0 107 145v1073h205v-1073q0 -317 -287 -317z" />
    <glyph glyph-name="Kcommaaccent" unicode="&#x136;" horiz-adv-x="1103" 
d="M684 -283q0 -86 -43.5 -162t-114.5 -128l-77 61q45 28 81 77t43 93q-1 0 -11 -1t-15 -1q-42 0 -69 28t-27 72q0 46 31.5 78.5t76.5 32.5q52 0 88.5 -40.5t36.5 -109.5zM1081 0h-268l-352 563l-103 -155v-408h-227v1366h227v-657l424 657h267l-447 -645z" />
    <glyph glyph-name="kcommaaccent" unicode="&#x137;" horiz-adv-x="933" 
d="M598 -283q0 -86 -43.5 -162t-114.5 -128l-78 61q45 28 81.5 77t43.5 93q-1 0 -11 -1t-15 -1q-42 0 -69 28t-27 72q0 46 31.5 78.5t76.5 32.5q52 0 88.5 -40.5t36.5 -109.5zM918 0h-240l-234 414l-118 -160v-254h-205v1366h205v-862l348 485h237l-327 -444z" />
    <glyph glyph-name="kgreenlandic" unicode="&#x138;" horiz-adv-x="933" 
d="M918 0h-240l-234 414l-118 -160v-254h-205v989h205v-485l348 485h237l-327 -444z" />
    <glyph glyph-name="Lacute" unicode="&#x139;" horiz-adv-x="888" 
d="M791 1776l-275 -295h-139l225 295h189zM831 0h-700v1366h227v-1165h473v-201z" />
    <glyph glyph-name="lacute" unicode="&#x13a;" horiz-adv-x="446" 
d="M532 1776l-274 -295h-139l225 295h188zM326 0h-205v1366h205v-1366z" />
    <glyph glyph-name="Lcommaaccent" unicode="&#x13b;" horiz-adv-x="888" 
d="M575 -283q0 -86 -43 -162t-114 -128l-78 61q45 28 81.5 77t43.5 93q-1 0 -12 -1t-15 -1q-42 0 -69 28t-27 72q0 46 31.5 78.5t77.5 32.5q52 0 88 -40.5t36 -109.5zM831 0h-700v1366h227v-1165h473v-201z" />
    <glyph glyph-name="lcommaaccent" unicode="&#x13c;" horiz-adv-x="446" 
d="M354 -283q0 -86 -43 -162t-114 -128l-78 61q45 28 81.5 77t43.5 93q-2 0 -12 -1t-15 -1q-42 0 -69 28t-27 72q0 46 31.5 78.5t76.5 32.5q52 0 88.5 -40.5t36.5 -109.5zM326 0h-205v1366h205v-1366z" />
    <glyph glyph-name="Lcaron" unicode="&#x13d;" horiz-adv-x="888" 
d="M733 1243q0 -86 -43.5 -162.5t-114.5 -128.5l-77 62q45 28 81.5 77t43.5 93q-1 0 -12 -1t-15 -1q-42 0 -69 28t-27 72q0 46 31.5 78.5t76.5 32.5q52 0 88.5 -40.5t36.5 -109.5zM831 0h-700v1366h227v-1165h473v-201z" />
    <glyph glyph-name="lcaron" unicode="&#x13e;" horiz-adv-x="634" 
d="M676 1243q0 -86 -43.5 -162.5t-114.5 -128.5l-78 62q45 28 81.5 77t43.5 93q-1 0 -11 -1t-15 -1q-42 0 -69.5 28t-27.5 72q0 46 31.5 78.5t77.5 32.5q52 0 88.5 -40.5t36.5 -109.5zM326 0h-205v1366h205v-1366z" />
    <glyph glyph-name="Ldot" unicode="&#x13f;" horiz-adv-x="940" 
d="M831 0h-700v1366h227v-1165h473v-201zM850 700q0 -56 -40 -96.5t-97 -40.5t-97.5 40.5t-40.5 96.5t40.5 97t97.5 41t97 -41t40 -97z" />
    <glyph glyph-name="ldot" unicode="&#x140;" horiz-adv-x="694" 
d="M326 0h-205v1366h205v-1366zM707 502q0 -56 -40.5 -96.5t-97.5 -40.5t-97 40.5t-40 96.5t40 96.5t97 40.5t97.5 -40.5t40.5 -96.5z" />
    <glyph glyph-name="Lslash" unicode="&#x141;" horiz-adv-x="917" 
d="M29 446v189l131 76v655h227v-524l145 86v-191l-145 -84v-452h473v-201h-700v522z" />
    <glyph glyph-name="lslash" unicode="&#x142;" horiz-adv-x="544" 
d="M29 471v156l143 82v657h205v-541l139 80v-153l-139 -80v-672h-205v553z" />
    <glyph glyph-name="Nacute" unicode="&#x143;" horiz-adv-x="1212" 
d="M915 1776l-274 -295h-139l225 295h188zM1081 0h-217l-506 883v-883h-227v1366h229l494 -858v858h227v-1366z" />
    <glyph glyph-name="nacute" unicode="&#x144;" horiz-adv-x="993" 
d="M805 1434l-275 -295h-139l225 295h189zM872 0h-204v674q0 160 -142 160q-62 0 -116 -40.5t-84 -97.5v-696h-205v989h205v-133q43 65 121 111.5t165 46.5q131 0 195.5 -69.5t64.5 -199.5v-745z" />
    <glyph glyph-name="Ncommaaccent" unicode="&#x145;" horiz-adv-x="1212" 
d="M737 -283q0 -86 -43 -162t-114 -128l-78 61q45 28 81.5 77t43.5 93q-1 0 -12 -1t-15 -1q-42 0 -69 28t-27 72q0 46 31.5 78.5t76.5 32.5q52 0 88.5 -40.5t36.5 -109.5zM1081 0h-217l-506 883v-883h-227v1366h229l494 -858v858h227v-1366z" />
    <glyph glyph-name="ncommaaccent" unicode="&#x146;" horiz-adv-x="993" 
d="M623 -283q0 -86 -43.5 -162t-114.5 -128l-78 61q45 28 81.5 77t43.5 93q-2 0 -12.5 -1t-14.5 -1q-42 0 -69 28t-27 72q0 46 31.5 78.5t77.5 32.5q52 0 88.5 -40.5t36.5 -109.5zM872 0h-204v674q0 160 -142 160q-62 0 -116 -40.5t-84 -97.5v-696h-205v989h205v-133
q43 65 121 111.5t165 46.5q131 0 195.5 -69.5t64.5 -199.5v-745z" />
    <glyph glyph-name="Ncaron" unicode="&#x147;" horiz-adv-x="1212" 
d="M702 1481h-186l-168 295h123l137 -199l131 199h123zM1081 0h-217l-506 883v-883h-227v1366h229l494 -858v858h227v-1366z" />
    <glyph glyph-name="ncaron" unicode="&#x148;" horiz-adv-x="993" 
d="M594 1139h-186l-168 295h122l138 -199l131 199h123zM872 0h-204v674q0 160 -142 160q-62 0 -116 -40.5t-84 -97.5v-696h-205v989h205v-133q43 65 121 111.5t165 46.5q131 0 195.5 -69.5t64.5 -199.5v-745z" />
    <glyph glyph-name="napostrophe" unicode="&#x149;" horiz-adv-x="993" 
d="M326 1393q0 -86 -43.5 -162.5t-114.5 -128.5l-78 61q45 28 81.5 77t43.5 93q-1 0 -12 -1t-15 -1q-41 0 -68.5 28.5t-27.5 72.5q0 46 31.5 78t77.5 32q52 0 88.5 -40t36.5 -109zM872 0h-204v674q0 160 -142 160q-62 0 -116 -40.5t-84 -97.5v-696h-205v989h205v-133
q43 65 121 111.5t165 46.5q131 0 195.5 -69.5t64.5 -199.5v-745z" />
    <glyph glyph-name="Eng" unicode="&#x14a;" horiz-adv-x="1212" 
d="M682 -401q-184 0 -293 112l88 176q80 -90 185 -90q90 0 141 53.5t51 151.5v16l-496 906v-924h-227v1366h229l494 -899v899h227v-1368q0 -199 -108 -299t-291 -100z" />
    <glyph glyph-name="eng" unicode="&#x14b;" horiz-adv-x="993" 
d="M872 745v-829q0 -317 -286 -317q-60 0 -100 15t-76 48l57 160q40 -43 94 -43q50 0 78.5 34t28.5 103v758q0 160 -142 160q-62 0 -116 -40.5t-84 -97.5v-696h-205v989h205v-133q43 65 121 111.5t165 46.5q131 0 195.5 -69.5t64.5 -199.5z" />
    <glyph glyph-name="Omacron" unicode="&#x14c;" horiz-adv-x="1253" 
d="M942 1503h-633v123h633v-123zM627 -25q-169 0 -294.5 93.5t-189 252.5t-63.5 361t63.5 361t189 252.5t294.5 93.5t294.5 -93.5t189 -252.5t63.5 -361t-63.5 -361t-189 -252.5t-294.5 -93.5zM627 178q99 0 171 67.5t108 180.5t36 256q0 222 -83.5 364t-231.5 142
q-149 0 -232.5 -141.5t-83.5 -364.5q0 -143 35.5 -256t108 -180.5t172.5 -67.5z" />
    <glyph glyph-name="omacron" unicode="&#x14d;" horiz-adv-x="999" 
d="M817 1161h-633v123h633v-123zM500 -25q-102 0 -185 42t-135 114t-80 165.5t-28 199.5t28 199t80.5 164.5t135 113t184.5 41.5t184.5 -41.5t135 -113t80.5 -164.5t28 -199t-28 -199.5t-80 -165.5t-135 -114t-185 -42zM500 156q106 0 161.5 98t55.5 242t-55.5 241
t-161.5 97t-161.5 -97t-55.5 -241t55.5 -242t161.5 -98z" />
    <glyph glyph-name="Obreve" unicode="&#x14e;" horiz-adv-x="1253" 
d="M627 -25q-169 0 -294.5 93.5t-189 252.5t-63.5 361t63.5 361t189 252.5t294.5 93.5t294.5 -93.5t189 -252.5t63.5 -361t-63.5 -361t-189 -252.5t-294.5 -93.5zM627 178q99 0 171 67.5t108 180.5t36 256q0 222 -83.5 364t-231.5 142q-149 0 -232.5 -141.5t-83.5 -364.5
q0 -143 35.5 -256t108 -180.5t172.5 -67.5zM932 1604q-53 -72 -133 -113t-172 -41q-91 0 -170.5 41t-134.5 113l96 77q35 -51 90 -79.5t119 -28.5t119 28.5t90 79.5z" />
    <glyph glyph-name="obreve" unicode="&#x14f;" horiz-adv-x="999" 
d="M500 -25q-102 0 -185 42t-135 114t-80 165.5t-28 199.5t28 199t80.5 164.5t135 113t184.5 41.5t184.5 -41.5t135 -113t80.5 -164.5t28 -199t-28 -199.5t-80 -165.5t-135 -114t-185 -42zM500 156q106 0 161.5 98t55.5 242t-55.5 241t-161.5 97t-161.5 -97t-55.5 -241
t55.5 -242t161.5 -98zM805 1262q-53 -72 -133 -113t-172 -41q-91 0 -170.5 41t-134.5 113l96 77q35 -51 90 -79.5t119 -28.5t119 28.5t90 79.5z" />
    <glyph glyph-name="Ohungarumlaut" unicode="&#x150;" horiz-adv-x="1253" 
d="M723 1776l-199 -295h-116l149 295h166zM997 1776l-198 -295h-115l147 295h166zM627 -25q-169 0 -294.5 93.5t-189 252.5t-63.5 361t63.5 361t189 252.5t294.5 93.5t294.5 -93.5t189 -252.5t63.5 -361t-63.5 -361t-189 -252.5t-294.5 -93.5zM627 178q99 0 171 67.5
t108 180.5t36 256q0 222 -83.5 364t-231.5 142q-149 0 -232.5 -141.5t-83.5 -364.5q0 -143 35.5 -256t108 -180.5t172.5 -67.5z" />
    <glyph glyph-name="ohungarumlaut" unicode="&#x151;" horiz-adv-x="999" 
d="M596 1434l-199 -295h-116l149 295h166zM870 1434l-198 -295h-115l148 295h165zM500 -25q-102 0 -185 42t-135 114t-80 165.5t-28 199.5t28 199t80.5 164.5t135 113t184.5 41.5t184.5 -41.5t135 -113t80.5 -164.5t28 -199t-28 -199.5t-80 -165.5t-135 -114t-185 -42z
M500 156q106 0 161.5 98t55.5 242t-55.5 241t-161.5 97t-161.5 -97t-55.5 -241t55.5 -242t161.5 -98z" />
    <glyph glyph-name="OE" unicode="&#x152;" horiz-adv-x="1751" 
d="M1665 0h-747v158q-52 -91 -140 -137t-182 -46q-160 0 -278.5 93.5t-178 252.5t-59.5 361q0 203 59.5 361t178 250.5t278.5 92.5q94 0 182 -44t140 -134v158h747v-199h-520v-370h506v-201h-506v-395h520v-201zM918 422v520q-38 118 -113.5 181t-173.5 63
q-153 0 -236.5 -140t-83.5 -364q0 -145 35.5 -257.5t108.5 -179.5t176 -67q98 0 173.5 63.5t113.5 180.5z" />
    <glyph glyph-name="oe" unicode="&#x153;" horiz-adv-x="1613" 
d="M1550 428h-626q6 -126 73 -205.5t183 -79.5q61 0 121 28.5t102 78.5l100 -123q-65 -72 -154 -112t-188 -40q-229 0 -340 224q-105 -224 -321 -224q-102 0 -185 42t-135 114t-80 165.5t-28 199.5t28 199t80.5 164.5t135 113t184.5 41.5q217 0 321 -221q45 97 124.5 159
t195.5 62q130 0 224 -70.5t139.5 -188.5t45.5 -270v-57zM922 573h432q-1 39 -8.5 76t-24 74t-40 64t-61 44t-83.5 17q-54 0 -96.5 -25.5t-67 -67.5t-37 -88t-14.5 -94zM717 496q0 145 -56 241.5t-161 96.5q-104 0 -160.5 -96.5t-56.5 -241.5t56.5 -242.5t160.5 -97.5
q71 0 121 48t73 123t23 169z" />
    <glyph glyph-name="Racute" unicode="&#x154;" horiz-adv-x="1091" 
d="M870 1776l-274 -295h-139l225 295h188zM1012 0h-254l-232 516h-168v-516h-227v1366h471q177 0 287 -116.5t110 -305.5q0 -86 -22 -156.5t-59 -116.5t-79.5 -74.5t-90.5 -41.5zM569 717q90 0 144.5 61.5t54.5 163.5t-54.5 163.5t-144.5 61.5h-211v-450h211z" />
    <glyph glyph-name="racute" unicode="&#x155;" horiz-adv-x="630" 
d="M670 1434l-275 -295h-139l225 295h189zM326 0h-205v989h205v-145q44 74 117.5 121t154.5 47v-203q-24 6 -53 6q-62 0 -125 -40t-94 -97v-678z" />
    <glyph glyph-name="Rcommaaccent" unicode="&#x156;" horiz-adv-x="1091" 
d="M678 -283q0 -86 -43.5 -162t-114.5 -128l-78 61q45 28 81.5 77t43.5 93q-1 0 -11 -1t-15 -1q-42 0 -69.5 28t-27.5 72q0 46 31.5 78.5t77.5 32.5q52 0 88.5 -40.5t36.5 -109.5zM1012 0h-254l-232 516h-168v-516h-227v1366h471q177 0 287 -116.5t110 -305.5
q0 -86 -22 -156.5t-59 -116.5t-79.5 -74.5t-90.5 -41.5zM569 717q90 0 144.5 61.5t54.5 163.5t-54.5 163.5t-144.5 61.5h-211v-450h211z" />
    <glyph glyph-name="rcommaaccent" unicode="&#x157;" horiz-adv-x="630" 
d="M444 -283q0 -86 -43 -162t-114 -128l-78 61q45 28 81.5 77t43.5 93q-2 0 -12 -1t-15 -1q-42 0 -69 28t-27 72q0 46 31.5 78.5t76.5 32.5q52 0 88.5 -40.5t36.5 -109.5zM326 0h-205v989h205v-145q44 74 117.5 121t154.5 47v-203q-24 6 -53 6q-62 0 -125 -40t-94 -97v-678z
" />
    <glyph glyph-name="Rcaron" unicode="&#x158;" horiz-adv-x="1091" 
d="M643 1481h-186l-168 295h123l137 -199l131 199h123zM1012 0h-254l-232 516h-168v-516h-227v1366h471q177 0 287 -116.5t110 -305.5q0 -86 -22 -156.5t-59 -116.5t-79.5 -74.5t-90.5 -41.5zM569 717q90 0 144.5 61.5t54.5 163.5t-54.5 163.5t-144.5 61.5h-211v-450h211z
" />
    <glyph glyph-name="rcaron" unicode="&#x159;" horiz-adv-x="630" 
d="M453 1139h-187l-168 295h123l137 -199l131 199h123zM326 0h-205v989h205v-145q44 74 117.5 121t154.5 47v-203q-24 6 -53 6q-62 0 -125 -40t-94 -97v-678z" />
    <glyph glyph-name="Sacute" unicode="&#x15a;" horiz-adv-x="995" 
d="M807 1776l-275 -295h-139l225 295h189zM485 -25q-275 0 -440 175l115 176q59 -67 143.5 -107.5t181.5 -40.5q101 0 157 52t56 128q0 57 -34 100t-87.5 72.5t-119 57.5t-131 62.5t-119 78.5t-87.5 115.5t-34 163.5q0 163 117 272t307 109q239 0 393 -148l-110 -172
q-117 117 -289 117q-84 0 -135.5 -45.5t-51.5 -120.5q0 -49 34 -88t88 -66.5t119 -55.5t130.5 -64.5t119.5 -82.5t88 -119.5t34 -166.5q0 -175 -116.5 -288.5t-328.5 -113.5z" />
    <glyph glyph-name="sacute" unicode="&#x15b;" horiz-adv-x="821" 
d="M723 1434l-274 -295h-140l226 295h188zM406 -25q-230 0 -363 142l92 143q47 -52 120 -87.5t146 -35.5q76 0 120 35t44 94q0 34 -21 60t-55.5 42.5t-78.5 34.5t-89.5 33.5t-89.5 41t-78.5 57t-55.5 82t-21 114.5q0 120 91.5 201.5t248.5 81.5q195 0 325 -127l-86 -139
q-38 46 -101 75t-134 29q-68 0 -110 -32.5t-42 -82.5q0 -35 27 -61t70.5 -44t96 -36t105 -43.5t96 -59.5t70.5 -91t27 -132q0 -129 -97 -212t-257 -83z" />
    <glyph glyph-name="Scircumflex" unicode="&#x15c;" horiz-adv-x="995" 
d="M764 1481h-123l-137 198l-131 -198h-123l162 295h186zM485 -25q-275 0 -440 175l115 176q59 -67 143.5 -107.5t181.5 -40.5q101 0 157 52t56 128q0 57 -34 100t-87.5 72.5t-119 57.5t-131 62.5t-119 78.5t-87.5 115.5t-34 163.5q0 163 117 272t307 109q239 0 393 -148
l-110 -172q-117 117 -289 117q-84 0 -135.5 -45.5t-51.5 -120.5q0 -49 34 -88t88 -66.5t119 -55.5t130.5 -64.5t119.5 -82.5t88 -119.5t34 -166.5q0 -175 -116.5 -288.5t-328.5 -113.5z" />
    <glyph glyph-name="scircumflex" unicode="&#x15d;" horiz-adv-x="821" 
d="M670 1139h-123l-137 198l-131 -198h-123l161 295h187zM406 -25q-230 0 -363 142l92 143q47 -52 120 -87.5t146 -35.5q76 0 120 35t44 94q0 34 -21 60t-55.5 42.5t-78.5 34.5t-89.5 33.5t-89.5 41t-78.5 57t-55.5 82t-21 114.5q0 120 91.5 201.5t248.5 81.5
q195 0 325 -127l-86 -139q-38 46 -101 75t-134 29q-68 0 -110 -32.5t-42 -82.5q0 -35 27 -61t70.5 -44t96 -36t105 -43.5t96 -59.5t70.5 -91t27 -132q0 -129 -97 -212t-257 -83z" />
    <glyph glyph-name="Scedilla" unicode="&#x15e;" horiz-adv-x="995" 
d="M471 -397q-114 0 -192 63l43 90q69 -57 145 -57q42 0 72 20.5t30 55.5q0 28 -16 44.5t-45 16.5q-37 0 -62 -29l-79 46l47 127q-229 20 -369 170l115 176q59 -67 143.5 -107.5t181.5 -40.5q101 0 157 52t56 128q0 57 -34 100t-87.5 72.5t-119 57.5t-131 62.5t-119 78.5
t-87.5 115.5t-34 163.5q0 163 117 272t307 109q239 0 393 -148l-110 -172q-117 117 -289 117q-84 0 -135.5 -45.5t-51.5 -120.5q0 -49 34 -88t88 -66.5t119 -55.5t130.5 -64.5t119.5 -82.5t88 -119.5t34 -166.5q0 -168 -107 -279.5t-303 -120.5l-35 -88q30 23 66 23
q55 0 91 -39t36 -100q0 -75 -59.5 -122.5t-147.5 -47.5z" />
    <glyph glyph-name="scedilla" unicode="&#x15f;" horiz-adv-x="821" 
d="M397 -397q-114 0 -192 63l43 90q69 -57 145 -57q42 0 72.5 20.5t30.5 55.5q0 28 -16.5 44.5t-45.5 16.5q-36 0 -61 -29l-80 46l47 127q-187 18 -297 137l92 143q47 -52 120 -87.5t146 -35.5q76 0 120 35t44 94q0 34 -21 60t-55.5 42.5t-78.5 34.5t-89.5 33.5t-89.5 41
t-78.5 57t-55.5 82t-21 114.5q0 120 91.5 201.5t248.5 81.5q195 0 325 -127l-86 -139q-38 46 -101 75t-134 29q-68 0 -110 -32.5t-42 -82.5q0 -35 27 -61t70.5 -44t96 -36t105 -43.5t96 -59.5t70.5 -91t27 -132q0 -121 -85 -201t-229 -92l-34 -88q30 23 65 23q55 0 91 -39
t36 -100q0 -75 -59.5 -122.5t-147.5 -47.5z" />
    <glyph glyph-name="Scaron" unicode="&#x160;" horiz-adv-x="995" 
d="M604 1481h-186l-168 295h123l137 -199l131 199h123zM485 -25q-275 0 -440 175l115 176q59 -67 143.5 -107.5t181.5 -40.5q101 0 157 52t56 128q0 57 -34 100t-87.5 72.5t-119 57.5t-131 62.5t-119 78.5t-87.5 115.5t-34 163.5q0 163 117 272t307 109q239 0 393 -148
l-110 -172q-117 117 -289 117q-84 0 -135.5 -45.5t-51.5 -120.5q0 -49 34 -88t88 -66.5t119 -55.5t130.5 -64.5t119.5 -82.5t88 -119.5t34 -166.5q0 -175 -116.5 -288.5t-328.5 -113.5z" />
    <glyph glyph-name="scaron" unicode="&#x161;" horiz-adv-x="821" 
d="M510 1139h-186l-168 295h123l137 -199l131 199h123zM406 -25q-230 0 -363 142l92 143q47 -52 120 -87.5t146 -35.5q76 0 120 35t44 94q0 34 -21 60t-55.5 42.5t-78.5 34.5t-89.5 33.5t-89.5 41t-78.5 57t-55.5 82t-21 114.5q0 120 91.5 201.5t248.5 81.5q195 0 325 -127
l-86 -139q-38 46 -101 75t-134 29q-68 0 -110 -32.5t-42 -82.5q0 -35 27 -61t70.5 -44t96 -36t105 -43.5t96 -59.5t70.5 -91t27 -132q0 -129 -97 -212t-257 -83z" />
    <glyph glyph-name="Tcommaaccent" unicode="&#x162;" horiz-adv-x="946" 
d="M602 -283q0 -86 -43.5 -162t-114.5 -128l-77 61q45 28 81.5 77t43.5 93q-2 0 -12.5 -1t-14.5 -1q-42 0 -69 28t-27 72q0 46 31.5 78.5t76.5 32.5q52 0 88.5 -40.5t36.5 -109.5zM586 0h-226v1167h-313v199h852v-199h-313v-1167z" />
    <glyph glyph-name="tcommaaccent" unicode="&#x163;" horiz-adv-x="579" 
d="M420 -283q0 -86 -43.5 -162t-114.5 -128l-78 61q45 28 81.5 77t43.5 93q-1 0 -11 -1t-15 -1q-42 0 -69.5 28t-27.5 72q0 46 31.5 78.5t77.5 32.5q52 0 88.5 -40.5t36.5 -109.5zM387 -25q-229 0 -229 246v590h-129v178h129v271h204v-271h164v-178h-164v-547
q0 -108 76 -108q53 0 78 32l49 -153q-60 -60 -178 -60z" />
    <glyph glyph-name="Tcaron" unicode="&#x164;" horiz-adv-x="946" 
d="M569 1481h-186l-168 295h123l137 -199l131 199h123zM586 0h-226v1167h-313v199h852v-199h-313v-1167z" />
    <glyph glyph-name="tcaron" unicode="&#x165;" horiz-adv-x="612" 
d="M698 1393q0 -86 -43 -162.5t-114 -128.5l-78 61q45 28 81.5 77t43.5 93q-2 0 -12 -1t-15 -1q-41 0 -68.5 28.5t-27.5 72.5q0 46 31 78t77 32q52 0 88.5 -40t36.5 -109zM387 -25q-229 0 -229 246v590h-129v178h129v271h204v-271h164v-178h-164v-547q0 -108 76 -108
q53 0 78 32l49 -153q-60 -60 -178 -60z" />
    <glyph glyph-name="Tbar" unicode="&#x166;" horiz-adv-x="946" 
d="M586 0h-226v571h-219v123h219v473h-313v199h852v-199h-313v-473h211v-123h-211v-571z" />
    <glyph glyph-name="tbar" unicode="&#x167;" horiz-adv-x="579" 
d="M387 -25q-229 0 -229 246v225h-129v123h129v242h-129v178h129v271h204v-271h164v-178h-164v-242h105v-123h-105v-182q0 -108 76 -108q53 0 78 32l49 -153q-60 -60 -178 -60z" />
    <glyph glyph-name="Utilde" unicode="&#x168;" horiz-adv-x="1212" 
d="M606 -25q-223 0 -349 127t-126 357v907h227v-909q0 -136 64.5 -208.5t183.5 -72.5t183.5 72.5t64.5 208.5v909h227v-907q0 -230 -126 -357t-349 -127zM713 1477q-43 0 -76.5 26t-50.5 56.5t-39 56.5t-45 26q-30 0 -50 -39t-20 -114h-110q0 125 49 199.5t139 74.5
q35 0 62.5 -17t45.5 -41t33 -48t32.5 -41t37.5 -17q30 0 48.5 38t18.5 114h111q0 -125 -48 -199.5t-138 -74.5z" />
    <glyph glyph-name="utilde" unicode="&#x169;" horiz-adv-x="993" 
d="M872 0h-204v131q-45 -66 -122 -111t-167 -45q-258 0 -258 267v747h205v-676q0 -83 36 -120t105 -37q61 0 115 39t86 96v698h204v-989zM598 1135q-43 0 -76.5 26t-50.5 56.5t-39 56.5t-45 26q-30 0 -50 -39t-20 -114h-110q0 125 49 199.5t139 74.5q35 0 62.5 -17t45.5 -41
t33 -48t32.5 -41t37.5 -17q30 0 49 38.5t19 113.5h110q0 -125 -48 -199.5t-138 -74.5z" />
    <glyph glyph-name="Umacron" unicode="&#x16a;" horiz-adv-x="1212" 
d="M606 -25q-223 0 -349 127t-126 357v907h227v-909q0 -136 64.5 -208.5t183.5 -72.5t183.5 72.5t64.5 208.5v909h227v-907q0 -230 -126 -357t-349 -127zM924 1503h-633v123h633v-123z" />
    <glyph glyph-name="umacron" unicode="&#x16b;" horiz-adv-x="993" 
d="M872 0h-204v131q-45 -66 -122 -111t-167 -45q-258 0 -258 267v747h205v-676q0 -83 36 -120t105 -37q61 0 115 39t86 96v698h204v-989zM813 1161h-633v123h633v-123z" />
    <glyph glyph-name="Ubreve" unicode="&#x16c;" horiz-adv-x="1212" 
d="M606 -25q-223 0 -349 127t-126 357v907h227v-909q0 -136 64.5 -208.5t183.5 -72.5t183.5 72.5t64.5 208.5v909h227v-907q0 -230 -126 -357t-349 -127zM915 1604q-53 -72 -133 -113t-172 -41q-91 0 -170.5 41t-134.5 113l96 77q35 -51 90 -79.5t119 -28.5t119 28.5
t90 79.5z" />
    <glyph glyph-name="ubreve" unicode="&#x16d;" horiz-adv-x="993" 
d="M872 0h-204v131q-45 -66 -122 -111t-167 -45q-258 0 -258 267v747h205v-676q0 -83 36 -120t105 -37q61 0 115 39t86 96v698h204v-989zM803 1262q-53 -72 -133 -113t-172 -41q-91 0 -170.5 41t-134.5 113l96 77q35 -51 90 -79.5t119 -28.5t119 28.5t90 79.5z" />
    <glyph glyph-name="Uring" unicode="&#x16e;" horiz-adv-x="1212" 
d="M608 1430q-78 0 -135 57.5t-57 136.5q0 78 57 135.5t135 57.5q79 0 136 -57.5t57 -135.5q0 -80 -57 -137t-136 -57zM608 1526q41 0 69 29t28 69t-28 68t-69 28q-39 0 -67.5 -28.5t-28.5 -67.5q0 -40 29 -69t67 -29zM606 -25q-223 0 -349 127t-126 357v907h227v-909
q0 -136 64.5 -208.5t183.5 -72.5t183.5 72.5t64.5 208.5v909h227v-907q0 -230 -126 -357t-349 -127z" />
    <glyph glyph-name="uring" unicode="&#x16f;" horiz-adv-x="993" 
d="M498 1102q-78 0 -135.5 57.5t-57.5 136.5q0 78 57.5 135.5t135.5 57.5q79 0 135.5 -57.5t56.5 -135.5q0 -80 -56.5 -137t-135.5 -57zM498 1198q41 0 68.5 29t27.5 69t-27.5 68.5t-68.5 28.5q-39 0 -68 -29t-29 -68q0 -40 29.5 -69t67.5 -29zM872 0h-204v131
q-45 -66 -122 -111t-167 -45q-258 0 -258 267v747h205v-676q0 -83 36 -120t105 -37q61 0 115 39t86 96v698h204v-989z" />
    <glyph glyph-name="Uhungarumlaut" unicode="&#x170;" horiz-adv-x="1212" 
d="M606 -25q-223 0 -349 127t-126 357v907h227v-909q0 -136 64.5 -208.5t183.5 -72.5t183.5 72.5t64.5 208.5v909h227v-907q0 -230 -126 -357t-349 -127zM705 1776l-199 -295h-117l150 295h166zM979 1776l-199 -295h-114l147 295h166z" />
    <glyph glyph-name="uhungarumlaut" unicode="&#x171;" horiz-adv-x="993" 
d="M872 0h-204v131q-45 -66 -122 -111t-167 -45q-258 0 -258 267v747h205v-676q0 -83 36 -120t105 -37q61 0 115 39t86 96v698h204v-989zM594 1434l-199 -295h-116l149 295h166zM868 1434l-198 -295h-115l147 295h166z" />
    <glyph glyph-name="Uogonek" unicode="&#x172;" horiz-adv-x="1212" 
d="M606 -25q-223 0 -349 127t-126 357v907h227v-909q0 -136 64.5 -208.5t183.5 -72.5t183.5 72.5t64.5 208.5v909h227v-907q0 -180 -78 -298t-221 -161q-137 -81 -137 -203q0 -42 19 -64t49 -22q58 0 78 72l90 -51q-52 -113 -168 -113q-78 0 -127 43.5t-49 128.5
q0 102 73 184h-4z" />
    <glyph glyph-name="uogonek" unicode="&#x173;" horiz-adv-x="993" 
d="M872 0q-137 -81 -137 -203q0 -42 19 -64t49 -22q58 0 78 72l90 -51q-52 -113 -168 -113q-78 0 -127 43.5t-49 128.5q0 114 98 209h-57v131q-45 -66 -122 -111t-167 -45q-258 0 -258 267v747h205v-676q0 -83 36 -120t105 -37q61 0 115 39t86 96v698h204v-989z" />
    <glyph glyph-name="Wcircumflex" unicode="&#x174;" horiz-adv-x="1525" 
d="M1020 1481h-123l-137 198l-131 -198h-123l162 295h186zM1196 0h-238l-196 981l-195 -981h-237l-310 1366h244l197 -1020l211 1020h182l213 -1020l195 1020h243z" />
    <glyph glyph-name="wcircumflex" unicode="&#x175;" horiz-adv-x="1366" 
d="M942 1139h-123l-137 198l-131 -198h-123l162 295h186zM1087 0h-213l-190 727l-192 -727h-213l-265 989h211l172 -721l189 721h188l193 -721l174 721h211z" />
    <glyph glyph-name="Ycircumflex" unicode="&#x176;" horiz-adv-x="1067" 
d="M793 1481h-123l-138 198l-131 -198h-122l161 295h187zM647 0h-225v569l-424 797h252l285 -584l284 584h250l-422 -797v-569z" />
    <glyph glyph-name="ycircumflex" unicode="&#x177;" horiz-adv-x="880" 
d="M86 -387l31 180q25 -14 65 -14q42 0 69 18.5t44 63.5l41 119l-332 1009h217l219 -743l222 743h217l-392 -1175q-39 -119 -109.5 -167t-180.5 -48q-64 0 -111 14zM702 1139h-122l-138 198l-131 -198h-123l162 295h187z" />
    <glyph glyph-name="Ydieresis" unicode="&#x178;" horiz-adv-x="1067" 
d="M840 1585q0 -47 -35 -81t-82 -34t-81 34t-34 81t34 81t81 34t82 -34t35 -81zM467 1585q0 -47 -34 -81t-81 -34t-81.5 34t-34.5 81t34.5 81t81.5 34t81 -34t34 -81zM647 0h-225v569l-424 797h252l285 -584l284 584h250l-422 -797v-569z" />
    <glyph glyph-name="Zacute" unicode="&#x179;" horiz-adv-x="972" 
d="M795 1776l-275 -295h-139l225 295h189zM895 0h-817v188l528 979h-528v199h803v-184l-531 -981h545v-201z" />
    <glyph glyph-name="zacute" unicode="&#x17a;" horiz-adv-x="817" 
d="M717 1434l-275 -295h-139l225 295h189zM737 0h-659v156l395 655h-395v178h651v-149l-395 -662h403v-178z" />
    <glyph glyph-name="Zdotaccent" unicode="&#x17b;" horiz-adv-x="972" 
d="M895 0h-817v188l528 979h-528v199h803v-184l-531 -981h545v-201zM481 1468q-47 0 -81.5 34t-34.5 81t34.5 82t81.5 35t81 -35t34 -82t-34 -81t-81 -34z" />
    <glyph glyph-name="zdotaccent" unicode="&#x17c;" horiz-adv-x="817" 
d="M737 0h-659v156l395 655h-395v178h651v-149l-395 -662h403v-178zM406 1126q-47 0 -82 34t-35 81t35 82t82 35t80.5 -34.5t33.5 -82.5q0 -47 -33.5 -81t-80.5 -34z" />
    <glyph glyph-name="Zcaron" unicode="&#x17d;" horiz-adv-x="972" 
d="M580 1481h-187l-168 295h123l137 -199l131 199h123zM895 0h-817v188l528 979h-528v199h803v-184l-531 -981h545v-201z" />
    <glyph glyph-name="zcaron" unicode="&#x17e;" horiz-adv-x="817" 
d="M500 1139h-187l-168 295h123l138 -199l131 199h122zM737 0h-659v156l395 655h-395v178h651v-149l-395 -662h403v-178z" />
    <glyph glyph-name="longs" unicode="&#x17f;" horiz-adv-x="561" 
d="M367 0h-205v811h-129v178h129v92q0 144 74 224.5t204 80.5q127 0 199 -69l-70 -150q-39 39 -92 39t-81.5 -33t-28.5 -92v-1081z" />
    <glyph glyph-name="florin" unicode="&#x192;" horiz-adv-x="847" 
d="M264 -330h-231l184 836h-106v180h147l92 418q28 127 122 204.5t216 77.5q124 0 186 -65l-81 -170q-27 37 -80 37t-91 -36t-51 -99l-82 -367h213v-180h-253z" />
    <glyph glyph-name="Ohorn" unicode="&#x1a0;" horiz-adv-x="1253" 
d="M627 -25q-169 0 -294.5 93.5t-189 252.5t-63.5 361t63.5 361t189 252.5t294.5 93.5q259 0 411 -215q73 66 82 137q-4 -4 -24 -4q-38 0 -63 26.5t-25 67.5q0 42 29 71t71 29q47 0 80 -38t33 -101q0 -76 -38 -146.5t-100 -117.5q91 -187 91 -416q0 -202 -63.5 -361
t-189 -252.5t-294.5 -93.5zM627 178q99 0 171 67.5t108 180.5t36 256q0 222 -83.5 364t-231.5 142q-149 0 -232.5 -141.5t-83.5 -364.5q0 -143 35.5 -256t108 -180.5t172.5 -67.5z" />
    <glyph glyph-name="ohorn" unicode="&#x1a1;" horiz-adv-x="999" 
d="M954 1087q0 -71 -32.5 -136t-87.5 -113q94 -142 94 -342q0 -106 -28 -199.5t-80 -165.5t-135 -114t-185 -42t-185 42t-135 114t-80 165.5t-28 199.5t28 199t80.5 164.5t135 113t184.5 41.5q164 0 276 -109q69 66 78 131q-4 -4 -25 -4q-38 0 -63 26.5t-25 67.5
q0 42 29.5 71.5t71.5 29.5q46 0 79 -38t33 -102zM500 156q106 0 161.5 98t55.5 242t-55.5 241t-161.5 97t-161.5 -97t-55.5 -241t55.5 -242t161.5 -98z" />
    <glyph glyph-name="Uhorn" unicode="&#x1af;" horiz-adv-x="1212" 
d="M1292 1491q0 -91 -55 -174.5t-156 -134.5v-723q0 -230 -126 -357t-349 -127t-349 127t-126 357v907h227v-909q0 -136 64.5 -208.5t183.5 -72.5t183.5 72.5t64.5 208.5v909h227v-88q42 30 73.5 75t37.5 87q-8 -4 -25 -4q-38 0 -63 26.5t-25 67.5q0 40 29 69t70 29
q48 0 81 -37t33 -100z" />
    <glyph glyph-name="uhorn" unicode="&#x1b0;" horiz-adv-x="993" 
d="M872 0h-204v131q-45 -66 -122 -111t-167 -45q-258 0 -258 267v747h205v-676q0 -83 36 -120t105 -37q61 0 115 39t86 96v698h204v-49q54 61 60 115l-10 -1q-10 -1 -15 -1q-39 0 -64.5 25.5t-25.5 66.5t30 70.5t71 29.5q48 0 81 -37t33 -100q0 -78 -41.5 -152t-118.5 -127
v-829z" />
    <glyph glyph-name="AEacute" unicode="&#x1fc;" horiz-adv-x="1581" 
d="M1174 1776l-275 -295h-139l225 295h189zM1495 0h-747v270h-375l-121 -270h-244l645 1366h842v-199h-520v-370h506v-201h-506v-395h520v-201zM748 471v653l-291 -653h291z" />
    <glyph glyph-name="aeacute" unicode="&#x1fd;" horiz-adv-x="1525" 
d="M1044 1434l-274 -295h-139l225 295h188zM1460 428h-600q8 -127 71 -205t173 -78q57 0 114.5 28.5t96.5 78.5l98 -125q-62 -71 -149.5 -111.5t-176.5 -40.5q-113 0 -191.5 45t-133.5 136q-51 -79 -141.5 -130t-204.5 -51q-153 0 -249.5 86.5t-96.5 239.5q0 151 88.5 238.5
t224.5 87.5q83 0 158 -30t121 -87v141q0 89 -54 139t-151 50q-143 0 -262 -113l-80 143q72 72 167.5 108t192.5 36q112 0 189 -47.5t106 -126.5q49 80 119 127t184 47q123 0 211.5 -70.5t132 -188.5t43.5 -270v-57zM860 573h404q-1 49 -12 95.5t-33.5 88t-62.5 66.5t-93 25
q-52 0 -92 -25.5t-63 -67.5t-34.5 -88t-13.5 -94zM662 342v33q-34 51 -88.5 80.5t-114.5 29.5q-83 0 -134 -46.5t-51 -125.5q0 -83 50.5 -127.5t134.5 -44.5q83 0 143 62t60 139z" />
    <glyph glyph-name="Oslashacute" unicode="&#x1fe;" horiz-adv-x="1253" 
d="M936 1776l-274 -295h-140l226 295h188zM627 -25q-163 0 -291 91l-39 -66h-156l95 162q-156 198 -156 520q0 202 63.5 361t189 252.5t294.5 93.5q157 0 282 -86l37 63h154l-90 -156q80 -95 122 -231t42 -297q0 -202 -63.5 -361t-189 -252.5t-294.5 -93.5zM627 178
q99 0 171 67.5t108 180.5t36 256q0 185 -59 315l-437 -745q74 -74 181 -74zM311 682q0 -173 54 -303l436 739q-73 70 -174 70q-149 0 -232.5 -141.5t-83.5 -364.5z" />
    <glyph glyph-name="oslashacute" unicode="&#x1ff;" horiz-adv-x="999" 
d="M809 1434l-274 -295h-140l226 295h188zM217 0h-125l88 129q-108 141 -108 367q0 106 28 199t80.5 164.5t135 113t184.5 41.5q132 0 239 -76l35 51h127l-86 -125q113 -144 113 -368q0 -106 -28 -199.5t-80 -165.5t-135 -114t-185 -42q-142 0 -246 80zM500 156
q106 0 161.5 98t55.5 242q0 102 -31 184l-321 -465q56 -59 135 -59zM283 496q0 -104 26 -181l320 463q-53 56 -129 56q-106 0 -161.5 -97t-55.5 -241z" />
    <glyph glyph-name="Scommaaccent" unicode="&#x218;" horiz-adv-x="995" 
d="M618 -283q0 -86 -43 -162t-114 -128l-78 61q45 28 81.5 77t43.5 93q-2 0 -12 -1t-15 -1q-42 0 -69 28t-27 72q0 46 31.5 78.5t77.5 32.5q52 0 88 -40.5t36 -109.5zM485 -25q-275 0 -440 175l115 176q59 -67 143.5 -107.5t181.5 -40.5q101 0 157 52t56 128q0 57 -34 100
t-87.5 72.5t-119 57.5t-131 62.5t-119 78.5t-87.5 115.5t-34 163.5q0 163 117 272t307 109q239 0 393 -148l-110 -172q-117 117 -289 117q-84 0 -135.5 -45.5t-51.5 -120.5q0 -49 34 -88t88 -66.5t119 -55.5t130.5 -64.5t119.5 -82.5t88 -119.5t34 -166.5
q0 -175 -116.5 -288.5t-328.5 -113.5z" />
    <glyph glyph-name="scommaaccent" unicode="&#x219;" horiz-adv-x="823" 
d="M545 -283q0 -86 -43.5 -162t-114.5 -128l-78 61q45 28 81.5 77t43.5 93q-2 0 -12 -1t-14 -1q-42 0 -69.5 28t-27.5 72q0 46 31.5 78.5t77.5 32.5q52 0 88.5 -40.5t36.5 -109.5zM406 -25q-230 0 -363 142l92 143q47 -52 120 -87.5t146 -35.5q76 0 120 35t44 94
q0 34 -21 60t-55.5 42.5t-78.5 34.5t-89.5 33.5t-89.5 41t-78.5 57t-55.5 82t-21 114.5q0 120 91.5 201.5t248.5 81.5q195 0 325 -127l-86 -139q-38 46 -101 75t-134 29q-68 0 -110 -32.5t-42 -82.5q0 -35 27 -61t70.5 -44t96 -36t105 -43.5t96 -59.5t70.5 -91t27 -132
q0 -129 -97 -212t-257 -83z" />
    <glyph glyph-name="uni021A" unicode="&#x21a;" horiz-adv-x="946" 
d="M602 -283q0 -86 -43.5 -162t-114.5 -128l-77 61q45 28 81.5 77t43.5 93q-2 0 -12.5 -1t-14.5 -1q-42 0 -69 28t-27 72q0 46 31.5 78.5t76.5 32.5q52 0 88.5 -40.5t36.5 -109.5zM586 0h-226v1167h-313v199h852v-199h-313v-1167z" />
    <glyph glyph-name="uni021B" unicode="&#x21b;" horiz-adv-x="579" 
d="M420 -283q0 -86 -43.5 -162t-114.5 -128l-78 61q45 28 81.5 77t43.5 93q-1 0 -11 -1t-15 -1q-42 0 -69.5 28t-27.5 72q0 46 31.5 78.5t77.5 32.5q52 0 88.5 -40.5t36.5 -109.5zM387 -25q-229 0 -229 246v590h-129v178h129v271h204v-271h164v-178h-164v-547
q0 -108 76 -108q53 0 78 32l49 -153q-60 -60 -178 -60z" />
    <glyph glyph-name="uni0237" unicode="&#x237;" horiz-adv-x="446" 
d="M39 -401q-61 0 -101.5 15t-76.5 48l57 154q42 -45 96 -45q107 0 107 145v1073h205v-1073q0 -317 -287 -317z" />
    <glyph glyph-name="hsuperior" unicode="&#x2b0;" horiz-adv-x="722" 
d="M627 668h-152v428q0 104 -96 104q-40 0 -75 -25t-56 -59v-448h-150v888h150v-329q29 41 82.5 70.5t113.5 29.5q183 0 183 -184v-475z" />
    <glyph glyph-name="uni02BC" unicode="&#x2bc;" horiz-adv-x="497" 
d="M397 1206q0 -102 -51 -192t-137 -150l-92 76q51 31 93 86.5t52 106.5q-21 -7 -33 -7q-51 0 -84.5 35.5t-33.5 89.5q0 56 39 95.5t94 39.5q64 0 108.5 -48.5t44.5 -131.5z" />
    <glyph glyph-name="circumflex" unicode="&#x2c6;" horiz-adv-x="514" 
d="M514 1139h-123l-137 198l-131 -198h-123l162 295h186z" />
    <glyph glyph-name="caron" unicode="&#x2c7;" horiz-adv-x="514" 
d="M354 1139h-186l-168 295h123l137 -199l131 199h123z" />
    <glyph glyph-name="uni02C9" unicode="&#x2c9;" horiz-adv-x="632" 
d="M633 1210h-633v123h633v-123z" />
    <glyph glyph-name="uni02CB" unicode="&#x2cb;" horiz-adv-x="413" 
d="M414 1139h-140l-274 295h190z" />
    <glyph glyph-name="breve" unicode="&#x2d8;" horiz-adv-x="610" 
d="M610 1262q-53 -72 -133 -113t-172 -41q-91 0 -170.5 41t-134.5 113l96 77q35 -51 90 -79.5t119 -28.5t119 28.5t90 79.5z" />
    <glyph glyph-name="dotaccent" unicode="&#x2d9;" horiz-adv-x="288" 
d="M145 1126q-47 0 -81.5 34t-34.5 81t34.5 82t81.5 35t81 -35t34 -82t-34 -81t-81 -34z" />
    <glyph glyph-name="ring" unicode="&#x2da;" horiz-adv-x="385" 
d="M193 1102q-78 0 -135.5 57.5t-57.5 136.5q0 78 57.5 135.5t135.5 57.5q79 0 135.5 -57.5t56.5 -135.5q0 -80 -56.5 -137t-135.5 -57zM193 1198q41 0 68.5 29t27.5 69t-27.5 68.5t-68.5 28.5q-39 0 -68 -29t-29 -68q0 -40 29 -69t68 -29z" />
    <glyph glyph-name="ogonek" unicode="&#x2db;" horiz-adv-x="344" 
d="M254 -217l90 -51q-52 -113 -168 -113q-78 0 -127 43.5t-49 128.5q0 151 166 262l80 -53q-137 -81 -137 -203q0 -42 19 -64t48 -22q58 0 78 72z" />
    <glyph glyph-name="tilde" unicode="&#x2dc;" horiz-adv-x="577" 
d="M391 1135q-43 0 -76.5 26t-50.5 56.5t-39 56.5t-45 26q-30 0 -49.5 -39t-19.5 -114h-111q0 125 49 199.5t139 74.5q35 0 62.5 -17t45.5 -41t33 -48t32.5 -41t37.5 -17q30 0 49 38.5t19 113.5h111q0 -125 -48.5 -199.5t-138.5 -74.5z" />
    <glyph glyph-name="hungarumlaut" unicode="&#x2dd;" horiz-adv-x="589" 
d="M315 1434l-198 -295h-117l150 295h165zM590 1434l-199 -295h-115l148 295h166z" />
    <glyph glyph-name="hookabovecomb" unicode="&#x309;" horiz-adv-x="344" 
d="M109 1489l-80 20q14 50 51 79.5t92 29.5q61 0 99 -34t38 -103q0 -59 -37 -115h-90q43 51 43 111q0 65 -55 65q-45 0 -61 -53z" />
    <glyph glyph-name="uni037E" unicode="&#x37e;" horiz-adv-x="495" 
d="M248 729q-55 0 -96 41.5t-41 95.5q0 57 40.5 97.5t96.5 40.5q57 0 97 -40.5t40 -97.5q0 -55 -40.5 -96t-96.5 -41zM397 78q0 -102 -51 -192t-137 -150l-92 76q50 30 92.5 85t52.5 107q-18 -6 -33 -6q-51 0 -84.5 36t-33.5 91q0 56 39 95.5t94 39.5q64 0 108.5 -49.5
t44.5 -132.5z" />
    <glyph glyph-name="tonos" unicode="&#x384;" horiz-adv-x="432" 
d="M309 1147h-94l39 420h184z" />
    <glyph glyph-name="dieresistonos" unicode="&#x385;" horiz-adv-x="993" 
d="M516 1147h-96l41 420h184zM889 1243q0 -48 -34 -81.5t-83 -33.5q-47 0 -81 34t-34 81t34 81t81 34q49 0 83 -33.5t34 -81.5zM334 1243q0 -47 -34 -81t-81 -34t-81 34t-34 81t34 81t81 34t81 -34t34 -81z" />
    <glyph glyph-name="Alphatonos" unicode="&#x386;" horiz-adv-x="1097" 
d="M248 1147h-94l39 420h184zM1092 0h-246l-74 270h-448l-74 -270h-246l408 1366h272zM727 471l-178 653l-178 -653h356z" />
    <glyph glyph-name="Epsilontonos" unicode="&#x388;" horiz-adv-x="1036" 
d="M72 1147h-95l39 420h185zM948 0h-747v1366h747v-199h-520v-370h506v-201h-506v-395h520v-201z" />
    <glyph glyph-name="Etatonos" unicode="&#x389;" horiz-adv-x="1284" 
d="M72 1147h-95l39 420h185zM1155 0h-227v602h-500v-602h-227v1366h227v-563h500v563h227v-1366z" />
    <glyph glyph-name="Iotatonos" unicode="&#x38a;" horiz-adv-x="557" 
d="M72 1147h-95l39 420h185zM428 0h-227v1366h227v-1366z" />
    <glyph glyph-name="Omicrontonos" unicode="&#x38c;" horiz-adv-x="1271" 
d="M113 1147h-95l39 420h185zM645 -25q-169 0 -294.5 93.5t-189 252.5t-63.5 361t63.5 361t189 252.5t294.5 93.5t294.5 -93.5t189 -252.5t63.5 -361t-63.5 -361t-189 -252.5t-294.5 -93.5zM645 178q99 0 171.5 67.5t108.5 180.5t36 256q0 222 -84 364t-232 142
q-149 0 -232 -141.5t-83 -364.5q0 -144 35.5 -256.5t107.5 -180t172 -67.5z" />
    <glyph glyph-name="Upsilontonos" unicode="&#x38e;" horiz-adv-x="1224" 
d="M66 1147h-95l39 420h185zM805 0h-225v569l-424 797h252l284 -584l285 584h250l-422 -797v-569z" />
    <glyph glyph-name="Omegatonos" unicode="&#x38f;" horiz-adv-x="1271" 
d="M113 1147h-95l39 420h185zM133 201h205q-103 81 -168.5 213t-65.5 315q0 299 147 479.5t400 180.5t401 -180.5t148 -479.5q0 -183 -65.5 -315.5t-169.5 -212.5h206v-201h-419v201q90 41 152.5 170.5t62.5 312.5q0 227 -80.5 364.5t-235.5 137.5q-154 0 -234.5 -138
t-80.5 -364q0 -183 62.5 -312.5t154.5 -170.5v-201h-420v201z" />
    <glyph glyph-name="iotadieresistonos" unicode="&#x390;" horiz-adv-x="471" 
d="M256 1147h-96l41 420h184zM629 1243q0 -48 -34 -81.5t-83 -33.5q-47 0 -81 34t-34 81t34 81t81 34q49 0 83 -33.5t34 -81.5zM74 1243q0 -47 -34 -81t-81 -34t-81 34t-34 81t34 81t81 34t81 -34t34 -81zM350 -25q-229 0 -229 246v768h205v-737q0 -96 71 -96q15 0 35 4
l14 -172q-37 -13 -96 -13z" />
    <glyph glyph-name="Alpha" unicode="&#x391;" horiz-adv-x="1097" 
d="M1092 0h-246l-74 270h-448l-74 -270h-246l408 1366h272zM727 471l-178 653l-178 -653h356z" />
    <glyph glyph-name="Beta" unicode="&#x392;" horiz-adv-x="1105" 
d="M664 0h-533v1366h516q167 0 259.5 -98t92.5 -250q0 -124 -60 -205.5t-155 -107.5q101 -15 169.5 -112.5t68.5 -223.5q0 -166 -92 -267.5t-266 -101.5zM598 797q84 0 126 49.5t42 134.5q0 84 -42.5 135t-125.5 51h-240v-370h240zM606 201q90 0 136 51.5t46 146.5
q0 86 -47 141.5t-135 55.5h-248v-395h248z" />
    <glyph glyph-name="Gamma" unicode="&#x393;" horiz-adv-x="950" 
d="M358 0h-227v1366h748v-199h-521v-1167z" />
    <glyph glyph-name="uni0394" unicode="&#x394;" horiz-adv-x="1120" 
d="M1116 0h-1112l420 1366h272zM823 201l-264 923l-260 -923h524z" />
    <glyph glyph-name="Epsilon" unicode="&#x395;" horiz-adv-x="966" 
d="M879 0h-748v1366h748v-199h-521v-370h506v-201h-506v-395h521v-201z" />
    <glyph glyph-name="Zeta" unicode="&#x396;" horiz-adv-x="972" 
d="M895 0h-817v188l528 979h-528v199h803v-184l-531 -981h545v-201z" />
    <glyph glyph-name="Eta" unicode="&#x397;" horiz-adv-x="1214" 
d="M1085 0h-227v602h-500v-602h-227v1366h227v-563h500v563h227v-1366z" />
    <glyph glyph-name="Theta" unicode="&#x398;" horiz-adv-x="1253" 
d="M862 596h-471v201h471v-201zM627 -25q-169 0 -294.5 93.5t-189 252.5t-63.5 361t63.5 361t189 252.5t294.5 93.5t294.5 -93.5t189 -252.5t63.5 -361t-63.5 -361t-189 -252.5t-294.5 -93.5zM627 178q99 0 171 67.5t108 180.5t36 256q0 222 -83.5 364t-231.5 142
q-149 0 -232.5 -141.5t-83.5 -364.5q0 -143 35.5 -256t108 -180.5t172.5 -67.5z" />
    <glyph glyph-name="Iota" unicode="&#x399;" horiz-adv-x="489" 
d="M358 0h-227v1366h227v-1366z" />
    <glyph glyph-name="Kappa" unicode="&#x39a;" horiz-adv-x="1095" 
d="M1081 0h-268l-352 563l-103 -155v-408h-227v1366h227v-657l424 657h267l-447 -645z" />
    <glyph glyph-name="Lambda" unicode="&#x39b;" horiz-adv-x="1097" 
d="M1092 0h-246l-297 1124l-299 -1124h-246l408 1366h272z" />
    <glyph glyph-name="Mu" unicode="&#x39c;" horiz-adv-x="1460" 
d="M1331 0h-225v942l-332 -942h-88l-328 942v-942h-227v1366h307l293 -831l295 831h305v-1366z" />
    <glyph glyph-name="Nu" unicode="&#x39d;" horiz-adv-x="1212" 
d="M1081 0h-217l-506 883v-883h-227v1366h229l494 -858v858h227v-1366z" />
    <glyph glyph-name="Xi" unicode="&#x39e;" horiz-adv-x="1032" 
d="M942 1167h-852v199h852v-199zM942 0h-852v201h852v-201zM928 596h-824v201h824v-201z" />
    <glyph glyph-name="Omicron" unicode="&#x39f;" horiz-adv-x="1253" 
d="M627 -25q-169 0 -294.5 93.5t-189 252.5t-63.5 361t63.5 361t189 252.5t294.5 93.5t294.5 -93.5t189 -252.5t63.5 -361t-63.5 -361t-189 -252.5t-294.5 -93.5zM627 178q99 0 171 67.5t108 180.5t36 256q0 222 -83.5 364t-231.5 142q-149 0 -232.5 -141.5t-83.5 -364.5
q0 -143 35.5 -256t108 -180.5t172.5 -67.5z" />
    <glyph glyph-name="Pi" unicode="&#x3a0;" horiz-adv-x="1214" 
d="M1085 0h-227v1167h-500v-1167h-227v1366h954v-1366z" />
    <glyph glyph-name="Rho" unicode="&#x3a1;" horiz-adv-x="1050" 
d="M358 0h-227v1366h465q98 0 176 -34t126.5 -93t74.5 -135t26 -162q0 -87 -26 -163.5t-74.5 -135.5t-126.5 -93t-176 -34h-238v-516zM569 717q90 0 144.5 61.5t54.5 163.5t-54.5 163.5t-144.5 61.5h-211v-450h211z" />
    <glyph glyph-name="Sigma" unicode="&#x3a3;" horiz-adv-x="950" 
d="M350 1167l332 -465l-340 -501h526v-201h-778v205l336 497l-336 465v199h778v-199h-518z" />
    <glyph glyph-name="Tau" unicode="&#x3a4;" horiz-adv-x="946" 
d="M586 0h-226v1167h-313v199h852v-199h-313v-1167z" />
    <glyph glyph-name="Upsilon" unicode="&#x3a5;" horiz-adv-x="1067" 
d="M647 0h-225v569l-424 797h252l285 -584l284 584h250l-422 -797v-569z" />
    <glyph glyph-name="Phi" unicode="&#x3a6;" horiz-adv-x="1495" 
d="M860 0h-227v137q-268 27 -410.5 173.5t-142.5 371.5q0 224 143 371t410 174v139h227v-139q269 -27 412 -173.5t143 -371.5q0 -226 -143 -372.5t-412 -172.5v-137zM1182 682q0 135 -81 225.5t-241 116.5v-682q159 24 240.5 114.5t81.5 225.5zM311 682q0 -135 81.5 -225.5
t240.5 -114.5v682q-160 -26 -241 -116.5t-81 -225.5z" />
    <glyph glyph-name="Chi" unicode="&#x3a7;" horiz-adv-x="1095" 
d="M1092 0h-263l-282 520l-281 -520h-262l404 698l-379 668h260l258 -492l258 492h262l-379 -666z" />
    <glyph glyph-name="Psi" unicode="&#x3a8;" horiz-adv-x="1513" 
d="M870 0h-225v258q-242 25 -378 157.5t-136 352.5v598h229v-594q0 -267 285 -309v903h225v-903q137 21 210 98.5t73 210.5v594h229v-596q0 -223 -135.5 -355t-376.5 -157v-258z" />
    <glyph glyph-name="uni03A9" unicode="&#x3a9;" horiz-adv-x="1241" 
d="M102 201h205q-103 80 -168 212.5t-65 315.5q0 299 147 479.5t400 180.5t400.5 -180.5t147.5 -479.5q0 -183 -65.5 -315.5t-169.5 -212.5h207v-201h-420v201q90 41 152.5 170.5t62.5 312.5q0 227 -80 364.5t-235 137.5q-154 0 -235 -138t-81 -364q0 -183 62.5 -312.5
t154.5 -170.5v-201h-420v201z" />
    <glyph glyph-name="Iotadieresis" unicode="&#x3aa;" horiz-adv-x="489" 
d="M358 0h-227v1366h227v-1366zM547 1620q0 -47 -35 -81t-82 -34t-81 34t-34 81t34 81t81 34t82 -34t35 -81zM174 1620q0 -47 -34 -81t-81 -34t-81.5 34t-34.5 81t34.5 81t81.5 34t81 -34t34 -81z" />
    <glyph glyph-name="Upsilondieresis" unicode="&#x3ab;" horiz-adv-x="1067" 
d="M647 0h-225v569l-424 797h252l285 -584l284 584h250l-422 -797v-569zM836 1620q0 -47 -35 -81t-82 -34t-81 34t-34 81t34 81t81 34t82 -34t35 -81zM463 1620q0 -47 -34 -81t-81 -34t-82 34t-35 81t35 81t82 34t81 -34t34 -81z" />
    <glyph glyph-name="alphatonos" unicode="&#x3ac;" horiz-adv-x="1036" 
d="M547 1147h-94l39 420h184zM997 160l15 -172q-37 -13 -97 -13q-187 0 -219 172q-41 -77 -112 -124.5t-152 -47.5q-166 0 -263 140.5t-97 378.5q0 236 97 378t263 142q75 0 143 -40.5t111 -117.5v133h205v-737q0 -96 72 -96q14 0 34 4zM494 156q57 0 111 39t81 96v405
q-27 57 -81 96t-111 39q-102 0 -156.5 -93t-54.5 -244q0 -148 54.5 -243t156.5 -95z" />
    <glyph glyph-name="epsilontonos" unicode="&#x3ad;" horiz-adv-x="894" 
d="M475 1147h-94l39 420h184zM469 -25q-182 0 -289.5 82t-107.5 211q0 100 72.5 164t168.5 74q-94 18 -159.5 84.5t-65.5 154.5q0 125 110 197t296 72q217 0 352 -158l-103 -123q-95 115 -254 115q-87 0 -141.5 -35t-54.5 -94q0 -66 51.5 -101.5t142.5 -35.5h183v-164h-185
q-96 0 -152.5 -29t-56.5 -104q0 -65 53 -104.5t144 -39.5q181 0 287 119l100 -125q-140 -160 -391 -160z" />
    <glyph glyph-name="etatonos" unicode="&#x3ae;" horiz-adv-x="993" 
d="M524 1147h-94l39 420h184zM872 -377h-204v1051q0 160 -142 160q-62 0 -116 -40.5t-84 -97.5v-696h-205v989h205v-133q43 65 121 111.5t165 46.5q131 0 195.5 -69.5t64.5 -199.5v-1122z" />
    <glyph glyph-name="iotatonos" unicode="&#x3af;" horiz-adv-x="471" 
d="M264 1147h-94l39 420h184zM350 -25q-229 0 -229 246v768h205v-737q0 -96 71 -96q15 0 35 4l14 -172q-37 -13 -96 -13z" />
    <glyph glyph-name="upsilondieresistonos" unicode="&#x3b0;" horiz-adv-x="995" 
d="M518 1147h-96l41 420h184zM891 1243q0 -48 -34 -81.5t-83 -33.5q-47 0 -81 34t-34 81t34 81t81 34q49 0 83 -33.5t34 -81.5zM336 1243q0 -47 -34 -81t-81 -34t-81 34t-34 81t34 81t81 34t81 -34t34 -81zM496 -25q-179 0 -277 110t-98 300v604h205v-602q0 -110 43 -170.5
t127 -60.5q73 0 123 49.5t72 129.5t22 185q0 232 -115 416l186 78q142 -227 142 -494q0 -154 -47.5 -275.5t-146.5 -195.5t-236 -74z" />
    <glyph glyph-name="alpha" unicode="&#x3b1;" horiz-adv-x="1036" 
d="M997 160l15 -172q-37 -13 -97 -13q-187 0 -219 172q-41 -77 -112 -124.5t-152 -47.5q-166 0 -263 140.5t-97 378.5q0 236 97 378t263 142q75 0 143 -40.5t111 -117.5v133h205v-737q0 -96 72 -96q14 0 34 4zM494 156q57 0 111 39t81 96v405q-27 57 -81 96t-111 39
q-102 0 -156.5 -93t-54.5 -244q0 -148 54.5 -243t156.5 -95z" />
    <glyph glyph-name="beta" unicode="&#x3b2;" horiz-adv-x="1011" 
d="M326 932v-641q29 -58 83.5 -96.5t118.5 -38.5q96 0 147.5 64t51.5 161q0 112 -57.5 168.5t-149.5 56.5h-57v180h49q86 0 137 54.5t51 154.5q0 99 -47 154t-123 55q-92 0 -148 -66.5t-56 -205.5zM326 131v-508h-205v1309q0 98 23.5 176t62 129t92.5 85.5t111.5 49
t121.5 14.5q174 0 276.5 -95t102.5 -271q0 -119 -64.5 -204t-166.5 -109q104 -19 182 -114t78 -247q0 -157 -97.5 -264t-248.5 -107q-85 0 -154 41t-114 115z" />
    <glyph glyph-name="gamma" unicode="&#x3b3;" horiz-adv-x="880" 
d="M543 -377h-205v256q0 315 -97.5 607.5t-258.5 502.5h229q103 -153 174 -345.5t84 -377.5q72 138 119 338t47 385h203q0 -239 -82 -504t-213 -471v-391z" />
    <glyph glyph-name="delta" unicode="&#x3b4;" horiz-adv-x="999" 
d="M508 -25q-105 0 -189.5 38t-137.5 103t-81 147.5t-28 174.5q0 142 63 254.5t164 179.5q-133 90 -133 236q0 120 91.5 201.5t248.5 81.5q191 0 325 -127l-86 -140q-38 46 -101.5 75.5t-135.5 29.5q-68 0 -109 -32.5t-41 -82.5q0 -36 31.5 -66.5t81.5 -56.5t111 -55.5
t122 -72.5t111 -98t81.5 -142t31.5 -195q0 -89 -26.5 -169t-77 -144t-132.5 -102t-184 -38zM733 426q0 58 -15.5 107t-38 83t-60.5 66t-70 51.5t-80 44.5q-87 -51 -136.5 -141t-49.5 -199q0 -115 58 -198.5t165 -83.5q74 0 127 41.5t76.5 101t23.5 127.5z" />
    <glyph glyph-name="epsilon" unicode="&#x3b5;" horiz-adv-x="894" 
d="M469 -25q-182 0 -289.5 82t-107.5 211q0 100 72.5 164t168.5 74q-94 18 -159.5 84.5t-65.5 154.5q0 125 110 197t296 72q217 0 352 -158l-103 -123q-95 115 -254 115q-87 0 -141.5 -35t-54.5 -94q0 -66 51.5 -101.5t142.5 -35.5h183v-164h-185q-96 0 -152.5 -29
t-56.5 -104q0 -65 53 -104.5t144 -39.5q181 0 287 119l100 -125q-140 -160 -391 -160z" />
    <glyph glyph-name="zeta" unicode="&#x3b6;" horiz-adv-x="839" 
d="M584 -86q0 33 -17 47t-57 14q-197 0 -317.5 122t-120.5 309q0 453 463 782h-441v178h674v-149q-227 -173 -356 -375t-129 -410q0 -124 70.5 -200t197.5 -76q120 0 174.5 -47.5t54.5 -143.5q0 -116 -92 -287h-201q37 60 67 127.5t30 108.5z" />
    <glyph glyph-name="eta" unicode="&#x3b7;" horiz-adv-x="993" 
d="M872 -377h-204v1051q0 160 -142 160q-62 0 -116 -40.5t-84 -97.5v-696h-205v989h205v-133q43 65 121 111.5t165 46.5q131 0 195.5 -69.5t64.5 -199.5v-1122z" />
    <glyph glyph-name="theta" unicode="&#x3b8;" horiz-adv-x="999" 
d="M500 -25q-107 0 -190 54t-134.5 151t-77.5 224.5t-26 279.5q0 153 26 280t77.5 223.5t134.5 150t190 53.5t190 -53.5t134.5 -150t77.5 -223.5t26 -280q0 -152 -26 -279.5t-77.5 -224.5t-134.5 -151t-190 -54zM500 156q107 0 157 111t58 331h-430q6 -219 57 -330.5
t158 -111.5zM500 1210q-106 0 -156.5 -110t-58.5 -324h430q-8 213 -59 323.5t-156 110.5z" />
    <glyph glyph-name="iota" unicode="&#x3b9;" horiz-adv-x="471" 
d="M350 -25q-229 0 -229 246v768h205v-737q0 -96 71 -96q15 0 35 4l14 -172q-37 -13 -96 -13z" />
    <glyph glyph-name="kappa" unicode="&#x3ba;" horiz-adv-x="933" 
d="M918 0h-240l-234 414l-118 -160v-254h-205v989h205v-485l348 485h237l-327 -444z" />
    <glyph glyph-name="lambda" unicode="&#x3bb;" horiz-adv-x="880" 
d="M117 1196l-31 180q51 15 111 15q111 -2 181 -49t109 -166l392 -1176h-217l-222 743l-219 -743h-217l332 1008l-41 118q-17 46 -43.5 65t-69.5 19q-40 0 -65 -14z" />
    <glyph glyph-name="uni03BC" unicode="&#x3bc;" horiz-adv-x="1017" 
d="M326 29v-406h-205v1366h205v-676q0 -159 143 -159q62 0 114.5 39.5t84.5 97.5v698h204v-737q0 -96 72 -96q15 0 35 4l14 -172q-37 -13 -96 -13q-97 0 -150 44t-71 133q-37 -78 -97.5 -127.5t-129.5 -49.5q-89 0 -123 54z" />
    <glyph glyph-name="nu" unicode="&#x3bd;" horiz-adv-x="880" 
d="M535 0h-205l-326 989h217l228 -772q88 166 137 373t49 399h203q0 -243 -84.5 -512t-218.5 -477z" />
    <glyph glyph-name="xi" unicode="&#x3be;" horiz-adv-x="839" 
d="M510 -25q-205 0 -321.5 104t-116.5 269q0 123 66.5 207t162.5 113q-91 19 -151 89.5t-60 168.5q0 81 49 152t129 110h-162v178h648v-178h-314q-64 -25 -103.5 -81.5t-39.5 -121.5q0 -95 61.5 -147t157.5 -52h225v-176h-225q-104 0 -168.5 -56.5t-64.5 -170.5
q0 -96 69.5 -161.5t198.5 -65.5q120 0 174.5 -47.5t54.5 -143.5q0 -116 -92 -287h-201q37 60 67 127.5t30 108.5q0 33 -17 47t-57 14z" />
    <glyph glyph-name="omicron" unicode="&#x3bf;" horiz-adv-x="999" 
d="M500 -25q-102 0 -185 42t-135 114t-80 165.5t-28 199.5t28 199t80.5 164.5t135 113t184.5 41.5t184.5 -41.5t135 -113t80.5 -164.5t28 -199t-28 -199.5t-80 -165.5t-135 -114t-185 -42zM500 156q106 0 161.5 98t55.5 242t-55.5 241t-161.5 97t-161.5 -97t-55.5 -241
t55.5 -242t161.5 -98z" />
    <glyph glyph-name="pi" unicode="&#x3c0;" horiz-adv-x="1067" 
d="M909 0h-202v811h-345v-811h-204v811h-129v178h1011v-178h-131v-811z" />
    <glyph glyph-name="rho" unicode="&#x3c1;" horiz-adv-x="1007" 
d="M580 -25q-76 0 -143.5 40.5t-110.5 117.5v-510h-205v873q0 106 26.5 199t76.5 164.5t128.5 113t175.5 41.5q98 0 177 -40.5t130 -111.5t78 -164.5t27 -201.5q0 -238 -97 -379.5t-263 -141.5zM518 156q102 0 156.5 95.5t54.5 244.5q0 146 -52 242t-151 96
q-67 0 -113 -48.5t-66.5 -122.5t-20.5 -167v-203q27 -57 81 -97t111 -40z" />
    <glyph glyph-name="sigma1" unicode="&#x3c2;" horiz-adv-x="835" 
d="M514 -25q-197 0 -319.5 144.5t-122.5 376.5q0 227 119 372.5t315 145.5q195 0 301 -133l-105 -140q-72 93 -176 93q-113 0 -178 -96t-65 -242q0 -153 71 -246.5t193 -93.5t178.5 -47.5t56.5 -143.5q0 -116 -92 -287h-196q37 58 67.5 126t30.5 110q0 33 -18.5 47t-59.5 14
z" />
    <glyph glyph-name="sigma" unicode="&#x3c3;" horiz-adv-x="999" 
d="M915 451q0 -74 -16 -143t-49.5 -130t-81.5 -106t-117 -71t-151 -26q-133 0 -231.5 71.5t-147.5 188.5t-49 261q0 100 28.5 188t82.5 156.5t142 108.5t199 40h437v-180h-183q137 -137 137 -358zM717 479q0 109 -35 196t-98 134h-60q-83 0 -139 -46.5t-79 -114.5t-23 -152
q0 -144 55.5 -242t161.5 -98q72 0 122.5 48t72.5 119t22 156z" />
    <glyph glyph-name="tau" unicode="&#x3c4;" horiz-adv-x="784" 
d="M518 -25q-227 0 -227 246v590h-252v178h706v-178h-251v-547q0 -108 75 -108q53 0 78 32l49 -153q-60 -60 -178 -60z" />
    <glyph glyph-name="upsilon" unicode="&#x3c5;" horiz-adv-x="995" 
d="M496 -25q-179 0 -277 110t-98 300v604h205v-602q0 -110 43 -170.5t127 -60.5q73 0 123 49.5t72 129.5t22 185q0 232 -115 416l186 78q142 -227 142 -494q0 -154 -47.5 -275.5t-146.5 -195.5t-236 -74z" />
    <glyph glyph-name="phi" unicode="&#x3c6;" horiz-adv-x="1380" 
d="M1309 496q0 -211 -130.5 -350.5t-385.5 -163.5v-359h-203v359q-257 24 -387.5 166t-130.5 364q0 176 87 302t242 200l88 -158q-206 -105 -206 -344q0 -143 73.5 -235.5t233.5 -114.5v852h100q156 0 276 -39.5t194 -110t111.5 -163.5t37.5 -205zM1098 496q0 139 -78 229
t-227 102v-665q158 23 231.5 113t73.5 221z" />
    <glyph glyph-name="chi" unicode="&#x3c7;" horiz-adv-x="868" 
d="M856 -377h-219l-203 500l-203 -500h-219l295 696l-278 670h219l186 -471l187 471h219l-279 -670z" />
    <glyph glyph-name="psi" unicode="&#x3c8;" horiz-adv-x="1382" 
d="M793 -377h-203v359q-226 22 -347.5 144.5t-121.5 336.5v526h203v-526q0 -261 266 -301v1204h203v-1204q264 41 264 301v526h205v-526q0 -214 -122.5 -336.5t-346.5 -144.5v-359z" />
    <glyph glyph-name="omega" unicode="&#x3c9;" horiz-adv-x="1478" 
d="M1407 496q0 -144 -40.5 -260.5t-123.5 -188.5t-196 -72q-117 0 -196.5 72t-111.5 193q-34 -121 -112 -193t-195 -72q-113 0 -196 72t-123.5 188.5t-40.5 260.5q0 163 57 304.5t156 213.5l149 -117q-80 -64 -115.5 -173t-35.5 -230q0 -92 17.5 -166t58.5 -123t100 -49
q61 0 102 49t58.5 123t17.5 168v252h205v-252q0 -93 17.5 -167.5t58.5 -123.5t100 -49t100 49t58.5 123.5t17.5 167.5q0 119 -36 228t-114 173l150 117q99 -72 156 -213.5t57 -304.5z" />
    <glyph glyph-name="iotadieresis" unicode="&#x3ca;" horiz-adv-x="471" 
d="M539 1243q0 -47 -35 -81t-82 -34t-81 34t-34 81t34 81t81 34t82 -34t35 -81zM166 1243q0 -47 -34 -81t-81 -34t-82 34t-35 81t35 81t82 34t81 -34t34 -81zM350 -25q-229 0 -229 246v768h205v-737q0 -96 71 -96q15 0 35 4l14 -172q-37 -13 -96 -13z" />
    <glyph glyph-name="upsilondieresis" unicode="&#x3cb;" horiz-adv-x="995" 
d="M801 1243q0 -47 -35 -81t-82 -34t-81 34t-34 81t34 81t81 34t82 -34t35 -81zM428 1243q0 -47 -34 -81t-81 -34t-81.5 34t-34.5 81t34.5 81t81.5 34t81 -34t34 -81zM496 -25q-179 0 -277 110t-98 300v604h205v-602q0 -110 43 -170.5t127 -60.5q73 0 123 49.5t72 129.5
t22 185q0 232 -115 416l186 78q142 -227 142 -494q0 -154 -47.5 -275.5t-146.5 -195.5t-236 -74z" />
    <glyph glyph-name="omicrontonos" unicode="&#x3cc;" horiz-adv-x="999" 
d="M526 1147h-94l39 420h184zM500 -25q-102 0 -185 42t-135 114t-80 165.5t-28 199.5t28 199t80.5 164.5t135 113t184.5 41.5t184.5 -41.5t135 -113t80.5 -164.5t28 -199t-28 -199.5t-80 -165.5t-135 -114t-185 -42zM500 156q106 0 161.5 98t55.5 242t-55.5 241t-161.5 97
t-161.5 -97t-55.5 -241t55.5 -242t161.5 -98z" />
    <glyph glyph-name="upsilontonos" unicode="&#x3cd;" horiz-adv-x="995" 
d="M526 1147h-94l39 420h184zM496 -25q-179 0 -277 110t-98 300v604h205v-602q0 -110 43 -170.5t127 -60.5q73 0 123 49.5t72 129.5t22 185q0 232 -115 416l186 78q142 -227 142 -494q0 -154 -47.5 -275.5t-146.5 -195.5t-236 -74z" />
    <glyph glyph-name="omegatonos" unicode="&#x3ce;" horiz-adv-x="1478" 
d="M768 1147h-94l39 420h184zM1407 496q0 -144 -40.5 -260.5t-123.5 -188.5t-196 -72q-117 0 -196.5 72t-111.5 193q-34 -121 -112 -193t-195 -72q-113 0 -196 72t-123.5 188.5t-40.5 260.5q0 163 57 304.5t156 213.5l149 -117q-80 -64 -115.5 -173t-35.5 -230
q0 -92 17.5 -166t58.5 -123t100 -49q61 0 102 49t58.5 123t17.5 168v252h205v-252q0 -93 17.5 -167.5t58.5 -123.5t100 -49t100 49t58.5 123.5t17.5 167.5q0 119 -36 228t-114 173l150 117q99 -72 156 -213.5t57 -304.5z" />
    <glyph glyph-name="afii10023" unicode="&#x401;" horiz-adv-x="966" 
d="M807 1585q0 -47 -35 -81t-82 -34t-81 34t-34 81t34 81t81 34t82 -34t35 -81zM434 1585q0 -47 -34 -81t-81 -34t-81.5 34t-34.5 81t34.5 81t81.5 34t81 -34t34 -81zM879 0h-748v1366h748v-199h-521v-370h506v-201h-506v-395h521v-201z" />
    <glyph glyph-name="afii10051" unicode="&#x402;" horiz-adv-x="1310" 
d="M817 -25v203q95 0 151 53t56 158v31q0 107 -63.5 169t-176.5 62q-106 0 -198 -30l2 -621h-228v1167h-313v199h852v-199h-313v-348q109 31 227 31q107 0 191.5 -34.5t137.5 -94.5t81 -137t28 -164v-31q0 -106 -34.5 -187.5t-95.5 -130t-137.5 -72.5t-166.5 -24z" />
    <glyph glyph-name="afii10052" unicode="&#x403;" horiz-adv-x="950" 
d="M797 1776l-275 -295h-139l225 295h189zM358 0h-227v1366h748v-199h-521v-1167z" />
    <glyph glyph-name="afii10053" unicode="&#x404;" horiz-adv-x="1120" 
d="M637 -25q-126 0 -231 53t-176 146.5t-110.5 224t-39.5 283.5q0 205 67.5 365t194.5 251t295 91q289 0 432 -302l-188 -83q-37 85 -99.5 134.5t-144.5 49.5q-128 0 -213 -107t-107 -284h547v-201h-549q18 -188 103.5 -303t218.5 -115q86 0 149 55t97 146l188 -84
q-140 -320 -434 -320z" />
    <glyph glyph-name="afii10054" unicode="&#x405;" horiz-adv-x="995" 
d="M485 -25q-275 0 -440 175l115 176q59 -67 143.5 -107.5t181.5 -40.5q101 0 157 52t56 128q0 57 -34 100t-87.5 72.5t-119 57.5t-131 62.5t-119 78.5t-87.5 115.5t-34 163.5q0 163 117 272t307 109q239 0 393 -148l-110 -172q-117 117 -289 117q-84 0 -135.5 -45.5
t-51.5 -120.5q0 -49 34 -88t88 -66.5t119 -55.5t130.5 -64.5t119.5 -82.5t88 -119.5t34 -166.5q0 -175 -116.5 -288.5t-328.5 -113.5z" />
    <glyph glyph-name="afii10055" unicode="&#x406;" horiz-adv-x="489" 
d="M358 0h-227v1366h227v-1366z" />
    <glyph glyph-name="afii10056" unicode="&#x407;" horiz-adv-x="489" 
d="M358 0h-227v1366h227v-1366zM547 1585q0 -47 -35 -81t-82 -34t-81 34t-34 81t34 81t81 34t82 -34t35 -81zM174 1585q0 -47 -34 -81t-81 -34t-81.5 34t-34.5 81t34.5 81t81.5 34t81 -34t34 -81z" />
    <glyph glyph-name="afii10057" unicode="&#x408;" horiz-adv-x="837" 
d="M307 -25q-178 0 -291 113l88 178q78 -88 183 -88q91 0 142.5 53.5t51.5 151.5v983h228v-989q0 -199 -109.5 -300.5t-292.5 -101.5z" />
    <glyph glyph-name="afii10058" unicode="&#x409;" horiz-adv-x="1777" 
d="M49 -25v203q40 0 66.5 9t52 36.5t43 79.5t32.5 136.5t27 207.5l64 719h751v-516h238q98 0 176 -34t126.5 -93t74.5 -135t26 -162q0 -87 -26 -163.5t-74.5 -135.5t-126.5 -93t-176 -34h-465v1167h-317l-47 -534q-15 -167 -44 -286.5t-66.5 -191t-92.5 -112.5t-110.5 -54.5
t-131.5 -13.5zM1296 651h-211v-450h211q90 0 144.5 61.5t54.5 163.5q0 100 -54.5 162.5t-144.5 62.5z" />
    <glyph glyph-name="afii10059" unicode="&#x40a;" horiz-adv-x="1777" 
d="M131 0v1366h227v-563h500v563h227v-563h252q94 0 169 -32.5t122.5 -88t72.5 -127.5t25 -154q0 -171 -101.5 -286t-287.5 -115h-479v602h-500v-602h-227zM1085 201h226q84 0 134 54.5t50 145.5t-50 146t-134 55h-226v-401z" />
    <glyph glyph-name="afii10060" unicode="&#x40b;" horiz-adv-x="1337" 
d="M1012 0v393q0 126 -57.5 192t-170.5 66q-106 0 -198 -30l2 -621h-228v1167h-313v199h852v-199h-313v-348q109 31 227 31q211 0 318.5 -126t107.5 -331v-393h-227z" />
    <glyph glyph-name="afii10061" unicode="&#x40c;" horiz-adv-x="1095" 
d="M862 1776l-274 -295h-139l225 295h188zM1081 0h-268l-352 563l-103 -155v-408h-227v1366h227v-657l424 657h267l-447 -645z" />
    <glyph glyph-name="afii10062" unicode="&#x40e;" horiz-adv-x="1067" 
d="M246 -25q-69 0 -133.5 22t-104.5 56l70 187q66 -60 147 -60q57 0 94 30.5t70 100.5l23 66l-414 989h252l285 -725l284 725h250l-475 -1145q-54 -127 -135 -186.5t-213 -59.5zM840 1604q-53 -72 -133 -113t-172 -41q-91 0 -171 41t-135 113l97 77q35 -51 90 -79.5
t119 -28.5q133 0 208 108z" />
    <glyph glyph-name="afii10145" unicode="&#x40f;" horiz-adv-x="1214" 
d="M131 0v1366h227v-1165h500v1165h227v-1366h-364v-262h-225v262h-365z" />
    <glyph glyph-name="afii10017" unicode="&#x410;" horiz-adv-x="1097" 
d="M1092 0h-246l-74 270h-448l-74 -270h-246l408 1366h272zM727 471l-178 653l-178 -653h356z" />
    <glyph glyph-name="afii10018" unicode="&#x411;" horiz-adv-x="1050" 
d="M131 1366h778v-199h-551v-317h238q98 0 176 -34t126.5 -93t74.5 -135t26 -162q0 -87 -26 -163.5t-74.5 -135.5t-126.5 -93t-176 -34h-465v1366zM569 651h-211v-450h211q90 0 144.5 61.5t54.5 163.5q0 100 -54.5 162.5t-144.5 62.5z" />
    <glyph glyph-name="afii10019" unicode="&#x412;" horiz-adv-x="1105" 
d="M664 0h-533v1366h516q167 0 259.5 -98t92.5 -250q0 -124 -60 -205.5t-155 -107.5q101 -15 169.5 -112.5t68.5 -223.5q0 -166 -92 -267.5t-266 -101.5zM598 797q84 0 126 49.5t42 134.5q0 84 -42.5 135t-125.5 51h-240v-370h240zM606 201q90 0 136 51.5t46 146.5
q0 86 -47 141.5t-135 55.5h-248v-395h248z" />
    <glyph glyph-name="afii10020" unicode="&#x413;" horiz-adv-x="950" 
d="M358 0h-227v1366h748v-199h-521v-1167z" />
    <glyph glyph-name="afii10021" unicode="&#x414;" horiz-adv-x="1236" 
d="M47 -252v430q34 5 55.5 12.5t46 26t40.5 51t32 85t27.5 131t21.5 186.5l64 696h751v-1165h121v-453h-227v252h-707v-252h-225zM496 653q-28 -310 -154 -452h516v966h-317z" />
    <glyph glyph-name="afii10022" unicode="&#x415;" horiz-adv-x="966" 
d="M879 0h-748v1366h748v-199h-521v-370h506v-201h-506v-395h521v-201z" />
    <glyph glyph-name="afii10024" unicode="&#x416;" horiz-adv-x="1589" 
d="M283 0h-269l480 721l-447 645h266l369 -571v571h225v-571l369 571h266l-446 -645l479 -721h-268l-353 563l-47 -71v-492h-225v492l-47 71z" />
    <glyph glyph-name="afii10025" unicode="&#x417;" horiz-adv-x="1042" 
d="M504 -25q-150 0 -271 63t-184 161l139 141q52 -73 134.5 -117.5t171.5 -44.5q117 0 176 57.5t59 157.5q0 101 -67.5 152t-186.5 51h-213v201h205q110 0 176 48t66 140q0 98 -62.5 149.5t-167.5 51.5q-79 0 -152 -39t-126 -109l-133 131q68 101 183 159t253 58
q126 0 223 -40t155 -124t58 -202q0 -119 -75.5 -205t-192.5 -110q118 -14 202 -104.5t84 -227.5q0 -175 -125 -286.5t-329 -111.5z" />
    <glyph glyph-name="afii10026" unicode="&#x418;" horiz-adv-x="1212" 
d="M348 0h-217v1366h227v-889l494 889h229v-1366h-225v913z" />
    <glyph glyph-name="afii10027" unicode="&#x419;" horiz-adv-x="1212" 
d="M348 0h-217v1366h227v-889l494 889h229v-1366h-225v913zM911 1604q-53 -72 -133 -113t-172 -41q-91 0 -170.5 41t-134.5 113l96 77q35 -51 90 -79.5t119 -28.5t119 28.5t90 79.5z" />
    <glyph glyph-name="afii10028" unicode="&#x41a;" horiz-adv-x="1095" 
d="M1081 0h-268l-352 563l-103 -155v-408h-227v1366h227v-657l424 657h267l-447 -645z" />
    <glyph glyph-name="afii10029" unicode="&#x41b;" horiz-adv-x="1214" 
d="M49 -25v203q40 0 66.5 9t52 37t43 79.5t32.5 136.5t27 209l64 717h751v-1366h-227v1167h-317l-47 -534q-15 -167 -44 -286.5t-66.5 -191t-92.5 -112.5t-110.5 -54.5t-131.5 -13.5z" />
    <glyph glyph-name="afii10030" unicode="&#x41c;" horiz-adv-x="1460" 
d="M1331 0h-225v942l-332 -942h-88l-328 942v-942h-227v1366h307l293 -831l295 831h305v-1366z" />
    <glyph glyph-name="afii10031" unicode="&#x41d;" horiz-adv-x="1214" 
d="M1085 0h-227v602h-500v-602h-227v1366h227v-563h500v563h227v-1366z" />
    <glyph glyph-name="afii10032" unicode="&#x41e;" horiz-adv-x="1253" 
d="M627 -25q-169 0 -294.5 93.5t-189 252.5t-63.5 361t63.5 361t189 252.5t294.5 93.5t294.5 -93.5t189 -252.5t63.5 -361t-63.5 -361t-189 -252.5t-294.5 -93.5zM627 178q99 0 171 67.5t108 180.5t36 256q0 222 -83.5 364t-231.5 142q-149 0 -232.5 -141.5t-83.5 -364.5
q0 -143 35.5 -256t108 -180.5t172.5 -67.5z" />
    <glyph glyph-name="afii10033" unicode="&#x41f;" horiz-adv-x="1214" 
d="M1085 0h-227v1167h-500v-1167h-227v1366h954v-1366z" />
    <glyph glyph-name="afii10034" unicode="&#x420;" horiz-adv-x="1050" 
d="M358 0h-227v1366h465q98 0 176 -34t126.5 -93t74.5 -135t26 -162q0 -87 -26 -163.5t-74.5 -135.5t-126.5 -93t-176 -34h-238v-516zM569 717q90 0 144.5 61.5t54.5 163.5t-54.5 163.5t-144.5 61.5h-211v-450h211z" />
    <glyph glyph-name="afii10035" unicode="&#x421;" horiz-adv-x="1120" 
d="M637 -25q-126 0 -231 53t-176 146.5t-110.5 224t-39.5 283.5q0 205 67.5 365t194.5 251t295 91q289 0 432 -302l-188 -83q-37 85 -99.5 134.5t-144.5 49.5q-149 0 -237.5 -141.5t-88.5 -364.5q0 -145 39 -259t113.5 -179.5t173.5 -65.5q86 0 149 55t97 146l188 -84
q-140 -320 -434 -320z" />
    <glyph glyph-name="afii10036" unicode="&#x422;" horiz-adv-x="946" 
d="M586 0h-226v1167h-313v199h852v-199h-313v-1167z" />
    <glyph glyph-name="afii10037" unicode="&#x423;" horiz-adv-x="1067" 
d="M246 -25q-69 0 -133.5 22t-104.5 56l70 187q66 -60 147 -60q57 0 94 30.5t70 100.5l23 66l-414 989h252l285 -725l284 725h250l-475 -1145q-54 -127 -135 -186.5t-213 -59.5z" />
    <glyph glyph-name="afii10038" unicode="&#x424;" horiz-adv-x="1495" 
d="M860 0h-227v137q-268 27 -410.5 173.5t-142.5 371.5q0 224 143 371t410 174v139h227v-139q269 -27 412 -173.5t143 -371.5q0 -226 -143 -372.5t-412 -172.5v-137zM1182 682q0 135 -81 225.5t-241 116.5v-682q159 24 240.5 114.5t81.5 225.5zM311 682q0 -135 81.5 -225.5
t240.5 -114.5v682q-160 -26 -241 -116.5t-81 -225.5z" />
    <glyph glyph-name="afii10039" unicode="&#x425;" horiz-adv-x="1095" 
d="M1092 0h-263l-282 520l-281 -520h-262l404 698l-379 668h260l258 -492l258 492h262l-379 -666z" />
    <glyph glyph-name="afii10040" unicode="&#x426;" horiz-adv-x="1236" 
d="M979 -252v252h-848v1366h227v-1165h500v1165h227v-1165h121v-453h-227z" />
    <glyph glyph-name="afii10041" unicode="&#x427;" horiz-adv-x="1107" 
d="M326 1366v-391q0 -258 227 -258q112 0 197 31v618h227v-1366h-227v547q-122 -31 -226 -31q-107 0 -189.5 34.5t-133.5 97t-77 145t-26 182.5v391h228z" />
    <glyph glyph-name="afii10042" unicode="&#x428;" horiz-adv-x="1650" 
d="M1294 1366h226v-1366h-1389v1366h225v-1165h357v1165h225v-1165h356v1165z" />
    <glyph glyph-name="afii10043" unicode="&#x429;" horiz-adv-x="1673" 
d="M1294 1366h226v-1165h120v-453h-225v252h-1284v1366h225v-1165h357v1165h225v-1165h356v1165z" />
    <glyph glyph-name="afii10044" unicode="&#x42a;" horiz-adv-x="1280" 
d="M825 0h-465v1167h-313v199h539v-516h239q97 0 175 -34t127.5 -93t75.5 -135t26 -162q0 -117 -44 -212t-137.5 -154.5t-222.5 -59.5zM799 651h-213v-450h213q90 0 143 61.5t53 163.5q0 101 -53 163t-143 62z" />
    <glyph glyph-name="afii10045" unicode="&#x42b;" horiz-adv-x="1478" 
d="M131 1366h227v-516h238q98 0 176 -34t126.5 -93t74.5 -135t26 -162q0 -87 -26 -163.5t-74.5 -135.5t-126.5 -93t-176 -34h-465v1366zM569 651h-211v-450h211q90 0 144.5 61.5t54.5 163.5q0 100 -54.5 162.5t-144.5 62.5zM1348 0h-228v1366h228v-1366z" />
    <glyph glyph-name="afii10046" unicode="&#x42c;" horiz-adv-x="1050" 
d="M131 1366h227v-516h238q98 0 176 -34t126.5 -93t74.5 -135t26 -162q0 -87 -26 -163.5t-74.5 -135.5t-126.5 -93t-176 -34h-465v1366zM569 651h-211v-450h211q90 0 144.5 61.5t54.5 163.5q0 100 -54.5 162.5t-144.5 62.5z" />
    <glyph glyph-name="afii10047" unicode="&#x42d;" horiz-adv-x="1120" 
d="M485 -25q-292 0 -436 320l191 84q34 -91 97 -146t148 -55q132 0 217 114.5t103 303.5h-549v201h545q-22 177 -106 284t-210 107q-162 0 -245 -184l-189 83q31 63 66.5 112.5t87 94.5t123 70t157.5 25q168 0 295 -91t194.5 -251t67.5 -365q0 -153 -39.5 -283.5
t-110.5 -224t-176 -146.5t-231 -53z" />
    <glyph glyph-name="afii10048" unicode="&#x42e;" horiz-adv-x="1718" 
d="M1090 -25q-158 0 -278.5 82t-187 222t-79.5 323h-187v-602h-227v1366h227v-563h191q29 263 171.5 424.5t369.5 161.5q169 0 294.5 -93.5t189.5 -252.5t64 -361t-64 -361t-189.5 -252.5t-294.5 -93.5zM1090 178q100 0 172 67.5t107.5 180t35.5 256.5q0 223 -83 364.5
t-232 141.5q-99 0 -171 -67t-107.5 -180.5t-35.5 -258.5q0 -143 35.5 -256t107.5 -180.5t171 -67.5z" />
    <glyph glyph-name="afii10049" unicode="&#x42f;" horiz-adv-x="1091" 
d="M334 0h-252l264 555q-49 13 -92 41.5t-80.5 74.5t-59.5 116.5t-22 156.5q0 189 110.5 305.5t289.5 116.5h469v-1366h-226v516h-168zM522 717h213v450h-213q-90 0 -143 -61.5t-53 -163.5t53 -163.5t143 -61.5z" />
    <glyph glyph-name="afii10065" unicode="&#x430;" 
d="M836 0h-203v100q-43 -60 -113 -92.5t-147 -32.5q-126 0 -214.5 89t-88.5 241t87.5 237t215.5 85q78 0 148.5 -30.5t111.5 -88.5v143q0 90 -50.5 139.5t-142.5 49.5q-135 0 -245 -113l-80 143q72 72 167 108t195 36q165 0 262 -82.5t97 -255.5v-676zM446 117q56 0 107 29
t80 79v150q-29 52 -79.5 81t-107.5 29q-78 0 -125 -51.5t-47 -132.5t47 -132.5t125 -51.5z" />
    <glyph glyph-name="afii10066" unicode="&#x431;" horiz-adv-x="1003" 
d="M498 156q106 0 161.5 99t55.5 245q0 90 -22 163.5t-72.5 122t-122.5 48.5q-70 0 -120 -48.5t-72.5 -122.5t-22.5 -163q0 -145 55.5 -244.5t159.5 -99.5zM498 -25q-138 0 -235.5 74.5t-144 200.5t-46.5 291q0 258 41.5 406t132 222.5t254.5 102.5q109 19 150.5 39t41.5 55
h203q0 -46 -15.5 -84.5t-44.5 -65t-60.5 -46t-75 -33t-75.5 -21t-73 -14.5q-282 -44 -307 -244q42 71 118.5 113.5t169.5 42.5q123 0 214 -72.5t135.5 -188t44.5 -255.5q0 -104 -27.5 -197.5t-79 -166.5t-135 -116t-186.5 -43z" />
    <glyph glyph-name="afii10067" unicode="&#x432;" horiz-adv-x="997" 
d="M590 0h-469v989h457q145 0 222 -70.5t77 -181.5q0 -86 -46.5 -144t-123.5 -81q83 -19 135.5 -87.5t52.5 -156.5q0 -121 -77 -194.5t-228 -73.5zM547 172q68 0 103.5 32.5t35.5 90.5q0 54 -36 90.5t-103 36.5h-221v-250h221zM539 592q64 0 95.5 31t31.5 82t-31.5 82.5
t-95.5 31.5h-213v-227h213z" />
    <glyph glyph-name="afii10068" unicode="&#x433;" horiz-adv-x="772" 
d="M735 989v-178h-409v-811h-205v989h614z" />
    <glyph glyph-name="afii10069" unicode="&#x434;" horiz-adv-x="1009" 
d="M37 -252v414q27 5 44.5 13t36 27.5t30.5 51.5t22.5 86t17.5 131l45 518h639v-811h107v-430h-205v252h-534v-252h-203zM420 811l-27 -356q-14 -184 -110 -277h387v633h-250z" />
    <glyph glyph-name="afii10070" unicode="&#x435;" horiz-adv-x="970" 
d="M516 -25q-202 0 -323 144.5t-121 376.5q0 144 50 261t148 187t226 70q130 0 224.5 -70t140.5 -187.5t46 -269.5v-59h-628q6 -126 74 -205.5t184 -79.5q60 0 120.5 28.5t102.5 78.5l98 -123q-63 -72 -152.5 -112t-189.5 -40zM709 573q-1 39 -8 76t-23.5 73.5t-40 64
t-60.5 44.5t-83 17q-55 0 -97.5 -25.5t-67.5 -68t-38 -88t-15 -93.5h433z" />
    <glyph glyph-name="afii10072" unicode="&#x436;" horiz-adv-x="1269" 
d="M256 0h-240l334 545l-327 444h237l272 -381v381h205v-381l273 381h237l-327 -444l333 -545h-239l-234 414l-43 -58v-356h-205v356l-43 58z" />
    <glyph glyph-name="afii10073" unicode="&#x437;" horiz-adv-x="894" 
d="M426 -25q-252 0 -389 160l100 125q106 -119 285 -119q91 0 143.5 39.5t52.5 104.5q0 75 -55.5 104t-150.5 29h-185v164h181q92 0 144 35t52 102q0 59 -54.5 94t-141.5 35q-163 0 -254 -115l-105 123q135 158 352 158q187 0 297.5 -72t110.5 -197q0 -88 -66 -154.5
t-159 -84.5q96 -10 168.5 -74t72.5 -164q0 -129 -107.5 -211t-291.5 -82z" />
    <glyph glyph-name="afii10074" unicode="&#x438;" horiz-adv-x="993" 
d="M319 0h-198v989h205v-620l338 620h208v-989h-202v641z" />
    <glyph glyph-name="afii10075" unicode="&#x439;" horiz-adv-x="993" 
d="M319 0h-198v989h205v-620l338 620h208v-989h-202v641zM803 1262q-53 -72 -133 -113t-172 -41q-91 0 -170.5 41t-134.5 113l96 77q35 -51 90 -79.5t119 -28.5t119 28.5t90 79.5z" />
    <glyph glyph-name="afii10076" unicode="&#x43a;" horiz-adv-x="933" 
d="M918 0h-240l-234 414l-118 -160v-254h-205v989h205v-485l348 485h237l-327 -444z" />
    <glyph glyph-name="afii10077" unicode="&#x43b;" horiz-adv-x="993" 
d="M37 -25v175q43 0 70.5 25t48.5 96.5t32 199.5l45 518h639v-989h-202v811h-250l-27 -356q-11 -135 -39 -229.5t-75 -148.5t-105.5 -78t-136.5 -24z" />
    <glyph glyph-name="afii10078" unicode="&#x43c;" horiz-adv-x="1214" 
d="M1094 0h-201v645l-244 -645h-82l-241 645v-645h-205v989h262l225 -596l226 596h260v-989z" />
    <glyph glyph-name="afii10079" unicode="&#x43d;" horiz-adv-x="993" 
d="M326 0h-205v989h205v-389h344v389h202v-989h-202v422h-344v-422z" />
    <glyph glyph-name="afii10080" unicode="&#x43e;" horiz-adv-x="999" 
d="M500 -25q-102 0 -185 42t-135 114t-80 165.5t-28 199.5t28 199t80.5 164.5t135 113t184.5 41.5t184.5 -41.5t135 -113t80.5 -164.5t28 -199t-28 -199.5t-80 -165.5t-135 -114t-185 -42zM500 156q106 0 161.5 98t55.5 242t-55.5 241t-161.5 97t-161.5 -97t-55.5 -241
t55.5 -242t161.5 -98z" />
    <glyph glyph-name="afii10081" unicode="&#x43f;" horiz-adv-x="993" 
d="M872 0h-202v811h-344v-811h-205v989h751v-989z" />
    <glyph glyph-name="afii10082" unicode="&#x440;" horiz-adv-x="1007" 
d="M580 -25q-76 0 -143.5 40.5t-110.5 117.5v-510h-205v1366h205v-131q42 73 110.5 114.5t143.5 41.5q167 0 263.5 -139t96.5 -379q0 -238 -97 -379.5t-263 -141.5zM518 156q102 0 156.5 95.5t54.5 244.5t-54.5 243.5t-156.5 94.5q-58 0 -111.5 -39t-80.5 -97v-405
q27 -57 81 -97t111 -40z" />
    <glyph glyph-name="afii10083" unicode="&#x441;" horiz-adv-x="849" 
d="M506 -25q-195 0 -314.5 147t-119.5 374t119 372.5t315 145.5q195 0 301 -133l-105 -140q-72 93 -176 93q-113 0 -178 -96t-65 -242q0 -147 65 -243.5t178 -96.5q102 0 176 92l105 -139q-107 -134 -301 -134z" />
    <glyph glyph-name="afii10084" unicode="&#x442;" horiz-adv-x="724" 
d="M465 0h-205v811h-223v178h651v-178h-223v-811z" />
    <glyph glyph-name="afii10085" unicode="&#x443;" horiz-adv-x="880" 
d="M86 -387l31 180q25 -14 65 -14q42 0 69 18.5t44 63.5l41 119l-332 1009h217l219 -743l222 743h217l-392 -1175q-39 -119 -109.5 -167t-180.5 -48q-64 0 -111 14z" />
    <glyph glyph-name="afii10086" unicode="&#x444;" horiz-adv-x="1478" 
d="M414 1014q66 0 125 -40.5t98 -115.5v508h205v-508q38 73 97.5 114.5t125.5 41.5q147 0 232 -139t85 -379q0 -238 -85 -379.5t-232 -141.5q-66 0 -125 40.5t-98 117.5v-510h-205v510q-36 -75 -96 -116.5t-127 -41.5q-147 0 -232.5 141t-85.5 380q0 238 85.5 378t232.5 140
zM479 834q-84 0 -129 -94t-45 -244q0 -148 47 -244t131 -96q45 0 88.5 40t65.5 97v405q-22 57 -67 96.5t-91 39.5zM995 156q84 0 131.5 96t47.5 244q0 149 -45 243.5t-130 94.5q-47 0 -91 -39t-66 -97v-405q22 -57 65.5 -97t87.5 -40z" />
    <glyph glyph-name="afii10087" unicode="&#x445;" horiz-adv-x="868" 
d="M856 0h-223l-199 360l-198 -360h-224l295 504l-278 485h223l182 -340l182 340h224l-279 -485z" />
    <glyph glyph-name="afii10088" unicode="&#x446;" horiz-adv-x="1009" 
d="M774 -252v252h-653v989h205v-811h344v811h202v-811h107v-430h-205z" />
    <glyph glyph-name="afii10089" unicode="&#x447;" horiz-adv-x="962" 
d="M92 989h203v-291q0 -85 41 -120t135 -35q99 0 168 32v414h203v-989h-203v416q-41 -24 -103.5 -39t-127.5 -15q-171 0 -243.5 65.5t-72.5 201.5v360z" />
    <glyph glyph-name="afii10090" unicode="&#x448;" horiz-adv-x="1409" 
d="M1083 989h205v-989h-1167v989h205v-811h276v811h205v-811h276v811z" />
    <glyph glyph-name="afii10091" unicode="&#x449;" horiz-adv-x="1435" 
d="M1083 989h205v-811h115v-430h-203v252h-1079v989h205v-811h276v811h205v-811h276v811z" />
    <glyph glyph-name="afii10092" unicode="&#x44a;" horiz-adv-x="1079" 
d="M684 0h-424v811h-223v178h428v-362h219q161 0 246.5 -90t85.5 -226q0 -132 -87 -221.5t-245 -89.5zM659 455h-194v-283h194q70 0 109 39t39 102q0 62 -39 102t-109 40z" />
    <glyph glyph-name="afii10093" unicode="&#x44b;" horiz-adv-x="1327" 
d="M121 989h205v-362h219q161 0 246.5 -90t85.5 -226q0 -132 -87 -221.5t-245 -89.5h-424v989zM520 455h-194v-283h194q70 0 109 39t39 102q0 62 -39 102t-109 40zM1206 0h-202v989h202v-989z" />
    <glyph glyph-name="afii10094" unicode="&#x44c;" horiz-adv-x="940" 
d="M121 989h205v-362h219q161 0 246.5 -90t85.5 -226q0 -132 -87 -221.5t-245 -89.5h-424v989zM520 455h-194v-283h194q70 0 109 39t39 102q0 62 -39 102t-109 40z" />
    <glyph glyph-name="afii10095" unicode="&#x44d;" horiz-adv-x="849" 
d="M346 -25q-198 0 -301 134l100 131q75 -97 181 -97q97 0 158 73t79 196h-368v176h366q-18 120 -78.5 190t-156.5 70q-107 0 -181 -96l-100 129q102 133 301 133q196 0 315 -145.5t119 -372.5t-119.5 -374t-314.5 -147z" />
    <glyph glyph-name="afii10096" unicode="&#x44e;" horiz-adv-x="1409" 
d="M909 -25q-93 0 -170 35t-129.5 96.5t-84.5 142t-42 173.5h-157v-422h-205v989h205v-389h161q26 182 136 298t286 116q137 0 235.5 -72t145.5 -187.5t47 -258.5q0 -106 -27.5 -199.5t-80 -165.5t-135 -114t-185.5 -42zM909 156q107 0 162 97.5t55 242.5q0 93 -22 167
t-72 122.5t-123 48.5q-72 0 -122 -48.5t-71.5 -122.5t-21.5 -167t21.5 -167.5t71.5 -123.5t122 -49z" />
    <glyph glyph-name="afii10097" unicode="&#x44f;" horiz-adv-x="987" 
d="M317 0h-233l213 389q-85 24 -142 98.5t-57 190.5q0 134 88 222.5t244 88.5h436v-989h-204v365h-164zM455 535h207v284h-207q-70 0 -110 -39t-40 -102q0 -64 39.5 -103.5t110.5 -39.5z" />
    <glyph glyph-name="afii10071" unicode="&#x451;" horiz-adv-x="970" 
d="M799 1243q0 -47 -35 -81t-82 -34t-81 34t-34 81t34 81t81 34t82 -34t35 -81zM426 1243q0 -47 -34 -81t-81 -34t-81.5 34t-34.5 81t34.5 81t81.5 34t81 -34t34 -81zM516 -25q-202 0 -323 144.5t-121 376.5q0 144 50 261t148 187t226 70q130 0 224.5 -70t140.5 -187.5
t46 -269.5v-59h-628q6 -126 74 -205.5t184 -79.5q60 0 120.5 28.5t102.5 78.5l98 -123q-63 -72 -152.5 -112t-189.5 -40zM709 573q-1 39 -8 76t-23.5 73.5t-40 64t-60.5 44.5t-83 17q-55 0 -97.5 -25.5t-67.5 -68t-38 -88t-15 -93.5h433z" />
    <glyph glyph-name="afii10099" unicode="&#x452;" horiz-adv-x="1009" 
d="M614 1090h-272v-234q43 65 122.5 111.5t166.5 46.5q258 0 258 -266v-832q0 -317 -287 -317q-60 0 -100 15t-76 48l57 154q42 -45 97 -45q49 0 77.5 35.5t28.5 109.5v760q0 84 -36.5 121t-106.5 37q-61 0 -115 -40.5t-86 -97.5v-696h-205v1090h-108v122h108v154h205v-154
h272v-122z" />
    <glyph glyph-name="afii10100" unicode="&#x453;" horiz-adv-x="772" 
d="M737 1434l-274 -295h-139l225 295h188zM735 989v-178h-409v-811h-205v989h614z" />
    <glyph glyph-name="afii10101" unicode="&#x454;" horiz-adv-x="849" 
d="M506 -25q-195 0 -314.5 147t-119.5 374t119 372.5t315 145.5q195 0 301 -133l-100 -129q-77 96 -181 96q-96 0 -157.5 -70t-79.5 -190h368v-176h-368q15 -122 77.5 -195.5t159.5 -73.5q103 0 181 97l100 -131q-107 -134 -301 -134z" />
    <glyph glyph-name="afii10102" unicode="&#x455;" horiz-adv-x="821" 
d="M406 -25q-230 0 -363 142l92 143q47 -52 120 -87.5t146 -35.5q76 0 120 35t44 94q0 34 -21 60t-55.5 42.5t-78.5 34.5t-89.5 33.5t-89.5 41t-78.5 57t-55.5 82t-21 114.5q0 120 91.5 201.5t248.5 81.5q195 0 325 -127l-86 -139q-38 46 -101 75t-134 29q-68 0 -110 -32.5
t-42 -82.5q0 -35 27 -61t70.5 -44t96 -36t105 -43.5t96 -59.5t70.5 -91t27 -132q0 -129 -97 -212t-257 -83z" />
    <glyph glyph-name="afii10103" unicode="&#x456;" horiz-adv-x="446" 
d="M223 1114q-53 0 -91 37.5t-38 89.5q0 54 38 91.5t91 37.5t90 -37.5t37 -91.5q0 -53 -37 -90t-90 -37zM326 0h-205v989h205v-989z" />
    <glyph glyph-name="afii10104" unicode="&#x457;" horiz-adv-x="446" 
d="M524 1243q0 -47 -34.5 -81t-81.5 -34t-81 34t-34 81t34 81t81 34t81.5 -34t34.5 -81zM152 1243q0 -47 -34 -81t-81 -34t-82 34t-35 81t35 81t82 34t81 -34t34 -81zM326 0h-205v989h205v-989z" />
    <glyph glyph-name="afii10105" unicode="&#x458;" horiz-adv-x="446" 
d="M223 1114q-53 0 -91 37.5t-38 89.5q0 54 38 91.5t91 37.5t90 -37.5t37 -91.5q0 -53 -37 -90t-90 -37zM39 -401q-61 0 -101.5 15t-76.5 48l57 154q42 -45 96 -45q107 0 107 145v1073h205v-1073q0 -317 -287 -317z" />
    <glyph glyph-name="afii10106" unicode="&#x459;" horiz-adv-x="1488" 
d="M37 -25v175q43 0 70.5 25t48.5 96.5t32 199.5l45 518h639v-362h220q161 0 247 -90t86 -226q0 -132 -86.5 -221.5t-246.5 -89.5h-422v811h-250l-27 -356q-11 -135 -39 -229.5t-75 -148.5t-105.5 -78t-136.5 -24zM1067 455h-195v-283h195q72 0 111 39t39 102
q0 62 -39.5 102t-110.5 40z" />
    <glyph glyph-name="afii10107" unicode="&#x45a;" horiz-adv-x="1488" 
d="M326 0h-205v989h205v-389h344v389h202v-389h228q157 0 241 -85t84 -216q0 -129 -84.5 -214t-240.5 -85h-430v422h-344v-422zM1075 430h-203v-258h203q68 0 105 34.5t37 92.5q0 60 -37 95.5t-105 35.5z" />
    <glyph glyph-name="afii10108" unicode="&#x45b;" horiz-adv-x="1009" 
d="M621 1090h-279v-234q43 65 122.5 111.5t166.5 46.5q258 0 258 -266v-748h-203v678q0 156 -143 156q-61 0 -115 -40.5t-86 -97.5v-696h-205v1090h-108v122h108v154h205v-154h279v-122z" />
    <glyph glyph-name="afii10109" unicode="&#x45c;" horiz-adv-x="933" 
d="M780 1434l-274 -295h-139l225 295h188zM918 0h-240l-234 414l-118 -160v-254h-205v989h205v-485l348 485h237l-327 -444z" />
    <glyph glyph-name="afii10110" unicode="&#x45e;" horiz-adv-x="880" 
d="M86 -387l31 180q25 -14 65 -14q42 0 69 18.5t44 63.5l41 119l-332 1009h217l219 -743l222 743h217l-392 -1175q-39 -119 -109.5 -167t-180.5 -48q-64 0 -111 14zM745 1262q-53 -72 -133 -113t-172 -41q-91 0 -170.5 41t-134.5 113l96 77q35 -51 90 -79.5t119 -28.5
t119 28.5t90 79.5z" />
    <glyph glyph-name="afii10193" unicode="&#x45f;" horiz-adv-x="993" 
d="M395 -262v262h-274v989h205v-811h344v811h202v-989h-272v-262h-205z" />
    <glyph glyph-name="afii10050" unicode="&#x490;" horiz-adv-x="950" 
d="M358 1167v-1167h-227v1366h522v252h226v-451h-521z" />
    <glyph glyph-name="afii10098" unicode="&#x491;" horiz-adv-x="772" 
d="M326 811v-811h-205v989h409v262h205v-440h-409z" />
    <glyph glyph-name="uni1E02" unicode="&#x1e02;" horiz-adv-x="1105" 
d="M664 0h-533v1366h516q167 0 259.5 -98t92.5 -250q0 -124 -60 -205.5t-155 -107.5q101 -15 169.5 -112.5t68.5 -223.5q0 -166 -92 -267.5t-266 -101.5zM598 797q84 0 126 49.5t42 134.5q0 84 -42.5 135t-125.5 51h-240v-370h240zM606 201q90 0 136 51.5t46 146.5
q0 86 -47 141.5t-135 55.5h-248v-395h248zM553 1468q-47 0 -82 34t-35 81t35 82t82 35t81 -35t34 -82t-34 -81t-81 -34z" />
    <glyph glyph-name="uni1E03" unicode="&#x1e03;" horiz-adv-x="1011" 
d="M326 291q27 -57 81 -96t111 -39q102 0 156.5 94.5t54.5 243.5q0 151 -54.5 245.5t-156.5 94.5q-57 0 -111 -40.5t-81 -97.5v-405zM326 0h-205v1366h205v-510q43 77 110.5 117.5t143.5 40.5q165 0 262.5 -142t97.5 -378q0 -238 -97 -378.5t-263 -140.5q-75 0 -142.5 41.5
t-111.5 114.5v-131zM520 1468q-47 0 -82 34t-35 81t35 82t82 35t81 -35t34 -82t-34 -81t-81 -34z" />
    <glyph glyph-name="uni1E0A" unicode="&#x1e0a;" horiz-adv-x="1193" 
d="M539 0h-408v1366h408q180 0 311 -88.5t197.5 -242t66.5 -353.5t-66 -353t-197 -241t-312 -88zM539 201q163 0 252.5 132t89.5 349q0 222 -88 353.5t-254 131.5h-181v-966h181zM598 1468q-47 0 -82 34t-35 81t35 82t82 35t81 -35t34 -82t-34 -81t-81 -34z" />
    <glyph glyph-name="uni1E0B" unicode="&#x1e0b;" horiz-adv-x="1011" 
d="M891 0h-205v131q-44 -73 -112 -114.5t-142 -41.5q-166 0 -263 140.5t-97 378.5q0 236 97 378t263 142q75 0 143 -40.5t111 -117.5v510h205v-1366zM494 156q57 0 111 39t81 96v407q-27 57 -81 96.5t-111 39.5q-102 0 -156.5 -94.5t-54.5 -245.5q0 -148 54.5 -243
t156.5 -95zM496 1468q-47 0 -82 34t-35 81t35 82t82 35t80.5 -34.5t33.5 -82.5q0 -47 -33.5 -81t-80.5 -34z" />
    <glyph glyph-name="uni1E1E" unicode="&#x1e1e;" horiz-adv-x="950" 
d="M510 1468q-47 0 -82 34t-35 81t35 82t82 35t81 -35t34 -82t-34 -81t-81 -34zM358 0h-227v1366h748v-199h-521v-370h506v-201h-506v-596z" />
    <glyph glyph-name="uni1E1F" unicode="&#x1e1f;" horiz-adv-x="561" 
d="M440 1468q-47 0 -81.5 34t-34.5 81t34.5 82t81.5 35t81 -35t34 -82t-34 -81t-81 -34zM367 0h-205v811h-129v178h129v92q0 144 74 224.5t204 80.5q127 0 199 -69l-70 -143q-40 40 -92 40q-54 0 -82 -34t-28 -99v-92h163v-178h-163v-811z" />
    <glyph glyph-name="uni1E22" unicode="&#x1e22;" horiz-adv-x="1214" 
d="M1085 0h-227v602h-500v-602h-227v1366h227v-563h500v563h227v-1366zM608 1468q-47 0 -81.5 34t-34.5 81t34.5 82t81.5 35t81 -35t34 -82t-34 -81t-81 -34z" />
    <glyph glyph-name="uni1E23" unicode="&#x1e23;" horiz-adv-x="993" 
d="M872 0h-202v678q0 156 -144 156q-61 0 -114.5 -40t-85.5 -98v-696h-205v1366h205v-510q43 65 122 111.5t166 46.5q258 0 258 -266v-748zM498 1468q-47 0 -82 34t-35 81t35 82t82 35t80.5 -34.5t33.5 -82.5q0 -47 -33.5 -81t-80.5 -34z" />
    <glyph glyph-name="uni1E56" unicode="&#x1e56;" horiz-adv-x="1050" 
d="M358 0h-227v1366h465q98 0 176 -34t126.5 -93t74.5 -135t26 -162q0 -87 -26 -163.5t-74.5 -135.5t-126.5 -93t-176 -34h-238v-516zM569 717q90 0 144.5 61.5t54.5 163.5t-54.5 163.5t-144.5 61.5h-211v-450h211zM526 1468q-47 0 -81.5 34t-34.5 81t34.5 82t81.5 35
t81 -35t34 -82t-34 -81t-81 -34z" />
    <glyph glyph-name="uni1E57" unicode="&#x1e57;" horiz-adv-x="1007" 
d="M580 -25q-76 0 -143.5 40.5t-110.5 117.5v-510h-205v1366h205v-131q42 73 110.5 114.5t143.5 41.5q167 0 263.5 -139t96.5 -379q0 -238 -97 -379.5t-263 -141.5zM518 156q102 0 156.5 95.5t54.5 244.5t-54.5 243.5t-156.5 94.5q-58 0 -111.5 -39t-80.5 -97v-405
q27 -57 81 -97t111 -40zM520 1126q-47 0 -82 34t-35 81t35 82t82 35t81 -35t34 -82t-34 -81t-81 -34z" />
    <glyph glyph-name="uni1E60" unicode="&#x1e60;" horiz-adv-x="995" 
d="M485 -25q-275 0 -440 175l115 176q59 -67 143.5 -107.5t181.5 -40.5q101 0 157 52t56 128q0 57 -34 100t-87.5 72.5t-119 57.5t-131 62.5t-119 78.5t-87.5 115.5t-34 163.5q0 163 117 272t307 109q239 0 393 -148l-110 -172q-117 117 -289 117q-84 0 -135.5 -45.5
t-51.5 -120.5q0 -49 34 -88t88 -66.5t119 -55.5t130.5 -64.5t119.5 -82.5t88 -119.5t34 -166.5q0 -175 -116.5 -288.5t-328.5 -113.5zM498 1468q-47 0 -82 34t-35 81t35 82t82 35t80.5 -34.5t33.5 -82.5q0 -47 -33.5 -81t-80.5 -34z" />
    <glyph glyph-name="uni1E61" unicode="&#x1e61;" horiz-adv-x="821" 
d="M406 -25q-230 0 -363 142l92 143q47 -52 120 -87.5t146 -35.5q76 0 120 35t44 94q0 34 -21 60t-55.5 42.5t-78.5 34.5t-89.5 33.5t-89.5 41t-78.5 57t-55.5 82t-21 114.5q0 120 91.5 201.5t248.5 81.5q195 0 325 -127l-86 -139q-38 46 -101 75t-134 29q-68 0 -110 -32.5
t-42 -82.5q0 -35 27 -61t70.5 -44t96 -36t105 -43.5t96 -59.5t70.5 -91t27 -132q0 -129 -97 -212t-257 -83zM412 1126q-47 0 -82 34t-35 81t35 82t82 35t80.5 -34.5t33.5 -82.5q0 -47 -33.5 -81t-80.5 -34z" />
    <glyph glyph-name="uni1E6A" unicode="&#x1e6a;" horiz-adv-x="946" 
d="M586 0h-226v1167h-313v199h852v-199h-313v-1167zM473 1468q-47 0 -82 34t-35 81t35 82t82 35t81 -35t34 -82t-34 -81t-81 -34z" />
    <glyph glyph-name="uni1E6B" unicode="&#x1e6b;" horiz-adv-x="579" 
d="M387 -25q-229 0 -229 246v590h-129v178h129v271h204v-271h164v-178h-164v-547q0 -108 76 -108q53 0 78 32l49 -153q-60 -60 -178 -60zM268 1468q-47 0 -81.5 34t-34.5 81t34.5 82t81.5 35t81 -35t34 -82t-34 -81t-81 -34z" />
    <glyph glyph-name="Wgrave" unicode="&#x1e80;" horiz-adv-x="1525" 
d="M1196 0h-238l-196 981l-195 -981h-237l-310 1366h244l197 -1020l211 1020h182l213 -1020l195 1020h243zM866 1481h-139l-274 295h190z" />
    <glyph glyph-name="wgrave" unicode="&#x1e81;" horiz-adv-x="1366" 
d="M1087 0h-213l-190 727l-192 -727h-213l-265 989h211l172 -721l189 721h188l193 -721l174 721h211zM788 1139h-139l-274 295h190z" />
    <glyph glyph-name="Wacute" unicode="&#x1e82;" horiz-adv-x="1525" 
d="M1071 1776l-274 -295h-140l226 295h188zM1196 0h-238l-196 981l-195 -981h-237l-310 1366h244l197 -1020l211 1020h182l213 -1020l195 1020h243z" />
    <glyph glyph-name="wacute" unicode="&#x1e83;" horiz-adv-x="1366" 
d="M993 1434l-274 -295h-139l225 295h188zM1087 0h-213l-190 727l-192 -727h-213l-265 989h211l172 -721l189 721h188l193 -721l174 721h211z" />
    <glyph glyph-name="Wdieresis" unicode="&#x1e84;" horiz-adv-x="1525" 
d="M1065 1585q0 -47 -35 -81t-82 -34t-80.5 34t-33.5 81t33.5 81t80.5 34t82 -34t35 -81zM692 1585q0 -47 -33.5 -81t-80.5 -34t-82 34t-35 81t35 81t82 34t80.5 -34t33.5 -81zM1196 0h-238l-196 981l-195 -981h-237l-310 1366h244l197 -1020l211 1020h182l213 -1020
l195 1020h243z" />
    <glyph glyph-name="wdieresis" unicode="&#x1e85;" horiz-adv-x="1366" 
d="M985 1243q0 -47 -35 -81t-82 -34t-80.5 34t-33.5 81t33.5 81t80.5 34t82 -34t35 -81zM612 1243q0 -47 -33.5 -81t-80.5 -34t-82 34t-35 81t35 81t82 34t80.5 -34t33.5 -81zM1087 0h-213l-190 727l-192 -727h-213l-265 989h211l172 -721l189 721h188l193 -721l174 721h211
z" />
    <glyph glyph-name="uni1EA0" unicode="&#x1ea0;" horiz-adv-x="1097" 
d="M1092 0h-246l-74 270h-448l-74 -270h-246l408 1366h272zM727 471l-178 653l-178 -653h356zM551 -387q-47 0 -82 34t-35 81t35 81.5t82 34.5t81 -34.5t34 -81.5t-34 -81t-81 -34z" />
    <glyph glyph-name="uni1EA1" unicode="&#x1ea1;" 
d="M836 0h-203v100q-43 -60 -113 -92.5t-147 -32.5q-126 0 -214.5 89t-88.5 241t87.5 237t215.5 85q78 0 148.5 -30.5t111.5 -88.5v143q0 90 -50.5 139.5t-142.5 49.5q-135 0 -245 -113l-80 143q72 72 167 108t195 36q165 0 262 -82.5t97 -255.5v-676zM446 117q56 0 107 29
t80 79v150q-29 52 -79.5 81t-107.5 29q-78 0 -125 -51.5t-47 -132.5t47 -132.5t125 -51.5zM481 -387q-47 0 -81.5 34t-34.5 81t34.5 81.5t81.5 34.5t81 -34.5t34 -81.5t-34 -81t-81 -34z" />
    <glyph glyph-name="uni1EA2" unicode="&#x1ea2;" horiz-adv-x="1097" 
d="M1092 0h-246l-74 270h-448l-74 -270h-246l408 1366h272zM727 471l-178 653l-178 -653h356zM487 1550l-79 21q14 50 51 79t92 29q61 0 99 -34t38 -103q0 -59 -37 -115h-90q43 51 43 111q0 66 -55 66q-46 0 -62 -54z" />
    <glyph glyph-name="uni1EA3" unicode="&#x1ea3;" 
d="M836 0h-203v100q-43 -60 -113 -92.5t-147 -32.5q-126 0 -214.5 89t-88.5 241t87.5 237t215.5 85q78 0 148.5 -30.5t111.5 -88.5v143q0 90 -50.5 139.5t-142.5 49.5q-135 0 -245 -113l-80 143q72 72 167 108t195 36q165 0 262 -82.5t97 -255.5v-676zM446 117q56 0 107 29
t80 79v150q-29 52 -79.5 81t-107.5 29q-78 0 -125 -51.5t-47 -132.5t47 -132.5t125 -51.5zM418 1202l-80 21q14 50 51 79t92 29q61 0 99 -34t38 -103q0 -60 -36 -115h-90q43 51 43 111q0 65 -56 65q-45 0 -61 -53z" />
    <glyph glyph-name="uni1EA4" unicode="&#x1ea4;" horiz-adv-x="1097" 
d="M807 1397h-123l-137 149l-131 -149h-123l162 221h186zM1092 0h-246l-74 270h-448l-74 -270h-246l408 1366h272zM727 471l-178 653l-178 -653h356zM1163 1729l-274 -222h-139l225 222h188z" />
    <glyph glyph-name="uni1EA5" unicode="&#x1ea5;" 
d="M836 0h-203v100q-43 -60 -113 -92.5t-147 -32.5q-126 0 -214.5 89t-88.5 241t87.5 237t215.5 85q78 0 148.5 -30.5t111.5 -88.5v143q0 90 -50.5 139.5t-142.5 49.5q-135 0 -245 -113l-80 143q72 72 167 108t195 36q165 0 262 -82.5t97 -255.5v-676zM446 117q56 0 107 29
t80 79v150q-29 52 -79.5 81t-107.5 29q-78 0 -125 -51.5t-47 -132.5t47 -132.5t125 -51.5zM737 1139h-123l-137 198l-131 -198h-123l162 295h186zM1087 1579l-274 -295h-139l225 295h188z" />
    <glyph glyph-name="uni1EA6" unicode="&#x1ea6;" horiz-adv-x="1097" 
d="M807 1397h-123l-137 149l-131 -149h-123l162 221h186zM1092 0h-246l-74 270h-448l-74 -270h-246l408 1366h272zM727 471l-178 653l-178 -653h356zM350 1507h-139l-274 222h190z" />
    <glyph glyph-name="uni1EA7" unicode="&#x1ea7;" 
d="M836 0h-203v100q-43 -60 -113 -92.5t-147 -32.5q-126 0 -214.5 89t-88.5 241t87.5 237t215.5 85q78 0 148.5 -30.5t111.5 -88.5v143q0 90 -50.5 139.5t-142.5 49.5q-135 0 -245 -113l-80 143q72 72 167 108t195 36q165 0 262 -82.5t97 -255.5v-676zM446 117q56 0 107 29
t80 79v150q-29 52 -79.5 81t-107.5 29q-78 0 -125 -51.5t-47 -132.5t47 -132.5t125 -51.5zM737 1139h-123l-137 198l-131 -198h-123l162 295h186zM283 1284h-140l-274 295h190z" />
    <glyph glyph-name="uni1EA8" unicode="&#x1ea8;" horiz-adv-x="1097" 
d="M807 1397h-123l-137 149l-131 -149h-123l162 221h186zM1092 0h-246l-74 270h-448l-74 -270h-246l408 1366h272zM727 471l-178 653l-178 -653h356zM764 1616l-80 16q14 37 51 58.5t92 21.5q61 0 99.5 -25.5t38.5 -76.5q0 -43 -37 -86h-90q43 40 43 84q0 49 -56 49
q-45 0 -61 -41z" />
    <glyph glyph-name="uni1EA9" unicode="&#x1ea9;" 
d="M836 0h-203v100q-43 -60 -113 -92.5t-147 -32.5q-126 0 -214.5 89t-88.5 241t87.5 237t215.5 85q78 0 148.5 -30.5t111.5 -88.5v143q0 90 -50.5 139.5t-142.5 49.5q-135 0 -245 -113l-80 143q72 72 167 108t195 36q165 0 262 -82.5t97 -255.5v-676zM446 117q56 0 107 29
t80 79v150q-29 52 -79.5 81t-107.5 29q-78 0 -125 -51.5t-47 -132.5t47 -132.5t125 -51.5zM737 1139h-123l-137 198l-131 -198h-123l162 295h186zM600 1489l-80 20q14 50 51.5 79.5t92.5 29.5q61 0 99 -34t38 -103q0 -59 -37 -115h-90q43 51 43 111q0 65 -55 65
q-46 0 -62 -53z" />
    <glyph glyph-name="uni1EAA" unicode="&#x1eaa;" horiz-adv-x="1097" 
d="M807 1389h-123l-137 98l-131 -98h-123l162 147h186zM1092 0h-246l-74 270h-448l-74 -270h-246l408 1366h272zM727 471l-178 653l-178 -653h356zM649 1550q-43 0 -76.5 13t-50.5 28t-39 28t-45 13q-30 0 -49.5 -19t-19.5 -57h-111q0 62 49 100t139 38q42 0 75.5 -13
t50.5 -28t39.5 -28t45.5 -13q30 0 49 19t19 57h111q0 -63 -48.5 -100.5t-138.5 -37.5z" />
    <glyph glyph-name="uni1EAB" unicode="&#x1eab;" 
d="M836 0h-203v100q-43 -60 -113 -92.5t-147 -32.5q-126 0 -214.5 89t-88.5 241t87.5 237t215.5 85q78 0 148.5 -30.5t111.5 -88.5v143q0 90 -50.5 139.5t-142.5 49.5q-135 0 -245 -113l-80 143q72 72 167 108t195 36q165 0 262 -82.5t97 -255.5v-676zM446 117q56 0 107 29
t80 79v150q-29 52 -79.5 81t-107.5 29q-78 0 -125 -51.5t-47 -132.5t47 -132.5t125 -51.5zM737 1071h-123l-137 199l-131 -199h-123l162 295h186zM580 1397q-43 0 -76.5 26t-50.5 57t-39 57t-45 26q-30 0 -50 -39.5t-20 -114.5h-111q0 125 49.5 199.5t139.5 74.5
q35 0 62.5 -17t45.5 -40.5t33 -47.5t32.5 -41t37.5 -17q30 0 48.5 37.5t18.5 113.5h111q0 -125 -48 -199.5t-138 -74.5z" />
    <glyph glyph-name="uni1EAC" unicode="&#x1eac;" horiz-adv-x="1097" 
d="M1092 0h-246l-74 270h-448l-74 -270h-246l408 1366h272zM727 471l-178 653l-178 -653h356zM807 1481h-123l-137 198l-131 -198h-123l162 295h186zM551 -387q-47 0 -82 34t-35 81t35 81.5t82 34.5t81 -34.5t34 -81.5t-34 -81t-81 -34z" />
    <glyph glyph-name="uni1EAD" unicode="&#x1ead;" 
d="M836 0h-203v100q-43 -60 -113 -92.5t-147 -32.5q-126 0 -214.5 89t-88.5 241t87.5 237t215.5 85q78 0 148.5 -30.5t111.5 -88.5v143q0 90 -50.5 139.5t-142.5 49.5q-135 0 -245 -113l-80 143q72 72 167 108t195 36q165 0 262 -82.5t97 -255.5v-676zM446 117q56 0 107 29
t80 79v150q-29 52 -79.5 81t-107.5 29q-78 0 -125 -51.5t-47 -132.5t47 -132.5t125 -51.5zM735 1139h-123l-137 198l-131 -198h-123l162 295h186zM481 -387q-47 0 -81.5 34t-34.5 81t34.5 81.5t81.5 34.5t81 -34.5t34 -81.5t-34 -81t-81 -34z" />
    <glyph glyph-name="uni1EAE" unicode="&#x1eae;" horiz-adv-x="1097" 
d="M1092 0h-246l-74 270h-448l-74 -270h-246l408 1366h272zM727 471l-178 653l-178 -653h356zM856 1710l-274 -186h-140l226 186h188zM854 1520q-53 -56 -132.5 -87.5t-172.5 -31.5q-91 0 -170.5 31.5t-134.5 87.5l96 59q74 -84 209 -84t209 84z" />
    <glyph glyph-name="uni1EAF" unicode="&#x1eaf;" 
d="M836 0h-203v100q-43 -60 -113 -92.5t-147 -32.5q-126 0 -214.5 89t-88.5 241t87.5 237t215.5 85q78 0 148.5 -30.5t111.5 -88.5v143q0 90 -50.5 139.5t-142.5 49.5q-135 0 -245 -113l-80 143q72 72 167 108t195 36q165 0 262 -82.5t97 -255.5v-676zM446 117q56 0 107 29
t80 79v150q-29 52 -79.5 81t-107.5 29q-78 0 -125 -51.5t-47 -132.5t47 -132.5t125 -51.5zM788 1581l-274 -295h-139l225 295h188zM784 1219q-53 -72 -133 -113t-172 -41q-91 0 -170.5 41t-134.5 113l96 77q35 -51 90 -79.5t119 -28.5t119 28.5t90 79.5z" />
    <glyph glyph-name="uni1EB0" unicode="&#x1eb0;" horiz-adv-x="1097" 
d="M1092 0h-246l-74 270h-448l-74 -270h-246l408 1366h272zM727 471l-178 653l-178 -653h356zM657 1524h-139l-274 186h190zM854 1516q-53 -56 -132.5 -87.5t-172.5 -31.5q-91 0 -170.5 31.5t-134.5 87.5l96 59q74 -84 209 -84t209 84z" />
    <glyph glyph-name="uni1EB1" unicode="&#x1eb1;" 
d="M836 0h-203v100q-43 -60 -113 -92.5t-147 -32.5q-126 0 -214.5 89t-88.5 241t87.5 237t215.5 85q78 0 148.5 -30.5t111.5 -88.5v143q0 90 -50.5 139.5t-142.5 49.5q-135 0 -245 -113l-80 143q72 72 167 108t195 36q165 0 262 -82.5t97 -255.5v-676zM446 117q56 0 107 29
t80 79v150q-29 52 -79.5 81t-107.5 29q-78 0 -125 -51.5t-47 -132.5t47 -132.5t125 -51.5zM580 1286h-140l-274 295h190zM784 1221q-53 -72 -133 -113t-172 -41q-91 0 -170.5 41t-134.5 113l96 77q35 -51 90 -79.5t119 -28.5t119 28.5t90 79.5z" />
    <glyph glyph-name="uni1EB2" unicode="&#x1eb2;" horiz-adv-x="1097" 
d="M1092 0h-246l-74 270h-448l-74 -270h-246l408 1366h272zM727 471l-178 653l-178 -653h356zM487 1606l-79 14q14 31 51.5 49.5t91.5 18.5q60 0 98.5 -22t38.5 -64q0 -37 -37 -74h-90q43 35 43 69q0 43 -55 43q-45 0 -62 -34zM854 1516q-53 -56 -132.5 -87.5t-172.5 -31.5
q-91 0 -170.5 31.5t-134.5 87.5l96 59q74 -84 209 -84t209 84z" />
    <glyph glyph-name="uni1EB3" unicode="&#x1eb3;" 
d="M836 0h-203v100q-43 -60 -113 -92.5t-147 -32.5q-126 0 -214.5 89t-88.5 241t87.5 237t215.5 85q78 0 148.5 -30.5t111.5 -88.5v143q0 90 -50.5 139.5t-142.5 49.5q-135 0 -245 -113l-80 143q72 72 167 108t195 36q165 0 262 -82.5t97 -255.5v-676zM446 117q56 0 107 29
t80 79v150q-29 52 -79.5 81t-107.5 29q-78 0 -125 -51.5t-47 -132.5t47 -132.5t125 -51.5zM420 1407l-80 20q14 50 51 79.5t92 29.5q61 0 99.5 -34.5t38.5 -102.5q0 -59 -37 -115h-90q43 51 43 111q0 65 -56 65q-45 0 -61 -53zM784 1221q-53 -72 -133 -113t-172 -41
q-91 0 -170.5 41t-134.5 113l96 77q35 -51 90 -79.5t119 -28.5t119 28.5t90 79.5z" />
    <glyph glyph-name="uni1EB4" unicode="&#x1eb4;" horiz-adv-x="1097" 
d="M1092 0h-246l-74 270h-448l-74 -270h-246l408 1366h272zM727 471l-178 653l-178 -653h356zM854 1489q-54 -44 -133.5 -69t-171.5 -25q-186 0 -305 94l96 47q76 -66 209 -66t209 66zM649 1550q-43 0 -76.5 13t-50.5 28t-39 28t-45 13q-30 0 -49.5 -19t-19.5 -57h-111
q0 62 49 100t139 38q42 0 75.5 -13t50.5 -28t39.5 -28t45.5 -13q30 0 49 19t19 57h111q0 -63 -48.5 -100.5t-138.5 -37.5z" />
    <glyph glyph-name="uni1EB5" unicode="&#x1eb5;" 
d="M836 0h-203v100q-43 -60 -113 -92.5t-147 -32.5q-126 0 -214.5 89t-88.5 241t87.5 237t215.5 85q78 0 148.5 -30.5t111.5 -88.5v143q0 90 -50.5 139.5t-142.5 49.5q-135 0 -245 -113l-80 143q72 72 167 108t195 36q165 0 262 -82.5t97 -255.5v-676zM446 117q56 0 107 29
t80 79v150q-29 52 -79.5 81t-107.5 29q-78 0 -125 -51.5t-47 -132.5t47 -132.5t125 -51.5zM784 1221q-53 -72 -133 -113t-172 -41q-91 0 -170.5 41t-134.5 113l96 77q35 -51 90 -79.5t119 -28.5t119 28.5t90 79.5zM580 1337q-43 0 -76.5 26t-50.5 57t-39 57t-45 26
q-30 0 -50 -39t-20 -114h-111q0 125 49.5 199.5t139.5 74.5q35 0 62.5 -17t45.5 -41t33 -48t32.5 -41t37.5 -17q30 0 48.5 38t18.5 114h111q0 -125 -48 -200t-138 -75z" />
    <glyph glyph-name="uni1EB6" unicode="&#x1eb6;" horiz-adv-x="1097" 
d="M1092 0h-246l-74 270h-448l-74 -270h-246l408 1366h272zM727 471l-178 653l-178 -653h356zM551 -387q-47 0 -82 34t-35 81t35 81.5t82 34.5t81 -34.5t34 -81.5t-34 -81t-81 -34zM854 1604q-53 -72 -133 -113t-172 -41q-91 0 -170.5 41t-134.5 113l96 77q35 -51 90 -79.5
t119 -28.5t119 28.5t90 79.5z" />
    <glyph glyph-name="uni1EB7" unicode="&#x1eb7;" 
d="M836 0h-203v100q-43 -60 -113 -92.5t-147 -32.5q-126 0 -214.5 89t-88.5 241t87.5 237t215.5 85q78 0 148.5 -30.5t111.5 -88.5v143q0 90 -50.5 139.5t-142.5 49.5q-135 0 -245 -113l-80 143q72 72 167 108t195 36q165 0 262 -82.5t97 -255.5v-676zM446 117q56 0 107 29
t80 79v150q-29 52 -79.5 81t-107.5 29q-78 0 -125 -51.5t-47 -132.5t47 -132.5t125 -51.5zM481 -387q-47 0 -81.5 34t-34.5 81t34.5 81.5t81.5 34.5t81 -34.5t34 -81.5t-34 -81t-81 -34zM782 1262q-53 -72 -133 -113t-172 -41q-91 0 -170.5 41t-134.5 113l96 77
q35 -51 90 -79.5t119 -28.5t119 28.5t90 79.5z" />
    <glyph glyph-name="uni1EB8" unicode="&#x1eb8;" horiz-adv-x="966" 
d="M879 0h-748v1366h748v-199h-521v-370h506v-201h-506v-395h521v-201zM514 -387q-47 0 -82 34t-35 81t35 81.5t82 34.5t81 -34.5t34 -81.5t-34 -81t-81 -34z" />
    <glyph glyph-name="uni1EB9" unicode="&#x1eb9;" horiz-adv-x="970" 
d="M516 -25q-202 0 -323 144.5t-121 376.5q0 144 50 261t148 187t226 70q130 0 224.5 -70t140.5 -187.5t46 -269.5v-59h-628q6 -126 74 -205.5t184 -79.5q60 0 120.5 28.5t102.5 78.5l98 -123q-63 -72 -152.5 -112t-189.5 -40zM709 573q-1 39 -8 76t-23.5 73.5t-40 64
t-60.5 44.5t-83 17q-55 0 -97.5 -25.5t-67.5 -68t-38 -88t-15 -93.5h433zM500 -387q-47 0 -82 34t-35 81t35 81.5t82 34.5t80.5 -34.5t33.5 -81.5t-33.5 -81t-80.5 -34z" />
    <glyph glyph-name="uni1EBA" unicode="&#x1eba;" horiz-adv-x="966" 
d="M879 0h-748v1366h748v-199h-521v-370h506v-201h-506v-395h521v-201zM434 1550l-80 21q14 50 51.5 79t92.5 29q61 0 99 -34t38 -103q0 -59 -37 -115h-90q43 51 43 111q0 66 -55 66q-46 0 -62 -54z" />
    <glyph glyph-name="uni1EBB" unicode="&#x1ebb;" horiz-adv-x="970" 
d="M516 -25q-202 0 -323 144.5t-121 376.5q0 144 50 261t148 187t226 70q130 0 224.5 -70t140.5 -187.5t46 -269.5v-59h-628q6 -126 74 -205.5t184 -79.5q60 0 120.5 28.5t102.5 78.5l98 -123q-63 -72 -152.5 -112t-189.5 -40zM709 573q-1 39 -8 76t-23.5 73.5t-40 64
t-60.5 44.5t-83 17q-55 0 -97.5 -25.5t-67.5 -68t-38 -88t-15 -93.5h433zM436 1202l-80 21q14 50 51.5 79t92.5 29q61 0 99 -34t38 -103q0 -59 -37 -115h-90q43 51 43 111q0 65 -55 65q-46 0 -62 -53z" />
    <glyph glyph-name="uni1EBC" unicode="&#x1ebc;" horiz-adv-x="966" 
d="M879 0h-748v1366h748v-199h-521v-370h506v-201h-506v-395h521v-201zM606 1477q-43 0 -76.5 26t-50.5 56.5t-39 56.5t-45 26q-30 0 -49.5 -39t-19.5 -114h-111q0 125 49 199.5t139 74.5q35 0 62.5 -17t45.5 -41t33 -48t32.5 -41t37.5 -17q30 0 49 38.5t19 113.5h111
q0 -125 -48.5 -199.5t-138.5 -74.5z" />
    <glyph glyph-name="uni1EBD" unicode="&#x1ebd;" horiz-adv-x="970" 
d="M516 -25q-202 0 -323 144.5t-121 376.5q0 144 50 261t148 187t226 70q130 0 224.5 -70t140.5 -187.5t46 -269.5v-59h-628q6 -126 74 -205.5t184 -79.5q60 0 120.5 28.5t102.5 78.5l98 -123q-63 -72 -152.5 -112t-189.5 -40zM709 573q-1 39 -8 76t-23.5 73.5t-40 64
t-60.5 44.5t-83 17q-55 0 -97.5 -25.5t-67.5 -68t-38 -88t-15 -93.5h433zM600 1135q-43 0 -76.5 26t-50.5 56.5t-39 56.5t-45 26q-30 0 -50 -39t-20 -114h-110q0 125 49 199.5t139 74.5q35 0 62.5 -17t45.5 -41t33 -48t32.5 -41t37.5 -17q30 0 49 38.5t19 113.5h110
q0 -125 -48 -199.5t-138 -74.5z" />
    <glyph glyph-name="uni1EBE" unicode="&#x1ebe;" horiz-adv-x="966" 
d="M768 1397h-123l-137 149l-131 -149h-123l162 221h186zM1124 1729l-274 -222h-139l225 222h188zM879 0h-748v1366h748v-199h-521v-370h506v-201h-506v-395h521v-201z" />
    <glyph glyph-name="uni1EBF" unicode="&#x1ebf;" horiz-adv-x="970" 
d="M756 1139h-123l-137 198l-131 -198h-123l161 295h187zM1102 1579l-275 -295h-139l225 295h189zM516 -25q-202 0 -323 144.5t-121 376.5q0 144 50 261t148 187t226 70q130 0 224.5 -70t140.5 -187.5t46 -269.5v-59h-628q6 -126 74 -205.5t184 -79.5q60 0 120.5 28.5
t102.5 78.5l98 -123q-63 -72 -152.5 -112t-189.5 -40zM709 573q-1 39 -8 76t-23.5 73.5t-40 64t-60.5 44.5t-83 17q-55 0 -97.5 -25.5t-67.5 -68t-38 -88t-15 -93.5h433z" />
    <glyph glyph-name="uni1EC0" unicode="&#x1ec0;" horiz-adv-x="966" 
d="M768 1397h-123l-137 149l-131 -149h-123l162 221h186zM879 0h-748v1366h748v-199h-521v-370h506v-201h-506v-395h521v-201zM309 1507h-139l-274 222h190z" />
    <glyph glyph-name="uni1EC1" unicode="&#x1ec1;" horiz-adv-x="970" 
d="M756 1139h-123l-137 198l-131 -198h-123l161 295h187zM516 -25q-202 0 -323 144.5t-121 376.5q0 144 50 261t148 187t226 70q130 0 224.5 -70t140.5 -187.5t46 -269.5v-59h-628q6 -126 74 -205.5t184 -79.5q60 0 120.5 28.5t102.5 78.5l98 -123q-63 -72 -152.5 -112
t-189.5 -40zM709 573q-1 39 -8 76t-23.5 73.5t-40 64t-60.5 44.5t-83 17q-55 0 -97.5 -25.5t-67.5 -68t-38 -88t-15 -93.5h433zM299 1284h-139l-275 295h191z" />
    <glyph glyph-name="uni1EC2" unicode="&#x1ec2;" horiz-adv-x="966" 
d="M768 1397h-123l-137 149l-131 -149h-123l162 221h186zM879 0h-748v1366h748v-199h-521v-370h506v-201h-506v-395h521v-201zM723 1616l-80 16q14 37 51 58.5t92 21.5q61 0 99.5 -25.5t38.5 -76.5q0 -43 -37 -86h-90q43 40 43 84q0 49 -56 49q-45 0 -61 -41z" />
    <glyph glyph-name="uni1EC3" unicode="&#x1ec3;" horiz-adv-x="970" 
d="M754 1139h-123l-137 198l-132 -198h-122l161 295h187zM516 -25q-202 0 -323 144.5t-121 376.5q0 144 50 261t148 187t226 70q130 0 224.5 -70t140.5 -187.5t46 -269.5v-59h-628q6 -126 74 -205.5t184 -79.5q60 0 120.5 28.5t102.5 78.5l98 -123q-63 -72 -152.5 -112
t-189.5 -40zM709 573q-1 39 -8 76t-23.5 73.5t-40 64t-60.5 44.5t-83 17q-55 0 -97.5 -25.5t-67.5 -68t-38 -88t-15 -93.5h433zM616 1489l-79 20q14 50 51 79.5t92 29.5q61 0 99 -34t38 -103q0 -59 -37 -115h-90q43 51 43 111q0 65 -55 65q-46 0 -62 -53z" />
    <glyph glyph-name="uni1EC4" unicode="&#x1ec4;" horiz-adv-x="966" 
d="M766 1389h-123l-137 98l-131 -98h-123l162 147h186zM879 0h-748v1366h748v-199h-521v-370h506v-201h-506v-395h521v-201zM608 1550q-43 0 -76.5 13t-50.5 28t-39 28t-45 13q-30 0 -49.5 -19t-19.5 -57h-111q0 62 49.5 100t139.5 38q42 0 75 -13t50 -28t39.5 -28t45.5 -13
q30 0 49 19t19 57h111q0 -63 -48.5 -100.5t-138.5 -37.5z" />
    <glyph glyph-name="uni1EC5" unicode="&#x1ec5;" horiz-adv-x="970" 
d="M754 1071h-123l-137 199l-132 -199h-122l161 295h187zM516 -25q-202 0 -323 144.5t-121 376.5q0 144 50 261t148 187t226 70q130 0 224.5 -70t140.5 -187.5t46 -269.5v-59h-628q6 -126 74 -205.5t184 -79.5q60 0 120.5 28.5t102.5 78.5l98 -123q-63 -72 -152.5 -112
t-189.5 -40zM709 573q-1 39 -8 76t-23.5 73.5t-40 64t-60.5 44.5t-83 17q-55 0 -97.5 -25.5t-67.5 -68t-38 -88t-15 -93.5h433zM600 1397q-43 0 -76.5 26t-50.5 57t-39 57t-45 26q-30 0 -50 -39.5t-20 -114.5h-110q0 125 49 199.5t139 74.5q35 0 62.5 -17t45.5 -40.5
t33 -47.5t32.5 -41t37.5 -17q30 0 49 38t19 113h110q0 -125 -48 -199.5t-138 -74.5z" />
    <glyph glyph-name="uni1EC6" unicode="&#x1ec6;" horiz-adv-x="966" 
d="M764 1481h-123l-137 198l-131 -198h-123l162 295h186zM879 0h-748v1366h748v-199h-521v-370h506v-201h-506v-395h521v-201zM514 -387q-47 0 -82 34t-35 81t35 81.5t82 34.5t81 -34.5t34 -81.5t-34 -81t-81 -34z" />
    <glyph glyph-name="uni1EC7" unicode="&#x1ec7;" horiz-adv-x="970" 
d="M756 1139h-123l-137 198l-131 -198h-123l161 295h187zM516 -25q-202 0 -323 144.5t-121 376.5q0 144 50 261t148 187t226 70q130 0 224.5 -70t140.5 -187.5t46 -269.5v-59h-628q6 -126 74 -205.5t184 -79.5q60 0 120.5 28.5t102.5 78.5l98 -123q-63 -72 -152.5 -112
t-189.5 -40zM709 573q-1 39 -8 76t-23.5 73.5t-40 64t-60.5 44.5t-83 17q-55 0 -97.5 -25.5t-67.5 -68t-38 -88t-15 -93.5h433zM500 -387q-47 0 -82 34t-35 81t35 81.5t82 34.5t80.5 -34.5t33.5 -81.5t-33.5 -81t-80.5 -34z" />
    <glyph glyph-name="uni1EC8" unicode="&#x1ec8;" horiz-adv-x="489" 
d="M358 0h-227v1366h227v-1366zM184 1550l-80 21q14 50 51.5 79t92.5 29q61 0 99 -34t38 -103q0 -59 -37 -115h-90q43 51 43 111q0 66 -55 66q-46 0 -62 -54z" />
    <glyph glyph-name="uni1EC9" unicode="&#x1ec9;" horiz-adv-x="446" 
d="M326 0h-205v989h205v-989zM162 1202l-80 21q14 50 51 79t92 29q61 0 99 -34t38 -103q0 -60 -36 -115h-90q43 51 43 111q0 65 -56 65q-45 0 -61 -53z" />
    <glyph glyph-name="uni1ECA" unicode="&#x1eca;" horiz-adv-x="489" 
d="M358 0h-227v1366h227v-1366zM248 -387q-47 0 -82 34t-35 81t35 81.5t82 34.5t80.5 -34.5t33.5 -81.5t-33.5 -81t-80.5 -34z" />
    <glyph glyph-name="uni1ECB" unicode="&#x1ecb;" horiz-adv-x="446" 
d="M223 1114q-53 0 -91 37.5t-38 89.5q0 54 38 91.5t91 37.5t90 -37.5t37 -91.5q0 -53 -37 -90t-90 -37zM326 0h-205v989h205v-989zM225 -387q-47 0 -81.5 34t-34.5 81t34.5 81.5t81.5 34.5t81 -34.5t34 -81.5t-34 -81t-81 -34z" />
    <glyph glyph-name="uni1ECC" unicode="&#x1ecc;" horiz-adv-x="1253" 
d="M627 -25q-169 0 -294.5 93.5t-189 252.5t-63.5 361t63.5 361t189 252.5t294.5 93.5t294.5 -93.5t189 -252.5t63.5 -361t-63.5 -361t-189 -252.5t-294.5 -93.5zM627 178q99 0 171 67.5t108 180.5t36 256q0 222 -83.5 364t-231.5 142q-149 0 -232.5 -141.5t-83.5 -364.5
q0 -143 35.5 -256t108 -180.5t172.5 -67.5zM633 -387q-47 0 -82 34t-35 81t35 81.5t82 34.5t81 -34.5t34 -81.5t-34 -81t-81 -34z" />
    <glyph glyph-name="uni1ECD" unicode="&#x1ecd;" horiz-adv-x="999" 
d="M500 -25q-102 0 -185 42t-135 114t-80 165.5t-28 199.5t28 199t80.5 164.5t135 113t184.5 41.5t184.5 -41.5t135 -113t80.5 -164.5t28 -199t-28 -199.5t-80 -165.5t-135 -114t-185 -42zM500 156q106 0 161.5 98t55.5 242t-55.5 241t-161.5 97t-161.5 -97t-55.5 -241
t55.5 -242t161.5 -98zM502 -387q-47 0 -82 34t-35 81t35 81.5t82 34.5t80.5 -34.5t33.5 -81.5t-33.5 -81t-80.5 -34z" />
    <glyph glyph-name="uni1ECE" unicode="&#x1ece;" horiz-adv-x="1253" 
d="M627 -25q-169 0 -294.5 93.5t-189 252.5t-63.5 361t63.5 361t189 252.5t294.5 93.5t294.5 -93.5t189 -252.5t63.5 -361t-63.5 -361t-189 -252.5t-294.5 -93.5zM627 178q99 0 171 67.5t108 180.5t36 256q0 222 -83.5 364t-231.5 142q-149 0 -232.5 -141.5t-83.5 -364.5
q0 -143 35.5 -256t108 -180.5t172.5 -67.5zM565 1550l-80 21q14 50 51.5 79t92.5 29q61 0 99 -34t38 -103q0 -59 -37 -115h-90q43 51 43 111q0 66 -55 66q-46 0 -62 -54z" />
    <glyph glyph-name="uni1ECF" unicode="&#x1ecf;" horiz-adv-x="999" 
d="M500 -25q-102 0 -185 42t-135 114t-80 165.5t-28 199.5t28 199t80.5 164.5t135 113t184.5 41.5t184.5 -41.5t135 -113t80.5 -164.5t28 -199t-28 -199.5t-80 -165.5t-135 -114t-185 -42zM500 156q106 0 161.5 98t55.5 242t-55.5 241t-161.5 97t-161.5 -97t-55.5 -241
t55.5 -242t161.5 -98zM440 1202l-80 21q14 50 51.5 79t92.5 29q61 0 99 -34t38 -103q0 -59 -37 -115h-90q43 51 43 111q0 65 -55 65q-46 0 -62 -53z" />
    <glyph glyph-name="uni1ED0" unicode="&#x1ed0;" horiz-adv-x="1253" 
d="M879 1397h-123l-138 149l-131 -149h-122l161 221h187zM1235 1729l-274 -222h-140l226 222h188zM627 -25q-169 0 -294.5 93.5t-189 252.5t-63.5 361t63.5 361t189 252.5t294.5 93.5t294.5 -93.5t189 -252.5t63.5 -361t-63.5 -361t-189 -252.5t-294.5 -93.5zM627 178
q99 0 171 67.5t108 180.5t36 256q0 222 -83.5 364t-231.5 142q-149 0 -232.5 -141.5t-83.5 -364.5q0 -143 35.5 -256t108 -180.5t172.5 -67.5z" />
    <glyph glyph-name="uni1ED1" unicode="&#x1ed1;" horiz-adv-x="999" 
d="M758 1139h-123l-137 198l-131 -198h-123l162 295h186zM1104 1579l-275 -295h-139l225 295h189zM500 -25q-102 0 -185 42t-135 114t-80 165.5t-28 199.5t28 199t80.5 164.5t135 113t184.5 41.5t184.5 -41.5t135 -113t80.5 -164.5t28 -199t-28 -199.5t-80 -165.5t-135 -114
t-185 -42zM500 156q106 0 161.5 98t55.5 242t-55.5 241t-161.5 97t-161.5 -97t-55.5 -241t55.5 -242t161.5 -98z" />
    <glyph glyph-name="uni1ED2" unicode="&#x1ed2;" horiz-adv-x="1253" 
d="M874 1397h-122l-138 149l-131 -149h-123l162 221h187zM627 -25q-169 0 -294.5 93.5t-189 252.5t-63.5 361t63.5 361t189 252.5t294.5 93.5t294.5 -93.5t189 -252.5t63.5 -361t-63.5 -361t-189 -252.5t-294.5 -93.5zM627 178q99 0 171 67.5t108 180.5t36 256
q0 222 -83.5 364t-231.5 142q-149 0 -232.5 -141.5t-83.5 -364.5q0 -143 35.5 -256t108 -180.5t172.5 -67.5zM418 1507h-139l-275 222h191z" />
    <glyph glyph-name="uni1ED3" unicode="&#x1ed3;" horiz-adv-x="999" 
d="M758 1139h-123l-137 198l-131 -198h-123l162 295h186zM500 -25q-102 0 -185 42t-135 114t-80 165.5t-28 199.5t28 199t80.5 164.5t135 113t184.5 41.5t184.5 -41.5t135 -113t80.5 -164.5t28 -199t-28 -199.5t-80 -165.5t-135 -114t-185 -42zM500 156q106 0 161.5 98
t55.5 242t-55.5 241t-161.5 97t-161.5 -97t-55.5 -241t55.5 -242t161.5 -98zM301 1284h-139l-275 295h191z" />
    <glyph glyph-name="uni1ED4" unicode="&#x1ed4;" horiz-adv-x="1253" 
d="M874 1397h-122l-138 149l-131 -149h-123l162 221h187zM627 -25q-169 0 -294.5 93.5t-189 252.5t-63.5 361t63.5 361t189 252.5t294.5 93.5t294.5 -93.5t189 -252.5t63.5 -361t-63.5 -361t-189 -252.5t-294.5 -93.5zM627 178q99 0 171 67.5t108 180.5t36 256
q0 222 -83.5 364t-231.5 142q-149 0 -232.5 -141.5t-83.5 -364.5q0 -143 35.5 -256t108 -180.5t172.5 -67.5zM829 1616l-79 16q14 37 51 58.5t92 21.5q61 0 99 -25.5t38 -76.5q0 -43 -37 -86h-90q43 40 43 84q0 49 -55 49q-46 0 -62 -41z" />
    <glyph glyph-name="uni1ED5" unicode="&#x1ed5;" horiz-adv-x="999" 
d="M758 1139h-123l-137 198l-131 -198h-123l162 295h186zM500 -25q-102 0 -185 42t-135 114t-80 165.5t-28 199.5t28 199t80.5 164.5t135 113t184.5 41.5t184.5 -41.5t135 -113t80.5 -164.5t28 -199t-28 -199.5t-80 -165.5t-135 -114t-185 -42zM500 156q106 0 161.5 98
t55.5 242t-55.5 241t-161.5 97t-161.5 -97t-55.5 -241t55.5 -242t161.5 -98zM618 1489l-79 20q14 50 51 79.5t92 29.5q61 0 99 -34t38 -103q0 -59 -37 -115h-90q43 51 43 111q0 65 -55 65q-46 0 -62 -53z" />
    <glyph glyph-name="uni1ED6" unicode="&#x1ed6;" horiz-adv-x="1253" 
d="M883 1389h-123l-137 98l-131 -98h-123l161 147h187zM627 -25q-169 0 -294.5 93.5t-189 252.5t-63.5 361t63.5 361t189 252.5t294.5 93.5t294.5 -93.5t189 -252.5t63.5 -361t-63.5 -361t-189 -252.5t-294.5 -93.5zM627 178q99 0 171 67.5t108 180.5t36 256
q0 222 -83.5 364t-231.5 142q-149 0 -232.5 -141.5t-83.5 -364.5q0 -143 35.5 -256t108 -180.5t172.5 -67.5zM725 1550q-43 0 -76.5 13t-50.5 28t-39 28t-45 13q-30 0 -50 -19t-20 -57h-110q0 62 49 100t139 38q42 0 75.5 -13t50.5 -28t39.5 -28t45.5 -13q30 0 49 19t19 57
h110q0 -63 -48 -100.5t-138 -37.5z" />
    <glyph glyph-name="uni1ED7" unicode="&#x1ed7;" horiz-adv-x="999" 
d="M758 1071h-123l-137 199l-131 -199h-123l162 295h186zM500 -25q-102 0 -185 42t-135 114t-80 165.5t-28 199.5t28 199t80.5 164.5t135 113t184.5 41.5t184.5 -41.5t135 -113t80.5 -164.5t28 -199t-28 -199.5t-80 -165.5t-135 -114t-185 -42zM500 156q106 0 161.5 98
t55.5 242t-55.5 241t-161.5 97t-161.5 -97t-55.5 -241t55.5 -242t161.5 -98zM602 1397q-43 0 -76.5 26t-50.5 57t-39 57t-45 26q-30 0 -49.5 -39.5t-19.5 -114.5h-111q0 125 49 199.5t139 74.5q35 0 62.5 -17t45.5 -40.5t33 -47.5t32.5 -41t37.5 -17q30 0 49 38t19 113h110
q0 -125 -48 -199.5t-138 -74.5z" />
    <glyph glyph-name="uni1ED8" unicode="&#x1ed8;" horiz-adv-x="1253" 
d="M887 1481h-123l-137 198l-131 -198h-123l162 295h186zM627 -25q-169 0 -294.5 93.5t-189 252.5t-63.5 361t63.5 361t189 252.5t294.5 93.5t294.5 -93.5t189 -252.5t63.5 -361t-63.5 -361t-189 -252.5t-294.5 -93.5zM627 178q99 0 171 67.5t108 180.5t36 256
q0 222 -83.5 364t-231.5 142q-149 0 -232.5 -141.5t-83.5 -364.5q0 -143 35.5 -256t108 -180.5t172.5 -67.5zM633 -387q-47 0 -82 34t-35 81t35 81.5t82 34.5t81 -34.5t34 -81.5t-34 -81t-81 -34z" />
    <glyph glyph-name="uni1ED9" unicode="&#x1ed9;" horiz-adv-x="999" 
d="M758 1139h-123l-137 198l-131 -198h-123l162 295h186zM500 -25q-102 0 -185 42t-135 114t-80 165.5t-28 199.5t28 199t80.5 164.5t135 113t184.5 41.5t184.5 -41.5t135 -113t80.5 -164.5t28 -199t-28 -199.5t-80 -165.5t-135 -114t-185 -42zM500 156q106 0 161.5 98
t55.5 242t-55.5 241t-161.5 97t-161.5 -97t-55.5 -241t55.5 -242t161.5 -98zM500 -387q-47 0 -82 34t-35 81t35 81.5t82 34.5t80.5 -34.5t33.5 -81.5t-33.5 -81t-80.5 -34z" />
    <glyph glyph-name="uni1EDA" unicode="&#x1eda;" horiz-adv-x="1253" 
d="M936 1776l-274 -295h-140l226 295h188zM627 -25q-169 0 -294.5 93.5t-189 252.5t-63.5 361t63.5 361t189 252.5t294.5 93.5q259 0 411 -215q73 66 82 137q-4 -4 -24 -4q-38 0 -63 26.5t-25 67.5q0 42 29 71t71 29q47 0 80 -38t33 -101q0 -76 -38 -146.5t-100 -117.5
q91 -187 91 -416q0 -202 -63.5 -361t-189 -252.5t-294.5 -93.5zM627 178q99 0 171 67.5t108 180.5t36 256q0 222 -83.5 364t-231.5 142q-149 0 -232.5 -141.5t-83.5 -364.5q0 -143 35.5 -256t108 -180.5t172.5 -67.5z" />
    <glyph glyph-name="uni1EDB" unicode="&#x1edb;" horiz-adv-x="999" 
d="M809 1434l-274 -295h-140l226 295h188zM954 1087q0 -71 -32.5 -136t-87.5 -113q94 -142 94 -342q0 -106 -28 -199.5t-80 -165.5t-135 -114t-185 -42t-185 42t-135 114t-80 165.5t-28 199.5t28 199t80.5 164.5t135 113t184.5 41.5q164 0 276 -109q69 66 78 131
q-4 -4 -25 -4q-38 0 -63 26.5t-25 67.5q0 42 29.5 71.5t71.5 29.5q46 0 79 -38t33 -102zM500 156q106 0 161.5 98t55.5 242t-55.5 241t-161.5 97t-161.5 -97t-55.5 -241t55.5 -242t161.5 -98z" />
    <glyph glyph-name="uni1EDC" unicode="&#x1edc;" horiz-adv-x="1253" 
d="M627 -25q-169 0 -294.5 93.5t-189 252.5t-63.5 361t63.5 361t189 252.5t294.5 93.5q259 0 411 -215q73 66 82 137q-4 -4 -24 -4q-38 0 -63 26.5t-25 67.5q0 42 29 71t71 29q47 0 80 -38t33 -101q0 -76 -38 -146.5t-100 -117.5q91 -187 91 -416q0 -202 -63.5 -361
t-189 -252.5t-294.5 -93.5zM627 178q99 0 171 67.5t108 180.5t36 256q0 222 -83.5 364t-231.5 142q-149 0 -232.5 -141.5t-83.5 -364.5q0 -143 35.5 -256t108 -180.5t172.5 -67.5zM731 1481h-139l-275 295h191z" />
    <glyph glyph-name="uni1EDD" unicode="&#x1edd;" horiz-adv-x="999" 
d="M954 1087q0 -71 -32.5 -136t-87.5 -113q94 -142 94 -342q0 -106 -28 -199.5t-80 -165.5t-135 -114t-185 -42t-185 42t-135 114t-80 165.5t-28 199.5t28 199t80.5 164.5t135 113t184.5 41.5q164 0 276 -109q69 66 78 131q-4 -4 -25 -4q-38 0 -63 26.5t-25 67.5
q0 42 29.5 71.5t71.5 29.5q46 0 79 -38t33 -102zM500 156q106 0 161.5 98t55.5 242t-55.5 241t-161.5 97t-161.5 -97t-55.5 -241t55.5 -242t161.5 -98zM604 1139h-139l-275 295h191z" />
    <glyph glyph-name="uni1EDE" unicode="&#x1ede;" horiz-adv-x="1253" 
d="M627 -25q-169 0 -294.5 93.5t-189 252.5t-63.5 361t63.5 361t189 252.5t294.5 93.5q259 0 411 -215q73 66 82 137q-4 -4 -24 -4q-38 0 -63 26.5t-25 67.5q0 42 29 71t71 29q47 0 80 -38t33 -101q0 -76 -38 -146.5t-100 -117.5q91 -187 91 -416q0 -202 -63.5 -361
t-189 -252.5t-294.5 -93.5zM627 178q99 0 171 67.5t108 180.5t36 256q0 222 -83.5 364t-231.5 142q-149 0 -232.5 -141.5t-83.5 -364.5q0 -143 35.5 -256t108 -180.5t172.5 -67.5zM565 1550l-80 21q14 50 51.5 79t92.5 29q61 0 99 -34t38 -103q0 -59 -37 -115h-90
q43 51 43 111q0 66 -55 66q-46 0 -62 -54z" />
    <glyph glyph-name="uni1EDF" unicode="&#x1edf;" horiz-adv-x="999" 
d="M954 1087q0 -71 -32.5 -136t-87.5 -113q94 -142 94 -342q0 -106 -28 -199.5t-80 -165.5t-135 -114t-185 -42t-185 42t-135 114t-80 165.5t-28 199.5t28 199t80.5 164.5t135 113t184.5 41.5q164 0 276 -109q69 66 78 131q-4 -4 -25 -4q-38 0 -63 26.5t-25 67.5
q0 42 29.5 71.5t71.5 29.5q46 0 79 -38t33 -102zM500 156q106 0 161.5 98t55.5 242t-55.5 241t-161.5 97t-161.5 -97t-55.5 -241t55.5 -242t161.5 -98zM440 1202l-80 21q14 50 51.5 79t92.5 29q61 0 99 -34t38 -103q0 -59 -37 -115h-90q43 51 43 111q0 65 -55 65
q-46 0 -62 -53z" />
    <glyph glyph-name="uni1EE0" unicode="&#x1ee0;" horiz-adv-x="1253" 
d="M627 -25q-169 0 -294.5 93.5t-189 252.5t-63.5 361t63.5 361t189 252.5t294.5 93.5q259 0 411 -215q73 66 82 137q-4 -4 -24 -4q-38 0 -63 26.5t-25 67.5q0 42 29 71t71 29q47 0 80 -38t33 -101q0 -76 -38 -146.5t-100 -117.5q91 -187 91 -416q0 -202 -63.5 -361
t-189 -252.5t-294.5 -93.5zM627 178q99 0 171 67.5t108 180.5t36 256q0 222 -83.5 364t-231.5 142q-149 0 -232.5 -141.5t-83.5 -364.5q0 -143 35.5 -256t108 -180.5t172.5 -67.5zM731 1477q-43 0 -76.5 26t-50.5 56.5t-39 56.5t-45 26q-30 0 -49.5 -39t-19.5 -114h-111
q0 125 49 199.5t139 74.5q35 0 62.5 -17t45.5 -41t33 -48t32.5 -41t37.5 -17q30 0 49 38.5t19 113.5h111q0 -125 -48.5 -199.5t-138.5 -74.5z" />
    <glyph glyph-name="uni1EE1" unicode="&#x1ee1;" horiz-adv-x="999" 
d="M954 1087q0 -71 -32.5 -136t-87.5 -113q94 -142 94 -342q0 -106 -28 -199.5t-80 -165.5t-135 -114t-185 -42t-185 42t-135 114t-80 165.5t-28 199.5t28 199t80.5 164.5t135 113t184.5 41.5q164 0 276 -109q69 66 78 131q-4 -4 -25 -4q-38 0 -63 26.5t-25 67.5
q0 42 29.5 71.5t71.5 29.5q46 0 79 -38t33 -102zM500 156q106 0 161.5 98t55.5 242t-55.5 241t-161.5 97t-161.5 -97t-55.5 -241t55.5 -242t161.5 -98zM586 1135q-43 0 -76.5 26t-50.5 56.5t-39 56.5t-45 26q-30 0 -50 -39t-20 -114h-110q0 125 49 199.5t139 74.5
q35 0 62.5 -17t45.5 -41t33 -48t32.5 -41t37.5 -17q30 0 49 38.5t19 113.5h110q0 -125 -48 -199.5t-138 -74.5z" />
    <glyph glyph-name="uni1EE2" unicode="&#x1ee2;" horiz-adv-x="1253" 
d="M627 -25q-169 0 -294.5 93.5t-189 252.5t-63.5 361t63.5 361t189 252.5t294.5 93.5q259 0 411 -215q73 66 82 137q-4 -4 -24 -4q-38 0 -63 26.5t-25 67.5q0 42 29 71t71 29q47 0 80 -38t33 -101q0 -76 -38 -146.5t-100 -117.5q91 -187 91 -416q0 -202 -63.5 -361
t-189 -252.5t-294.5 -93.5zM627 178q99 0 171 67.5t108 180.5t36 256q0 222 -83.5 364t-231.5 142q-149 0 -232.5 -141.5t-83.5 -364.5q0 -143 35.5 -256t108 -180.5t172.5 -67.5zM633 -387q-47 0 -82 34t-35 81t35 81.5t82 34.5t81 -34.5t34 -81.5t-34 -81t-81 -34z" />
    <glyph glyph-name="uni1EE3" unicode="&#x1ee3;" horiz-adv-x="999" 
d="M954 1087q0 -71 -32.5 -136t-87.5 -113q94 -142 94 -342q0 -106 -28 -199.5t-80 -165.5t-135 -114t-185 -42t-185 42t-135 114t-80 165.5t-28 199.5t28 199t80.5 164.5t135 113t184.5 41.5q164 0 276 -109q69 66 78 131q-4 -4 -25 -4q-38 0 -63 26.5t-25 67.5
q0 42 29.5 71.5t71.5 29.5q46 0 79 -38t33 -102zM500 156q106 0 161.5 98t55.5 242t-55.5 241t-161.5 97t-161.5 -97t-55.5 -241t55.5 -242t161.5 -98zM502 -387q-47 0 -82 34t-35 81t35 81.5t82 34.5t80.5 -34.5t33.5 -81.5t-33.5 -81t-80.5 -34z" />
    <glyph glyph-name="uni1EE4" unicode="&#x1ee4;" horiz-adv-x="1212" 
d="M606 -25q-223 0 -349 127t-126 357v907h227v-909q0 -136 64.5 -208.5t183.5 -72.5t183.5 72.5t64.5 208.5v909h227v-907q0 -230 -126 -357t-349 -127zM612 -387q-47 0 -81.5 34t-34.5 81t34.5 81.5t81.5 34.5t81 -34.5t34 -81.5t-34 -81t-81 -34z" />
    <glyph glyph-name="uni1EE5" unicode="&#x1ee5;" horiz-adv-x="993" 
d="M872 0h-204v131q-45 -66 -122 -111t-167 -45q-258 0 -258 267v747h205v-676q0 -83 36 -120t105 -37q61 0 115 39t86 96v698h204v-989zM500 -387q-47 0 -82 34t-35 81t35 81.5t82 34.5t80.5 -34.5t33.5 -81.5t-33.5 -81t-80.5 -34z" />
    <glyph glyph-name="uni1EE6" unicode="&#x1ee6;" horiz-adv-x="1212" 
d="M606 -25q-223 0 -349 127t-126 357v907h227v-909q0 -136 64.5 -208.5t183.5 -72.5t183.5 72.5t64.5 208.5v909h227v-907q0 -230 -126 -357t-349 -127zM547 1550l-80 21q14 50 51 79t92 29q61 0 99.5 -34.5t38.5 -102.5q0 -59 -37 -115h-90q43 51 43 111q0 33 -15.5 49.5
t-40.5 16.5q-45 0 -61 -54z" />
    <glyph glyph-name="uni1EE7" unicode="&#x1ee7;" horiz-adv-x="993" 
d="M872 0h-204v131q-45 -66 -122 -111t-167 -45q-258 0 -258 267v747h205v-676q0 -83 36 -120t105 -37q61 0 115 39t86 96v698h204v-989zM436 1202l-80 21q14 50 51.5 79t92.5 29q61 0 99 -34t38 -103q0 -59 -37 -115h-90q43 51 43 111q0 65 -55 65q-46 0 -62 -53z" />
    <glyph glyph-name="uni1EE8" unicode="&#x1ee8;" horiz-adv-x="1212" 
d="M915 1776l-274 -295h-139l225 295h188zM1292 1491q0 -91 -55 -174.5t-156 -134.5v-723q0 -230 -126 -357t-349 -127t-349 127t-126 357v907h227v-909q0 -136 64.5 -208.5t183.5 -72.5t183.5 72.5t64.5 208.5v909h227v-88q42 30 73.5 75t37.5 87q-8 -4 -25 -4
q-38 0 -63 26.5t-25 67.5q0 40 29 69t70 29q48 0 81 -37t33 -100z" />
    <glyph glyph-name="uni1EE9" unicode="&#x1ee9;" horiz-adv-x="993" 
d="M805 1434l-275 -295h-139l225 295h189zM872 0h-204v131q-45 -66 -122 -111t-167 -45q-258 0 -258 267v747h205v-676q0 -83 36 -120t105 -37q61 0 115 39t86 96v698h204v-49q54 61 60 115l-10 -1q-10 -1 -15 -1q-39 0 -64.5 25.5t-25.5 66.5t30 70.5t71 29.5q48 0 81 -37
t33 -100q0 -78 -41.5 -152t-118.5 -127v-829z" />
    <glyph glyph-name="uni1EEA" unicode="&#x1eea;" horiz-adv-x="1212" 
d="M711 1481h-140l-274 295h190zM1292 1491q0 -91 -55 -174.5t-156 -134.5v-723q0 -230 -126 -357t-349 -127t-349 127t-126 357v907h227v-909q0 -136 64.5 -208.5t183.5 -72.5t183.5 72.5t64.5 208.5v909h227v-88q42 30 73.5 75t37.5 87q-8 -4 -25 -4q-38 0 -63 26.5
t-25 67.5q0 40 29 69t70 29q48 0 81 -37t33 -100z" />
    <glyph glyph-name="uni1EEB" unicode="&#x1eeb;" horiz-adv-x="993" 
d="M600 1139h-139l-275 295h191zM872 0h-204v131q-45 -66 -122 -111t-167 -45q-258 0 -258 267v747h205v-676q0 -83 36 -120t105 -37q61 0 115 39t86 96v698h204v-49q54 61 60 115l-10 -1q-10 -1 -15 -1q-39 0 -64.5 25.5t-25.5 66.5t30 70.5t71 29.5q48 0 81 -37t33 -100
q0 -78 -41.5 -152t-118.5 -127v-829z" />
    <glyph glyph-name="uni1EEC" unicode="&#x1eec;" horiz-adv-x="1212" 
d="M547 1550l-80 21q14 50 51 79t92 29q61 0 99.5 -34.5t38.5 -102.5q0 -59 -37 -115h-90q43 51 43 111q0 33 -15.5 49.5t-40.5 16.5q-45 0 -61 -54zM1292 1491q0 -91 -55 -174.5t-156 -134.5v-723q0 -230 -126 -357t-349 -127t-349 127t-126 357v907h227v-909
q0 -136 64.5 -208.5t183.5 -72.5t183.5 72.5t64.5 208.5v909h227v-88q42 30 73.5 75t37.5 87q-8 -4 -25 -4q-38 0 -63 26.5t-25 67.5q0 40 29 69t70 29q48 0 81 -37t33 -100z" />
    <glyph glyph-name="uni1EED" unicode="&#x1eed;" horiz-adv-x="993" 
d="M436 1202l-80 21q14 50 51.5 79t92.5 29q61 0 99 -34t38 -103q0 -59 -37 -115h-90q43 51 43 111q0 65 -55 65q-46 0 -62 -53zM872 0h-204v131q-45 -66 -122 -111t-167 -45q-258 0 -258 267v747h205v-676q0 -83 36 -120t105 -37q61 0 115 39t86 96v698h204v-49
q54 61 60 115l-10 -1q-10 -1 -15 -1q-39 0 -64.5 25.5t-25.5 66.5t30 70.5t71 29.5q48 0 81 -37t33 -100q0 -78 -41.5 -152t-118.5 -127v-829z" />
    <glyph glyph-name="uni1EEE" unicode="&#x1eee;" horiz-adv-x="1212" 
d="M1292 1491q0 -91 -55 -174.5t-156 -134.5v-723q0 -230 -126 -357t-349 -127t-349 127t-126 357v907h227v-909q0 -136 64.5 -208.5t183.5 -72.5t183.5 72.5t64.5 208.5v909h227v-88q42 30 73.5 75t37.5 87q-8 -4 -25 -4q-38 0 -63 26.5t-25 67.5q0 40 29 69t70 29
q48 0 81 -37t33 -100zM709 1477q-43 0 -76.5 26t-50.5 56.5t-39 56.5t-45 26q-30 0 -50 -39t-20 -114h-111q0 125 49.5 199.5t139.5 74.5q35 0 62.5 -17t45.5 -41t33 -48t32.5 -41t37.5 -17q30 0 48.5 38t18.5 114h111q0 -125 -48 -199.5t-138 -74.5z" />
    <glyph glyph-name="uni1EEF" unicode="&#x1eef;" horiz-adv-x="993" 
d="M872 0h-204v131q-45 -66 -122 -111t-167 -45q-258 0 -258 267v747h205v-676q0 -83 36 -120t105 -37q61 0 115 39t86 96v698h204v-49q54 61 60 115l-10 -1q-10 -1 -15 -1q-39 0 -64.5 25.5t-25.5 66.5t30 70.5t71 29.5q48 0 81 -37t33 -100q0 -78 -41.5 -152t-118.5 -127
v-829zM600 1135q-43 0 -76.5 26t-50.5 56.5t-39 56.5t-45 26q-30 0 -50 -39t-20 -114h-110q0 125 49 199.5t139 74.5q35 0 62.5 -17t45.5 -41t33 -48t32.5 -41t37.5 -17q30 0 49 38.5t19 113.5h110q0 -125 -48 -199.5t-138 -74.5z" />
    <glyph glyph-name="uni1EF0" unicode="&#x1ef0;" horiz-adv-x="1212" 
d="M612 -387q-47 0 -81.5 34t-34.5 81t34.5 81.5t81.5 34.5t81 -34.5t34 -81.5t-34 -81t-81 -34zM1292 1491q0 -91 -55 -174.5t-156 -134.5v-723q0 -230 -126 -357t-349 -127t-349 127t-126 357v907h227v-909q0 -136 64.5 -208.5t183.5 -72.5t183.5 72.5t64.5 208.5v909h227
v-88q42 30 73.5 75t37.5 87q-8 -4 -25 -4q-38 0 -63 26.5t-25 67.5q0 40 29 69t70 29q48 0 81 -37t33 -100z" />
    <glyph glyph-name="uni1EF1" unicode="&#x1ef1;" horiz-adv-x="993" 
d="M500 -387q-47 0 -82 34t-35 81t35 81.5t82 34.5t80.5 -34.5t33.5 -81.5t-33.5 -81t-80.5 -34zM872 0h-204v131q-45 -66 -122 -111t-167 -45q-258 0 -258 267v747h205v-676q0 -83 36 -120t105 -37q61 0 115 39t86 96v698h204v-49q54 61 60 115l-10 -1q-10 -1 -15 -1
q-39 0 -64.5 25.5t-25.5 66.5t30 70.5t71 29.5q48 0 81 -37t33 -100q0 -78 -41.5 -152t-118.5 -127v-829z" />
    <glyph glyph-name="Ygrave" unicode="&#x1ef2;" horiz-adv-x="1067" 
d="M647 0h-225v569l-424 797h252l285 -584l284 584h250l-422 -797v-569zM639 1481h-139l-275 295h191z" />
    <glyph glyph-name="ygrave" unicode="&#x1ef3;" horiz-adv-x="880" 
d="M86 -387l31 180q25 -14 65 -14q42 0 69 18.5t44 63.5l41 119l-332 1009h217l219 -743l222 743h217l-392 -1175q-39 -119 -109.5 -167t-180.5 -48q-64 0 -111 14zM545 1139h-139l-275 295h191z" />
    <glyph glyph-name="thinspace" unicode="&#x2009;" horiz-adv-x="86" 
 />
    <glyph glyph-name="endash" unicode="&#x2013;" horiz-adv-x="1079" 
d="M1018 408h-957v176h957v-176z" />
    <glyph glyph-name="emdash" unicode="&#x2014;" horiz-adv-x="1509" 
d="M1448 408h-1387v176h1387v-176z" />
    <glyph glyph-name="afii00208" unicode="&#x2015;" horiz-adv-x="1079" 
d="M1018 408h-957v176h957v-176z" />
    <glyph glyph-name="quoteleft" unicode="&#x2018;" horiz-adv-x="497" 
d="M96 1047q0 101 51 190.5t136 148.5l94 -73q-52 -32 -94.5 -87t-51.5 -106q12 4 33 4q51 0 85 -35t34 -90q0 -54 -40 -93.5t-95 -39.5q-63 0 -107.5 49t-44.5 132z" />
    <glyph glyph-name="quoteright" unicode="&#x2019;" horiz-adv-x="497" 
d="M397 1206q0 -102 -51 -192t-137 -150l-92 76q51 31 93 86.5t52 106.5q-21 -7 -33 -7q-51 0 -84.5 35.5t-33.5 89.5q0 56 39 95.5t94 39.5q64 0 108.5 -48.5t44.5 -131.5z" />
    <glyph glyph-name="quotesinglbase" unicode="&#x201a;" horiz-adv-x="495" 
d="M397 72q0 -102 -51 -192t-137 -150l-92 75q51 31 93 86.5t52 106.5q-12 -4 -33 -4q-51 0 -84.5 35t-33.5 90q0 56 39 95.5t94 39.5q65 0 109 -49t44 -133z" />
    <glyph glyph-name="quotereversed" unicode="&#x201b;" horiz-adv-x="497" 
d="M100 1206q0 83 44.5 131.5t109.5 48.5q55 0 94 -39.5t39 -95.5q0 -54 -34 -89.5t-85 -35.5q-11 0 -32 7q10 -51 52 -106.5t93 -86.5l-94 -76q-85 61 -136 151t-51 191z" />
    <glyph glyph-name="quotedblleft" unicode="&#x201c;" horiz-adv-x="866" 
d="M100 1047q0 101 51 190.5t136 148.5l94 -73q-51 -32 -93.5 -87t-51.5 -106q8 4 32 4q50 0 83.5 -35t33.5 -90t-38.5 -94t-94.5 -39q-63 0 -107.5 49t-44.5 132zM469 1047q0 101 51 190.5t135 148.5l95 -73q-52 -32 -94.5 -87t-49.5 -106q8 4 33 4q50 0 83.5 -35t33.5 -90
q0 -54 -39 -93.5t-94 -39.5q-64 0 -109 49t-45 132z" />
    <glyph glyph-name="quotedblright" unicode="&#x201d;" horiz-adv-x="866" 
d="M766 1206q0 -101 -50.5 -191.5t-135.5 -150.5l-95 76q52 32 94.5 87t51.5 106q-21 -7 -33 -7q-51 0 -85 35.5t-34 89.5q0 55 39.5 95t95.5 40q63 0 107.5 -48.5t44.5 -131.5zM397 1206q0 -102 -51 -192t-137 -150l-92 76q51 31 93 86.5t52 106.5q-21 -7 -33 -7
q-51 0 -84.5 35.5t-33.5 89.5q0 56 39 95.5t94 39.5q64 0 108.5 -48.5t44.5 -131.5z" />
    <glyph glyph-name="quotedblbase" unicode="&#x201e;" horiz-adv-x="866" 
d="M397 72q0 -102 -51 -192t-137 -150l-92 75q51 31 93 86.5t52 106.5q-12 -4 -33 -4q-51 0 -84.5 35t-33.5 90q0 56 39 95.5t94 39.5q65 0 109 -49t44 -133zM766 72q0 -101 -50.5 -191.5t-135.5 -150.5l-95 75q52 32 94.5 87t51.5 106q-12 -4 -33 -4q-51 0 -85 35t-34 90
t39.5 95t95.5 40q63 0 107.5 -49t44.5 -133z" />
    <glyph glyph-name="dagger" unicode="&#x2020;" horiz-adv-x="552" 
d="M508 1079l-182 8l8 -417h-117l10 417l-182 -8v107l182 -6l-10 206h117l-8 -206l182 6v-107z" />
    <glyph glyph-name="daggerdbl" unicode="&#x2021;" horiz-adv-x="552" 
d="M508 1186v-107l-182 8v-417l182 8v-107l-182 7l8 -209h-117l8 209l-180 -7v107l180 -8v417l-180 -8v107l180 -6l-8 206h117l-8 -206z" />
    <glyph glyph-name="bullet" unicode="&#x2022;" horiz-adv-x="733" 
d="M600 496q0 -94 -67.5 -162t-163.5 -68q-95 0 -163.5 68t-68.5 162q0 96 68 163.5t164 67.5q97 0 164 -67t67 -164z" />
    <glyph glyph-name="ellipsis" unicode="&#x2026;" horiz-adv-x="1486" 
d="M385 117q0 -56 -41 -98t-98 -42q-55 0 -95 42t-40 98t40 96.5t95 40.5q57 0 98 -40.5t41 -96.5zM881 117q0 -56 -41.5 -98t-98.5 -42q-55 0 -95 42t-40 98t40 96.5t95 40.5q57 0 98.5 -40.5t41.5 -96.5zM1376 117q0 -56 -41 -98t-98 -42q-55 0 -95 42t-40 98t40 96.5
t95 40.5q57 0 98 -40.5t41 -96.5z" />
    <glyph glyph-name="perthousand" unicode="&#x2030;" horiz-adv-x="2007" 
d="M651 1047q0 -145 -83 -240.5t-216 -95.5t-216 95.5t-83 240.5q0 147 83 243t216 96t216 -96t83 -243zM1100 1366l-721 -1366h-115l719 1366h117zM1305 311q0 -145 -83 -240.5t-216 -95.5t-215 95.5t-82 240.5q0 147 82 244.5t215 97.5t216 -97.5t83 -244.5zM504 1047
q0 97 -41.5 156t-110.5 59t-110 -59t-41 -156q0 -95 41.5 -154t109.5 -59q69 0 110.5 59.5t41.5 153.5zM1159 311q0 97 -42 157t-111 60t-110.5 -60t-41.5 -157q0 -94 41.5 -152.5t110.5 -58.5t111 58.5t42 152.5zM1954 311q0 -145 -83 -240.5t-216 -95.5t-215 95.5
t-82 240.5q0 147 82 244.5t215 97.5t216 -97.5t83 -244.5zM1808 311q0 97 -42 157t-111 60t-110.5 -60t-41.5 -157q0 -94 41.5 -152.5t110.5 -58.5t111 58.5t42 152.5z" />
    <glyph glyph-name="guilsinglleft" unicode="&#x2039;" horiz-adv-x="557" 
d="M496 129h-179l-256 369l256 362h179l-256 -362z" />
    <glyph glyph-name="guilsinglright" unicode="&#x203a;" horiz-adv-x="557" 
d="M496 498l-256 -369h-179l256 369l-256 362h179z" />
    <glyph glyph-name="uni203E" unicode="&#x203e;" horiz-adv-x="632" 
d="M633 1161h-633v123h633v-123z" />
    <glyph glyph-name="fraction" unicode="&#x2044;" horiz-adv-x="282" 
d="M559 1366l-721 -1366h-117l721 1366h117z" />
    </font>
</defs>
</svg>
